osu file format v14

[General]
AudioFilename: BEAT-NEW-WORLD.mp3
AudioLeadIn: 0
PreviewTime: 52984
Countdown: 0
SampleSet: Soft
StackLeniency: 0.7
Mode: 3
LetterboxInBreaks: 0
SpecialStyle: 0
WidescreenStoryboard: 0

[Editor]
DistanceSpacing: 0.8
BeatDivisor: 4
GridSize: 16
TimelineZoom: 1.4

[Metadata]
Title:BEAT-NEW-WORLD
TitleUnicode:BEAT-NEW-WORLD
Artist:Beatmario (COOL & CREATE)
ArtistUnicode:ビートまりお (COOL & CREATE)
Creator:Feerum
Version:NOVICE Lv.7
Source:SOUND VOLTEX III GRAVITY WARS
Tags:KONAMI BEMANI sdvx Touhou Project ZUN 懐かしき東方の血 ~ Old World, stage 3 theme 東方永夜抄 ~ Imperishable Night kamishirasawa keine BeatStream jubeat prop REFLEC BEAT groovin'!! Upper ijinjin jinjin -SoraGami- Bad_Apple instrumental electronic BEMANI×東方Project Ultimate MasterPieces
BeatmapID:703716
BeatmapSetID:315640

[Difficulty]
HPDrainRate:7
CircleSize:4
OverallDifficulty:7
ApproachRate:10
SliderMultiplier:1.4
SliderTickRate:1

[Events]
//Background and Video events
0,0,"BG NOV.jpg",0,0
//Break Periods
//Storyboard Layer 0 (Background)
//Storyboard Layer 1 (Fail)
//Storyboard Layer 2 (Pass)
//Storyboard Layer 3 (Foreground)
//Storyboard Layer 4 (Overlay)
//Storyboard Sound Samples
Sample,1827,0,"soft-hitfinish.wav",25
Sample,3879,0,"soft-hitwhistle.wav",30
Sample,4116,0,"soft-hitwhistle.wav",30
Sample,4195,0,"soft-hitwhistle.wav",30
Sample,4274,0,"soft-hitwhistle.wav",30
Sample,6327,0,"soft-hitwhistle.wav",30
Sample,6405,0,"soft-hitwhistle.wav",30
Sample,6484,0,"soft-hitwhistle.wav",30
Sample,6563,0,"soft-hitwhistle.wav",30
Sample,6642,0,"soft-hitwhistle.wav",30
Sample,6721,0,"soft-hitwhistle.wav",30
Sample,6800,0,"soft-hitwhistle.wav",30
Sample,11932,0,"soft-hitfinish.wav",25
Sample,13827,0,"normal-hitfinish.wav",15
Sample,14142,0,"normal-hitfinish.wav",15
Sample,16353,0,"soft-hitwhistle.wav",30
Sample,16669,0,"soft-hitclap.wav",35
Sample,16669,0,"soft-hitwhistle.wav",30
Sample,16748,0,"soft-hitwhistle.wav",30
Sample,16827,0,"soft-hitwhistle.wav",30
Sample,16905,0,"soft-hitwhistle.wav",30
Sample,16984,0,"soft-hitfinish.wav",25
Sample,18879,0,"normal-hitfinish.wav",15
Sample,19195,0,"normal-hitfinish.wav",15
Sample,21563,0,"soft-hitwhistle.wav",30
Sample,21800,0,"soft-hitwhistle.wav",30
Sample,21879,0,"soft-hitwhistle.wav",30
Sample,21958,0,"soft-hitwhistle.wav",30
Sample,22037,0,"soft-hitfinish.wav",25
Sample,23932,0,"normal-hitfinish.wav",15
Sample,24248,0,"normal-hitfinish.wav",15
Sample,24563,0,"normal-hitfinish.wav",15
Sample,25905,0,"soft-hitwhistle.wav",30
Sample,25984,0,"soft-hitwhistle.wav",30
Sample,26063,0,"soft-hitwhistle.wav",30
Sample,26458,0,"soft-hitwhistle.wav",30
Sample,26774,0,"soft-hitwhistle.wav",30
Sample,26774,0,"soft-hitclap.wav",35
Sample,26853,0,"soft-hitwhistle.wav",30
Sample,26932,0,"soft-hitwhistle.wav",30
Sample,27011,0,"soft-hitwhistle.wav",30
Sample,27721,0,"soft-hitwhistle.wav",30
Sample,28432,0,"soft-hitwhistle.wav",30
Sample,28511,0,"soft-hitwhistle.wav",30
Sample,28590,0,"soft-hitwhistle.wav",30
Sample,28984,0,"soft-hitwhistle.wav",30
Sample,29300,0,"soft-hitclap.wav",35
Sample,29932,0,"soft-hitclap.wav",35
Sample,31195,0,"soft-hitclap.wav",35
Sample,31511,0,"soft-hitwhistle.wav",30
Sample,31827,0,"soft-hitclap.wav",35
Sample,32458,0,"soft-hitwhistle.wav",30
Sample,33721,0,"soft-hitwhistle.wav",30
Sample,34037,0,"soft-hitwhistle.wav",30
Sample,36563,0,"soft-hitwhistle.wav",30
Sample,37511,0,"soft-hitwhistle.wav",30
Sample,38774,0,"soft-hitwhistle.wav",30
Sample,39090,0,"soft-hitwhistle.wav",30
Sample,39405,0,"soft-hitwhistle.wav",30
Sample,42011,0,"soft-hitwhistle.wav",30
Sample,42090,0,"soft-hitwhistle.wav",30
Sample,42169,0,"soft-hitwhistle.wav",30
Sample,42327,0,"soft-hitwhistle.wav",30
Sample,42405,0,"soft-hitwhistle.wav",30
Sample,42484,0,"soft-hitwhistle.wav",30
Sample,42563,0,"soft-hitwhistle.wav",30
Sample,42879,0,"soft-hitwhistle.wav",30
Sample,43195,0,"soft-hitwhistle.wav",30
Sample,43669,0,"soft-hitwhistle.wav",30
Sample,43827,0,"soft-hitwhistle.wav",30
Sample,44142,0,"soft-hitwhistle.wav",30
Sample,44300,0,"soft-hitwhistle.wav",30
Sample,44537,0,"soft-hitwhistle.wav",30
Sample,44616,0,"soft-hitwhistle.wav",30
Sample,44695,0,"soft-hitwhistle.wav",30
Sample,45090,0,"soft-hitwhistle.wav",30
Sample,45327,0,"soft-hitwhistle.wav",30
Sample,45563,0,"soft-hitwhistle.wav",30
Sample,45642,0,"soft-hitwhistle.wav",30
Sample,48721,0,"soft-hitwhistle.wav",30
Sample,48879,0,"soft-hitwhistle.wav",30
Sample,49195,0,"soft-hitwhistle.wav",30
Sample,49353,0,"soft-hitwhistle.wav",30
Sample,49669,0,"soft-hitwhistle.wav",30
Sample,53379,0,"soft-hitwhistle.wav",30
Sample,53458,0,"soft-hitwhistle.wav",30
Sample,53537,0,"soft-hitwhistle.wav",30
Sample,53616,0,"soft-hitfinish.wav",25
Sample,53932,0,"soft-hitclap.wav",35
Sample,54248,0,"soft-hitwhistle.wav",30
Sample,55195,0,"soft-hitclap.wav",35
Sample,55511,0,"soft-hitwhistle.wav",30
Sample,56142,0,"normal-hitfinish.wav",15
Sample,56458,0,"soft-hitclap.wav",35
Sample,56774,0,"soft-hitwhistle.wav",30
Sample,57090,0,"soft-hitclap.wav",35
Sample,57405,0,"soft-hitwhistle.wav",30
Sample,57721,0,"soft-hitwhistle.wav",30
Sample,58037,0,"soft-hitwhistle.wav",30
Sample,58353,0,"soft-hitwhistle.wav",30
Sample,58984,0,"soft-hitclap.wav",35
Sample,59300,0,"soft-hitwhistle.wav",30
Sample,61511,0,"soft-hitclap.wav",35
Sample,63248,0,"soft-hitwhistle.wav",30
Sample,63405,0,"normal-hitfinish.wav",15
Sample,63721,0,"soft-hitfinish.wav",25
Sample,64037,0,"soft-hitwhistle.wav",30
Sample,64353,0,"soft-hitwhistle.wav",30
Sample,65300,0,"soft-hitwhistle.wav",30
Sample,65616,0,"soft-hitwhistle.wav",30
Sample,66248,0,"soft-hitwhistle.wav",30
Sample,66353,0,"soft-hitwhistle.wav",30
Sample,66458,0,"soft-hitwhistle.wav",30
Sample,66563,0,"soft-hitwhistle.wav",30
Sample,66721,0,"soft-hitwhistle.wav",30
Sample,67037,0,"normal-hitfinish.wav",15
Sample,67195,0,"soft-hitwhistle.wav",30
Sample,67511,0,"soft-hitwhistle.wav",30
Sample,67827,0,"soft-hitclap.wav",35
Sample,68142,0,"soft-hitwhistle.wav",30
Sample,68458,0,"soft-hitclap.wav",35
Sample,68774,0,"normal-hitfinish.wav",15
Sample,69090,0,"soft-hitclap.wav",35
Sample,69405,0,"soft-hitwhistle.wav",30
Sample,71616,0,"soft-hitclap.wav",35
Sample,72248,0,"soft-hitclap.wav",35
Sample,73827,0,"soft-hitfinish.wav",25
Sample,74458,0,"soft-hitwhistle.wav",30
Sample,75721,0,"soft-hitwhistle.wav",30
Sample,76984,0,"soft-hitwhistle.wav",30
Sample,77616,0,"soft-hitwhistle.wav",30
Sample,78879,0,"soft-hitfinish.wav",25
Sample,79195,0,"soft-hitclap.wav",35
Sample,79511,0,"soft-hitwhistle.wav",30
Sample,79827,0,"soft-hitclap.wav",35
Sample,83932,0,"soft-hitfinish.wav",25
Sample,85827,0,"normal-hitfinish.wav",15
Sample,86142,0,"normal-hitfinish.wav",15
Sample,86458,0,"soft-hitwhistle.wav",30
Sample,88984,0,"soft-hitfinish.wav",25
Sample,89300,0,"soft-hitclap.wav",35
Sample,89932,0,"soft-hitclap.wav",35
Sample,91827,0,"soft-hitclap.wav",35
Sample,92458,0,"soft-hitclap.wav",35
Sample,94037,0,"soft-hitfinish.wav",25
Sample,94984,0,"soft-hitclap.wav",35
Sample,96248,0,"soft-hitwhistle.wav",30
Sample,96327,0,"soft-hitwhistle.wav",30
Sample,96405,0,"soft-hitwhistle.wav",30
Sample,96484,0,"soft-hitwhistle.wav",30
Sample,97827,0,"soft-hitwhistle.wav",30
Sample,99800,0,"soft-hitwhistle.wav",30
Sample,99879,0,"soft-hitwhistle.wav",30
Sample,99958,0,"soft-hitwhistle.wav",30
Sample,101300,0,"soft-hitwhistle.wav",30
Sample,101616,0,"soft-hitfinish.wav",25
Sample,102248,0,"soft-hitfinish.wav",25
Sample,102563,0,"soft-hitclap.wav",35
Sample,108879,0,"soft-hitwhistle.wav",30
Sample,108958,0,"soft-hitwhistle.wav",30
Sample,109037,0,"soft-hitwhistle.wav",30
Sample,109116,0,"soft-hitwhistle.wav",30
Sample,111721,0,"normal-hitfinish.wav",15
Sample,111879,0,"normal-hitfinish.wav",15
Sample,112037,0,"normal-hitfinish.wav",15
Sample,112195,0,"soft-hitwhistle.wav",30
Sample,112511,0,"normal-hitfinish.wav",15
Sample,112669,0,"normal-hitfinish.wav",15

[TimingPoints]
1827,315.789473684211,4,2,0,40,1,0
53616,-100,4,2,0,40,0,1
73827,-100,4,2,0,40,0,0

[HitObjects]
448,192,1827,5,0,0:0:0:60:soft-hitwhistle.wav
320,192,1984,1,0,0:0:0:0:
192,192,2142,1,0,0:0:0:0:
320,192,2458,1,0,0:0:0:0:
192,192,2616,1,0,0:0:0:0:
64,192,2774,1,0,0:0:0:0:
448,192,3090,1,0,0:0:0:0:
320,192,3248,1,0,0:0:0:0:
192,192,3405,1,0,0:0:0:0:
320,192,3721,128,0,4037:0:0:0:60:soft-hitwhistle.wav
192,192,4037,128,0,4353:0:0:0:60:soft-hitwhistle.wav
448,192,4353,1,0,0:0:0:0:
64,192,4511,1,0,0:0:0:0:
320,192,4669,1,0,0:0:0:0:
64,192,4984,1,0,0:0:0:0:
320,192,5142,1,0,0:0:0:0:
192,192,5300,1,0,0:0:0:0:
448,192,5616,1,0,0:0:0:0:
64,192,5774,1,0,0:0:0:0:
320,192,5932,1,0,0:0:0:0:
448,192,6248,128,0,6879:0:0:0:60:soft-hitwhistle.wav
64,192,6879,1,0,0:0:0:60:soft-hitwhistle.wav
192,192,7037,1,0,0:0:0:0:
320,192,7195,1,0,0:0:0:0:
192,192,7511,1,0,0:0:0:0:
320,192,7669,1,0,0:0:0:0:
448,192,7827,1,0,0:0:0:0:
64,192,8142,1,0,0:0:0:60:soft-hitwhistle.wav
192,192,8300,1,0,0:0:0:0:
320,192,8458,1,0,0:0:0:0:
64,192,8774,128,0,9090:0:0:0:0:
192,192,9090,128,0,9405:0:0:0:0:
320,192,9405,1,0,0:0:0:60:soft-hitwhistle.wav
448,192,9405,1,0,0:0:0:30:normal-hitfinish.wav
64,192,9563,1,0,0:0:0:0:
320,192,9721,1,0,0:0:0:0:
64,192,10037,1,0,0:0:0:60:soft-hitwhistle.wav
192,192,10037,1,0,0:0:0:30:normal-hitfinish.wav
320,192,10195,1,0,0:0:0:0:
192,192,10353,1,0,0:0:0:0:
448,192,10511,128,0,11932:0:0:0:0:
320,192,10984,1,0,0:0:0:0:
192,192,11300,1,0,0:0:0:0:
64,192,11616,1,0,0:0:0:0:
320,192,11932,1,0,0:0:0:60:soft-hitwhistle.wav
64,192,12090,1,0,0:0:0:0:
192,192,12248,1,0,0:0:0:70:soft-hitclap.wav
448,192,12563,1,0,0:0:0:60:soft-hitwhistle.wav
320,192,12721,1,0,0:0:0:0:
64,192,12879,1,0,0:0:0:70:soft-hitclap.wav
320,192,13195,1,0,0:0:0:60:soft-hitwhistle.wav
448,192,13353,1,0,0:0:0:0:
192,192,13511,1,0,0:0:0:70:soft-hitclap.wav
448,192,13827,1,0,0:0:0:60:soft-hitwhistle.wav
320,192,13984,1,0,0:0:0:30:normal-hitfinish.wav
192,192,14142,1,0,0:0:0:70:soft-hitclap.wav
64,192,14300,1,0,0:0:0:30:normal-hitfinish.wav
448,192,14458,1,0,0:0:0:60:soft-hitwhistle.wav
320,192,14458,1,0,0:0:0:30:normal-hitfinish.wav
64,192,14616,1,0,0:0:0:0:
192,192,14774,1,0,0:0:0:70:soft-hitclap.wav
320,192,15090,1,0,0:0:0:60:soft-hitwhistle.wav
448,192,15248,1,0,0:0:0:0:
64,192,15405,1,0,0:0:0:70:soft-hitclap.wav
192,192,15721,1,0,0:0:0:60:soft-hitwhistle.wav
320,192,15879,1,0,0:0:0:0:
448,192,16037,1,0,0:0:0:70:soft-hitclap.wav
64,192,16353,1,0,0:0:0:30:normal-hitfinish.wav
320,192,16511,1,0,0:0:0:30:normal-hitfinish.wav
192,192,16669,1,0,0:0:0:30:normal-hitfinish.wav
448,192,16984,1,0,0:0:0:60:soft-hitwhistle.wav
320,192,17142,1,0,0:0:0:0:
192,192,17300,1,0,0:0:0:70:soft-hitclap.wav
64,192,17616,1,0,0:0:0:60:soft-hitwhistle.wav
192,192,17774,1,0,0:0:0:0:
448,192,17932,1,0,0:0:0:70:soft-hitclap.wav
192,192,18248,1,0,0:0:0:60:soft-hitwhistle.wav
64,192,18405,1,0,0:0:0:0:
320,192,18563,1,0,0:0:0:70:soft-hitclap.wav
64,192,18879,1,0,0:0:0:60:soft-hitwhistle.wav
192,192,19037,1,0,0:0:0:30:normal-hitfinish.wav
320,192,19195,1,0,0:0:0:70:soft-hitclap.wav
448,192,19353,1,0,0:0:0:30:normal-hitfinish.wav
192,192,19511,1,0,0:0:0:60:soft-hitwhistle.wav
64,192,19511,1,0,0:0:0:30:normal-hitfinish.wav
448,192,19669,1,0,0:0:0:0:
320,192,19827,1,0,0:0:0:70:soft-hitclap.wav
192,192,20142,1,0,0:0:0:30:normal-hitfinish.wav
448,192,20142,1,0,0:0:0:60:soft-hitwhistle.wav
320,192,20300,1,0,0:0:0:0:
64,192,20458,1,0,0:0:0:70:soft-hitclap.wav
192,192,20774,1,0,0:0:0:60:soft-hitwhistle.wav
448,192,20774,128,0,22037:0:0:0:0:
64,192,21011,1,0,0:0:0:60:soft-hitwhistle.wav
320,192,21248,1,0,0:0:0:60:soft-hitwhistle.wav
192,192,21405,1,0,0:0:0:60:soft-hitwhistle.wav
64,192,21721,128,0,22037:0:0:0:60:soft-hitwhistle.wav
192,192,22037,1,0,0:0:0:60:soft-hitwhistle.wav
448,192,22195,1,0,0:0:0:0:
320,192,22353,1,0,0:0:0:70:soft-hitclap.wav
64,192,22669,1,0,0:0:0:60:soft-hitwhistle.wav
192,192,22827,1,0,0:0:0:0:
320,192,22984,1,0,0:0:0:70:soft-hitclap.wav
448,192,23142,1,0,0:0:0:0:
192,192,23300,128,0,23616:0:0:0:60:soft-hitwhistle.wav
320,192,23616,1,0,0:0:0:70:soft-hitclap.wav
448,192,23932,1,0,0:0:0:60:soft-hitwhistle.wav
320,192,24090,1,0,0:0:0:30:normal-hitfinish.wav
192,192,24248,1,0,0:0:0:70:soft-hitclap.wav
64,192,24405,1,0,0:0:0:30:normal-hitfinish.wav
448,192,24563,1,0,0:0:0:60:soft-hitwhistle.wav
192,192,24721,1,0,0:0:0:0:
64,192,24879,1,0,0:0:0:70:soft-hitclap.wav
320,192,25195,1,0,0:0:0:60:soft-hitwhistle.wav
192,192,25353,1,0,0:0:0:0:
448,192,25511,1,0,0:0:0:70:soft-hitclap.wav
64,192,25827,128,0,26142:0:0:0:60:soft-hitwhistle.wav
192,192,26142,1,0,0:0:0:70:soft-hitclap.wav
320,192,26458,1,0,0:0:0:30:normal-hitfinish.wav
192,192,26616,1,0,0:0:0:30:normal-hitfinish.wav
320,192,26774,1,0,0:0:0:30:normal-hitfinish.wav
448,192,27090,1,0,0:0:0:60:soft-hitwhistle.wav
64,192,27090,1,0,0:0:0:55:soft-hitfinish.wav
192,192,27248,1,0,0:0:0:0:
320,192,27405,1,0,0:0:0:70:soft-hitclap.wav
448,192,27721,1,0,0:0:0:0:
64,192,27879,1,0,0:0:0:0:
320,192,28037,1,0,0:0:0:70:soft-hitclap.wav
192,192,28195,1,0,0:0:0:0:
448,192,28353,128,0,28669:0:0:0:60:soft-hitwhistle.wav
64,192,28669,1,0,0:0:0:70:soft-hitclap.wav
192,192,28827,1,0,0:0:0:0:
448,192,28984,1,0,0:0:0:30:normal-hitfinish.wav
320,192,29142,1,0,0:0:0:30:normal-hitfinish.wav
192,192,29300,1,0,0:0:0:30:normal-hitfinish.wav
64,192,29458,1,0,0:0:0:30:normal-hitfinish.wav
320,192,29616,1,0,0:0:0:30:normal-hitfinish.wav
448,192,29616,1,0,0:0:0:60:soft-hitwhistle.wav
448,192,30090,1,0,0:0:0:30:normal-hitfinish.wav
320,192,30248,1,0,0:0:0:30:normal-hitfinish.wav
64,192,30248,1,0,0:0:0:60:soft-hitwhistle.wav
192,192,30563,1,0,0:0:0:70:soft-hitclap.wav
448,192,30563,1,0,0:0:0:30:normal-hitfinish.wav
64,192,30879,128,0,32142:0:0:0:60:soft-hitwhistle.wav
320,192,31037,1,0,0:0:0:30:normal-hitfinish.wav
448,192,31353,1,0,0:0:0:30:normal-hitfinish.wav
192,192,31669,1,0,0:0:0:30:normal-hitfinish.wav
320,192,31827,1,0,0:0:0:30:normal-hitfinish.wav
448,192,31984,1,0,0:0:0:30:normal-hitfinish.wav
192,192,32142,1,0,0:0:0:55:soft-hitfinish.wav
320,192,32142,128,0,32774:0:0:0:60:soft-hitwhistle.wav
192,192,32774,128,0,33090:0:0:0:60:soft-hitwhistle.wav
448,192,33090,1,0,0:0:0:60:soft-hitwhistle.wav
320,192,33248,1,0,0:0:0:0:
64,192,33405,128,0,33879:0:0:0:60:soft-hitwhistle.wav
192,192,33879,128,0,34195:0:0:0:0:
448,192,34195,1,0,0:0:0:0:
320,192,34353,1,0,0:0:0:60:soft-hitwhistle.wav
192,192,34511,1,0,0:0:0:0:
64,192,34669,128,0,36405:0:0:0:60:soft-hitwhistle.wav
448,192,34669,1,0,0:0:0:30:normal-hitfinish.wav
320,192,34984,1,0,0:0:0:60:soft-hitwhistle.wav
192,192,35300,1,0,0:0:0:60:soft-hitwhistle.wav
320,192,35616,1,0,0:0:0:60:soft-hitwhistle.wav
448,192,35932,1,0,0:0:0:60:soft-hitwhistle.wav
192,192,36248,1,0,0:0:0:60:soft-hitwhistle.wav
320,192,36405,1,0,0:0:0:0:
448,192,36721,1,0,0:0:0:0:
64,192,36879,1,0,0:0:0:60:soft-hitwhistle.wav
192,192,36984,1,0,0:0:0:60:soft-hitwhistle.wav
320,192,37090,1,0,0:0:0:60:soft-hitwhistle.wav
448,192,37195,128,0,37827:0:0:0:60:soft-hitwhistle.wav
320,192,37827,128,0,38142:0:0:0:60:soft-hitwhistle.wav
192,192,38142,1,0,0:0:0:60:soft-hitwhistle.wav
64,192,38300,1,0,0:0:0:0:
448,192,38458,128,0,38932:0:0:0:60:soft-hitwhistle.wav
192,192,38932,128,0,39248:0:0:0:0:
320,192,39248,128,0,39563:0:0:0:0:
192,192,39563,1,0,0:0:0:0:
64,192,39721,1,0,0:0:0:60:soft-hitwhistle.wav
448,192,39721,128,0,41616:0:0:0:30:normal-hitfinish.wav
192,192,40037,1,0,0:0:0:60:soft-hitwhistle.wav
320,192,40353,1,0,0:0:0:60:soft-hitwhistle.wav
64,192,40669,1,0,0:0:0:60:soft-hitwhistle.wav
192,192,40984,1,0,0:0:0:60:soft-hitwhistle.wav
320,192,41300,1,0,0:0:0:60:soft-hitwhistle.wav
192,192,41458,1,0,0:0:0:0:
64,192,41616,1,0,0:0:0:60:soft-hitwhistle.wav
192,192,41932,128,0,42248:0:0:0:60:soft-hitwhistle.wav
320,192,42248,128,0,42563:0:0:0:60:soft-hitwhistle.wav
192,192,42721,1,0,0:0:0:0:
448,192,43116,1,0,0:0:0:0:
320,192,43353,1,0,0:0:0:0:
64,192,43511,128,0,43984:0:0:0:60:soft-hitwhistle.wav
192,192,43984,128,0,44458:0:0:0:60:soft-hitwhistle.wav
320,192,44458,128,0,44774:0:0:0:60:soft-hitwhistle.wav
448,192,44774,1,0,0:0:0:60:soft-hitwhistle.wav
64,192,45011,1,0,0:0:0:60:soft-hitwhistle.wav
192,192,45248,1,0,0:0:0:60:soft-hitwhistle.wav
320,192,45405,1,0,0:0:0:60:soft-hitwhistle.wav
192,192,45721,1,0,0:0:0:60:soft-hitwhistle.wav
448,192,46037,1,0,0:0:0:60:soft-hitwhistle.wav
64,192,46037,1,0,0:0:0:30:normal-hitfinish.wav
192,192,46353,1,0,0:0:0:30:normal-hitfinish.wav
320,192,46353,1,0,0:0:0:60:soft-hitwhistle.wav
448,192,46669,1,0,0:0:0:60:soft-hitwhistle.wav
64,192,46669,1,0,0:0:0:30:normal-hitfinish.wav
192,192,46984,1,0,0:0:0:30:normal-hitfinish.wav
320,192,46984,1,0,0:0:0:60:soft-hitwhistle.wav
448,192,47300,1,0,0:0:0:60:soft-hitwhistle.wav
64,192,47616,1,0,0:0:0:60:soft-hitwhistle.wav
192,192,47932,1,0,0:0:0:60:soft-hitwhistle.wav
448,192,48248,1,0,0:0:0:60:soft-hitwhistle.wav
64,192,48563,128,0,49037:0:0:0:60:soft-hitwhistle.wav
320,192,49037,128,0,49511:0:0:0:60:soft-hitwhistle.wav
192,192,49511,128,0,49827:0:0:0:60:soft-hitwhistle.wav
320,192,49827,1,0,0:0:0:60:soft-hitwhistle.wav
448,192,49827,1,0,0:0:0:30:normal-hitfinish.wav
320,192,50300,1,0,0:0:0:30:normal-hitfinish.wav
64,192,50300,1,0,0:0:0:60:soft-hitwhistle.wav
448,192,50774,1,0,0:0:0:60:soft-hitwhistle.wav
192,192,50774,1,0,0:0:0:30:normal-hitfinish.wav
448,192,51090,1,0,0:0:0:30:normal-hitfinish.wav
64,192,51090,1,0,0:0:0:60:soft-hitwhistle.wav
320,192,51563,1,0,0:0:0:30:normal-hitfinish.wav
448,192,51563,1,0,0:0:0:60:soft-hitwhistle.wav
320,192,52037,1,0,0:0:0:30:normal-hitfinish.wav
192,192,52037,1,0,0:0:0:60:soft-hitwhistle.wav
64,192,52353,1,0,0:0:0:60:soft-hitwhistle.wav
192,192,52353,1,0,0:0:0:30:normal-hitfinish.wav
64,192,52984,128,0,53300:0:0:0:0:
448,192,53300,128,0,53616:0:0:0:60:soft-hitwhistle.wav
192,192,53616,128,0,54090:0:0:0:60:soft-hitwhistle.wav
320,192,54090,128,0,54405:0:0:0:0:
64,192,54563,1,0,0:0:0:70:soft-hitclap.wav
192,192,54721,1,0,0:0:0:0:
448,192,54879,128,0,55353:0:0:0:60:soft-hitwhistle.wav
320,192,55353,128,0,55669:0:0:0:0:
64,192,55669,1,0,0:0:0:0:
192,192,55827,1,0,0:0:0:70:soft-hitclap.wav
320,192,55984,1,0,0:0:0:0:
448,192,56142,128,0,56458:0:0:0:60:soft-hitwhistle.wav
320,192,56458,128,0,56774:0:0:0:30:normal-hitfinish.wav
64,192,56774,1,0,0:0:0:30:normal-hitfinish.wav
192,192,56932,1,0,0:0:0:30:normal-hitfinish.wav
64,192,57248,128,0,58353:0:0:0:0:
192,192,57721,1,0,0:0:0:30:normal-hitfinish.wav
448,192,58037,1,0,0:0:0:30:normal-hitfinish.wav
320,192,58353,1,0,0:0:0:30:normal-hitfinish.wav
192,192,58511,1,0,0:0:0:60:soft-hitwhistle.wav
448,192,58669,128,0,59142:0:0:0:60:soft-hitwhistle.wav
320,192,59142,128,0,59458:0:0:0:0:
192,192,59458,1,0,0:0:0:0:
64,192,59616,1,0,0:0:0:70:soft-hitclap.wav
320,192,59774,1,0,0:0:0:0:
64,192,59932,128,0,60248:0:0:0:60:soft-hitwhistle.wav
192,192,59932,1,0,0:0:0:30:normal-hitfinish.wav
192,192,60248,128,0,60563:0:0:0:30:normal-hitfinish.wav
320,192,60248,1,0,0:0:0:70:soft-hitclap.wav
320,192,60563,128,0,60879:0:0:0:30:normal-hitfinish.wav
448,192,60563,1,0,0:0:0:60:soft-hitwhistle.wav
448,192,60879,128,0,61195:0:0:0:70:soft-hitclap.wav
64,192,60879,1,0,0:0:0:30:normal-hitfinish.wav
192,192,61195,128,0,61827:0:0:0:60:soft-hitwhistle.wav
64,192,61827,128,0,62142:0:0:0:60:soft-hitwhistle.wav
320,192,62142,1,0,0:0:0:70:soft-hitclap.wav
448,192,62300,1,0,0:0:0:0:
64,192,62458,1,0,0:0:0:60:soft-hitwhistle.wav
192,192,62458,1,0,0:0:0:30:normal-hitfinish.wav
320,192,62616,1,0,0:0:0:30:normal-hitfinish.wav
448,192,62616,1,0,0:0:0:60:soft-hitwhistle.wav
64,192,62932,128,0,63405:0:0:0:60:soft-hitwhistle.wav
192,192,63405,1,0,0:0:0:60:soft-hitwhistle.wav
320,192,63563,1,0,0:0:0:60:soft-hitwhistle.wav
448,192,63721,128,0,64195:0:0:0:60:soft-hitwhistle.wav
192,192,63879,1,0,0:0:0:30:normal-hitfinish.wav
320,192,64195,128,0,64511:0:0:0:30:normal-hitfinish.wav
64,192,64195,1,0,0:0:0:0:
448,192,64511,1,0,0:0:0:30:normal-hitfinish.wav
192,192,64669,1,0,0:0:0:60:soft-hitwhistle.wav
64,192,64827,1,0,0:0:0:30:normal-hitfinish.wav
448,192,64984,128,0,65458:0:0:0:60:soft-hitwhistle.wav
192,192,65142,1,0,0:0:0:30:normal-hitfinish.wav
192,192,65458,128,0,65774:0:0:0:30:normal-hitfinish.wav
320,192,65458,1,0,0:0:0:0:
448,192,65774,1,0,0:0:0:30:normal-hitfinish.wav
320,192,65932,1,0,0:0:0:60:soft-hitwhistle.wav
192,192,66090,1,0,0:0:0:30:normal-hitfinish.wav
64,192,66248,128,0,66879:0:0:0:60:soft-hitwhistle.wav
192,192,66879,1,0,0:0:0:60:soft-hitwhistle.wav
448,192,66879,1,0,0:0:0:30:normal-hitfinish.wav
320,192,67037,1,0,0:0:0:60:soft-hitwhistle.wav
192,192,67353,128,0,68774:0:0:0:0:
448,192,67827,1,0,0:0:0:30:normal-hitfinish.wav
64,192,68142,1,0,0:0:0:30:normal-hitfinish.wav
320,192,68458,1,0,0:0:0:30:normal-hitfinish.wav
448,192,68616,1,0,0:0:0:0:
64,192,68774,128,0,69090:0:0:0:60:soft-hitwhistle.wav
320,192,69248,128,0,69563:0:0:0:0:
192,192,69721,1,0,0:0:0:70:soft-hitclap.wav
64,192,69879,1,0,0:0:0:0:
320,192,70037,1,0,0:0:0:60:soft-hitwhistle.wav
448,192,70353,1,0,0:0:0:60:soft-hitwhistle.wav
192,192,70353,1,0,0:0:0:30:normal-hitfinish.wav
320,192,70669,1,0,0:0:0:30:normal-hitfinish.wav
64,192,70669,1,0,0:0:0:60:soft-hitwhistle.wav
192,192,70984,1,0,0:0:0:60:soft-hitwhistle.wav
448,192,70984,1,0,0:0:0:30:normal-hitfinish.wav
64,192,71300,128,0,71932:0:0:0:60:soft-hitwhistle.wav
192,192,71932,1,0,0:0:0:60:soft-hitwhistle.wav
320,192,72169,1,0,0:0:0:0:
192,192,72405,1,0,0:0:0:0:
448,192,72563,1,0,0:0:0:60:soft-hitwhistle.wav
64,192,72563,1,0,0:0:0:30:normal-hitfinish.wav
192,192,73037,1,0,0:0:0:60:soft-hitwhistle.wav
320,192,73037,1,0,0:0:0:30:normal-hitfinish.wav
448,192,73511,1,0,0:0:0:60:soft-hitwhistle.wav
64,192,73511,1,0,0:0:0:30:normal-hitfinish.wav
192,192,73669,1,0,0:0:0:60:soft-hitwhistle.wav
320,192,73827,1,0,0:0:0:60:soft-hitwhistle.wav
64,192,73984,1,0,0:0:0:0:
192,192,74142,1,0,0:0:0:70:soft-hitclap.wav
448,192,74300,128,0,74616:0:0:0:0:
192,192,74616,1,0,0:0:0:0:
320,192,74774,1,0,0:0:0:70:soft-hitclap.wav
192,192,74932,1,0,0:0:0:0:
64,192,75090,1,0,0:0:0:60:soft-hitwhistle.wav
192,192,75248,1,0,0:0:0:0:
448,192,75405,1,0,0:0:0:70:soft-hitclap.wav
320,192,75563,128,0,75879:0:0:0:0:
192,192,75879,1,0,0:0:0:0:
64,192,76037,1,0,0:0:0:70:soft-hitclap.wav
448,192,76195,1,0,0:0:0:0:
192,192,76353,1,0,0:0:0:60:soft-hitwhistle.wav
320,192,76511,1,0,0:0:0:0:
64,192,76669,1,0,0:0:0:70:soft-hitclap.wav
192,192,76827,128,0,77142:0:0:0:0:
320,192,77142,1,0,0:0:0:0:
448,192,77300,1,0,0:0:0:70:soft-hitclap.wav
64,192,77458,128,0,77774:0:0:0:0:
448,192,77774,1,0,0:0:0:0:
192,192,77932,1,0,0:0:0:70:soft-hitclap.wav
320,192,78090,1,0,0:0:0:0:
64,192,78248,128,0,78563:0:0:0:60:soft-hitwhistle.wav
192,192,78563,1,0,0:0:0:70:soft-hitclap.wav
448,192,78563,1,0,0:0:0:30:normal-hitfinish.wav
320,192,78879,1,0,0:0:0:60:soft-hitwhistle.wav
192,192,79116,1,0,0:0:0:0:
448,192,79353,128,0,79511:0:0:0:0:
64,192,79511,1,0,0:0:0:0:
192,192,79748,1,0,0:0:0:0:
320,192,79984,1,0,0:0:0:0:
64,192,80142,1,0,0:0:0:60:soft-hitwhistle.wav
448,192,80458,1,0,0:0:0:70:soft-hitclap.wav
320,192,80458,1,0,0:0:0:30:normal-hitfinish.wav
192,192,80774,1,0,0:0:0:60:soft-hitwhistle.wav
64,192,80774,1,0,0:0:0:0:
192,192,81090,1,0,0:0:0:30:normal-hitfinish.wav
448,192,81090,1,0,0:0:0:70:soft-hitclap.wav
64,192,81405,128,0,82669:0:0:0:60:soft-hitwhistle.wav
320,192,81405,1,0,0:0:0:0:
448,192,81721,1,0,0:0:0:70:soft-hitclap.wav
192,192,82037,1,0,0:0:0:60:soft-hitwhistle.wav
320,192,82353,1,0,0:0:0:70:soft-hitclap.wav
192,192,82669,1,0,0:0:0:60:soft-hitwhistle.wav
448,192,82669,1,0,0:0:0:30:normal-hitfinish.wav
320,192,82984,1,0,0:0:0:70:soft-hitclap.wav
64,192,82984,1,0,0:0:0:30:normal-hitfinish.wav
448,192,83300,1,0,0:0:0:60:soft-hitwhistle.wav
320,192,83300,1,0,0:0:0:30:normal-hitfinish.wav
192,192,83616,1,0,0:0:0:30:normal-hitfinish.wav
64,192,83616,1,0,0:0:0:70:soft-hitclap.wav
448,192,83932,1,0,0:0:0:60:soft-hitwhistle.wav
320,192,84090,1,0,0:0:0:0:
192,192,84248,1,0,0:0:0:70:soft-hitclap.wav
64,192,84563,1,0,0:0:0:60:soft-hitwhistle.wav
192,192,84721,1,0,0:0:0:0:
320,192,84879,1,0,0:0:0:70:soft-hitclap.wav
448,192,85195,1,0,0:0:0:60:soft-hitwhistle.wav
320,192,85353,1,0,0:0:0:0:
192,192,85511,1,0,0:0:0:70:soft-hitclap.wav
64,192,85827,1,0,0:0:0:60:soft-hitwhistle.wav
192,192,85984,1,0,0:0:0:30:normal-hitfinish.wav
320,192,86142,1,0,0:0:0:70:soft-hitclap.wav
448,192,86300,1,0,0:0:0:30:normal-hitfinish.wav
64,192,86458,128,0,87721:0:0:0:30:normal-hitfinish.wav
192,192,86616,1,0,0:0:0:0:
320,192,86774,1,0,0:0:0:60:soft-hitwhistle.wav
192,192,87090,1,0,0:0:0:60:soft-hitwhistle.wav
320,192,87248,1,0,0:0:0:0:
448,192,87405,1,0,0:0:0:60:soft-hitwhistle.wav
192,192,87721,128,0,88037:0:0:0:60:soft-hitwhistle.wav
448,192,88037,128,0,88353:0:0:0:70:soft-hitclap.wav
320,192,88353,128,0,88669:0:0:0:60:soft-hitwhistle.wav
64,192,88669,1,0,0:0:0:70:soft-hitclap.wav
192,192,88669,1,0,0:0:0:30:normal-hitfinish.wav
448,192,88827,1,0,0:0:0:0:
320,192,88984,1,0,0:0:0:60:soft-hitwhistle.wav
192,192,89458,1,0,0:0:0:0:
320,192,89616,1,0,0:0:0:60:soft-hitwhistle.wav
64,192,89853,1,0,0:0:0:0:
320,192,90090,1,0,0:0:0:0:
448,192,90248,128,0,90563:0:0:0:60:soft-hitwhistle.wav
320,192,90563,128,0,90879:0:0:0:70:soft-hitclap.wav
192,192,90563,1,0,0:0:0:30:normal-hitfinish.wav
192,192,90879,128,0,91195:0:0:0:60:soft-hitwhistle.wav
64,192,90879,1,0,0:0:0:30:normal-hitfinish.wav
64,192,91195,128,0,91511:0:0:0:70:soft-hitclap.wav
448,192,91195,1,0,0:0:0:30:normal-hitfinish.wav
448,192,91511,128,0,91984:0:0:0:60:soft-hitwhistle.wav
320,192,92142,1,0,0:0:0:60:soft-hitwhistle.wav
192,192,92379,1,0,0:0:0:0:
64,192,92616,1,0,0:0:0:0:
320,192,92774,1,0,0:0:0:60:soft-hitwhistle.wav
64,192,93090,128,0,93405:0:0:0:0:
192,192,93405,128,0,93721:0:0:0:0:
320,192,93721,128,0,94037:0:0:0:30:normal-hitfinish.wav
448,192,93721,1,0,0:0:0:60:soft-hitwhistle.wav
64,192,94037,1,0,0:0:0:60:soft-hitwhistle.wav
192,192,94195,1,0,0:0:0:0:
320,192,94353,1,0,0:0:0:70:soft-hitclap.wav
64,192,94669,1,0,0:0:0:60:soft-hitwhistle.wav
192,192,94827,1,0,0:0:0:0:
448,192,95142,1,0,0:0:0:0:
320,192,95300,1,0,0:0:0:60:soft-hitwhistle.wav
448,192,95616,128,0,95932:0:0:0:70:soft-hitclap.wav
320,192,95932,1,0,0:0:0:60:soft-hitwhistle.wav
192,192,96090,1,0,0:0:0:60:soft-hitwhistle.wav
64,192,96248,128,0,96563:0:0:0:70:soft-hitclap.wav
192,192,96563,1,0,0:0:0:60:soft-hitwhistle.wav
320,192,96721,1,0,0:0:0:0:
448,192,96879,1,0,0:0:0:70:soft-hitclap.wav
64,192,97037,1,0,0:0:0:0:
320,192,97195,1,0,0:0:0:60:soft-hitwhistle.wav
448,192,97353,1,0,0:0:0:0:
192,192,97511,1,0,0:0:0:70:soft-hitclap.wav
64,192,97669,1,0,0:0:0:0:
320,192,97905,1,0,0:0:0:0:
64,192,98142,1,0,0:0:0:70:soft-hitclap.wav
192,192,98300,1,0,0:0:0:0:
448,192,98458,1,0,0:0:0:60:soft-hitwhistle.wav
320,192,98458,1,0,0:0:0:30:normal-hitfinish.wav
320,192,98616,1,0,0:0:0:30:normal-hitfinish.wav
192,192,98616,1,0,0:0:0:0:
192,192,98774,1,0,0:0:0:30:normal-hitfinish.wav
64,192,98774,1,0,0:0:0:70:soft-hitclap.wav
64,192,99090,1,0,0:0:0:60:soft-hitwhistle.wav
192,192,99405,1,0,0:0:0:70:soft-hitclap.wav
448,192,99721,128,0,100037:0:0:0:60:soft-hitwhistle.wav
320,192,100037,1,0,0:0:0:70:soft-hitclap.wav
64,192,100353,1,0,0:0:0:60:soft-hitwhistle.wav
192,192,100669,1,0,0:0:0:70:soft-hitclap.wav
448,192,100984,128,0,101616:0:0:0:60:soft-hitwhistle.wav
320,192,101616,1,0,0:0:0:60:soft-hitwhistle.wav
64,192,101932,1,0,0:0:0:70:soft-hitclap.wav
192,192,102248,1,0,0:0:0:60:soft-hitwhistle.wav
448,192,102484,1,0,0:0:0:0:
320,192,102721,1,0,0:0:0:0:
64,192,102879,1,0,0:0:0:60:soft-hitwhistle.wav
192,192,102879,1,0,0:0:0:0:
448,192,103116,1,0,0:0:0:60:soft-hitwhistle.wav
320,192,103116,1,0,0:0:0:0:
64,192,103353,1,0,0:0:0:0:
320,192,103353,1,0,0:0:0:0:
192,192,103511,1,0,0:0:0:0:
448,192,103511,1,0,0:0:0:0:
320,192,103827,1,0,0:0:0:60:soft-hitwhistle.wav
64,192,103827,1,0,0:0:0:30:normal-hitfinish.wav
192,192,104142,1,0,0:0:0:60:soft-hitwhistle.wav
448,192,104142,128,0,104774:0:0:0:55:soft-hitfinish.wav
320,192,104458,1,0,0:0:0:70:soft-hitclap.wav
64,192,104774,1,0,0:0:0:60:soft-hitwhistle.wav
192,192,105090,1,0,0:0:0:70:soft-hitclap.wav
320,192,105405,128,0,106037:0:0:0:60:soft-hitwhistle.wav
64,192,105405,1,0,0:0:0:0:
192,192,105721,1,0,0:0:0:70:soft-hitclap.wav
448,192,106037,1,0,0:0:0:60:soft-hitwhistle.wav
192,192,106195,1,0,0:0:0:0:
64,192,106353,1,0,0:0:0:70:soft-hitclap.wav
320,192,106511,1,0,0:0:0:0:
192,192,106669,1,0,0:0:0:60:soft-hitwhistle.wav
320,192,106827,1,0,0:0:0:0:
448,192,106984,1,0,0:0:0:70:soft-hitclap.wav
192,192,107300,1,0,0:0:0:60:soft-hitwhistle.wav
64,192,107458,1,0,0:0:0:0:
320,192,107616,1,0,0:0:0:70:soft-hitclap.wav
64,192,107932,1,0,0:0:0:60:soft-hitwhistle.wav
448,192,108090,1,0,0:0:0:0:
192,192,108248,1,0,0:0:0:70:soft-hitclap.wav
448,192,108563,1,0,0:0:0:60:soft-hitwhistle.wav
64,192,108721,1,0,0:0:0:60:soft-hitwhistle.wav
320,192,108879,128,0,109195:0:0:0:70:soft-hitclap.wav
192,192,109195,1,0,0:0:0:60:soft-hitwhistle.wav
64,192,109353,1,0,0:0:0:0:
448,192,109511,1,0,0:0:0:70:soft-hitclap.wav
192,192,109827,1,0,0:0:0:60:soft-hitwhistle.wav
320,192,109984,1,0,0:0:0:0:
192,192,110142,1,0,0:0:0:70:soft-hitclap.wav
64,192,110458,1,0,0:0:0:60:soft-hitwhistle.wav
192,192,110774,1,0,0:0:0:70:soft-hitclap.wav
320,192,111090,1,0,0:0:0:60:soft-hitwhistle.wav
448,192,111405,1,0,0:0:0:70:soft-hitclap.wav
64,192,111721,1,0,0:0:0:60:soft-hitwhistle.wav
192,192,111879,1,0,0:0:0:60:soft-hitwhistle.wav
320,192,112037,1,0,0:0:0:60:soft-hitwhistle.wav
448,192,112195,1,0,0:0:0:30:normal-hitfinish.wav
192,192,112511,1,0,0:0:0:60:soft-hitwhistle.wav
320,192,112669,1,0,0:0:0:60:soft-hitwhistle.wav
448,192,112827,1,0,0:0:0:60:soft-hitwhistle.wav
64,192,112827,128,0,114248:0:0:0:30:normal-hitfinish.wav
