osu file format v14

[General]
AudioFilename: Phase 1.mp3
AudioLeadIn: 0
PreviewTime: 65035
Countdown: 0
SampleSet: Normal
StackLeniency: 0.7
Mode: 0
LetterboxInBreaks: 1
WidescreenStoryboard: 0

[Editor]
Bookmarks: 1551,3099,4648,6196,7744,9293,108390
DistanceSpacing: 1.3
BeatDivisor: 4
GridSize: 8
TimelineZoom: 3.699998

[Metadata]
Title:Phase 1
TitleUnicode:Phase 1
Artist:Beatdrop
ArtistUnicode:Beatdrop
Creator:rustbell
Version:HD
Source:
Tags:o2Jam Intensity
BeatmapID:1116977
BeatmapSetID:526397

[Difficulty]
HPDrainRate:5
CircleSize:4.5
OverallDifficulty:9
ApproachRate:9.4
SliderMultiplier:2.5
SliderTickRate:1

[Events]
//Background and Video events
0,0,"P1.jpg",0,0
//Break Periods
2,12590,14946
2,15686,18042
2,18782,21139
2,21879,24043
2,61751,63333
2,114789,117911
//Storyboard Layer 0 (Background)
//Storyboard Layer 1 (Fail)
//Storyboard Layer 2 (Pass)
//Storyboard Layer 3 (Foreground)
//Storyboard Sound Samples

[TimingPoints]
3,387.096774193548,4,1,0,50,1,0
9680,-100,4,1,0,55,0,0
10067,-100,4,1,0,60,0,0
10454,-100,4,1,0,65,0,0
10841,-100,4,1,0,70,0,0
12002,-100,4,1,0,75,0,0
12486,-100,4,1,0,50,0,0
24777,-100,4,2,0,50,0,0
36970,-100,4,2,0,60,0,0
63873,-200,4,1,0,5,0,0
64261,-133.333333333333,4,1,0,10,0,0
64648,-100,4,1,0,16,0,0
65035,-100,4,2,0,50,0,0
89809,-100,4,1,0,50,0,1
113041,387.096774193548,4,1,0,30,1,0
113059,-133.333333333333,4,1,0,30,0,0
116129,387.096774193548,4,1,0,30,1,0
118451,-200,4,1,0,20,0,0
118645,-100,4,1,0,30,0,0
118838,-66.6666666666667,4,1,0,40,0,0
119032,-50,4,1,0,50,0,0
119225,-66.6666666666667,4,1,0,60,0,0

[HitObjects]
104,296,3,5,0,0:0:0:0:
104,296,99,1,0,0:0:0:0:
104,296,196,2,0,L|232:288,1,125
304,328,486,2,0,B|360:304|360:304|432:312,1,125
480,96,777,6,0,L|472:160,1,62.5
376,216,970,1,0,0:0:0:0:
344,208,1067,1,0,0:0:0:0:
280,176,1164,1,0,0:0:0:0:
256,184,1261,1,0,0:0:0:0:
192,216,1357,1,0,0:0:0:0:
168,208,1454,1,0,0:0:0:0:
104,168,1551,5,0,0:0:0:0:
104,168,1647,1,0,0:0:0:0:
104,168,1744,2,0,L|96:43,1,125
48,232,2034,2,0,B|104:256|104:256|176:248,1,125
255,289,2325,6,0,L|248:352,1,62.5
288,216,2519,1,0,0:0:0:0:
320,224,2616,1,0,0:0:0:0:
384,256,2713,1,0,0:0:0:0:
408,248,2810,1,0,0:0:0:0:
472,216,2906,1,0,0:0:0:0:
496,224,3003,1,0,0:0:0:0:
496,144,3099,5,0,0:0:0:0:
496,144,3196,1,0,0:0:0:0:
496,144,3293,2,0,B|472:120|472:120|368:136,1,125
312,96,3583,2,0,L|184:80,1,125
88,96,3873,6,0,L|96:16,1,62.5
48,176,4067,1,0,0:0:0:0:
80,192,4164,1,0,0:0:0:0:
144,240,4261,1,0,0:0:0:0:
112,256,4358,1,0,0:0:0:0:
56,312,4454,1,0,0:0:0:0:
88,328,4551,1,0,0:0:0:0:
136,384,4648,5,0,0:0:0:0:
136,384,4744,1,0,0:0:0:0:
136,384,4841,2,0,L|264:368,1,125
304,304,5132,2,0,L|432:320,1,125
504,352,5422,6,0,L|496:280,1,62.5
448,160,5615,1,0,0:0:0:0:
440,192,5712,1,0,0:0:0:0:
368,248,5809,1,0,0:0:0:0:
360,216,5906,1,0,0:0:0:0:
288,176,6002,1,0,0:0:0:0:
280,208,6099,1,0,0:0:0:0:
200,224,6196,5,0,0:0:0:0:
200,224,6293,1,0,0:0:0:0:
200,224,6390,2,0,B|168:256|168:256|72:240,1,125
16,56,6680,2,0,L|24:184,1,125
0,328,6970,6,0,L|64:320,1,62.5
152,336,7164,1,0,0:0:0:0:
156,352,7261,1,0,0:0:0:0:
248,288,7357,1,0,0:0:0:0:
244,304,7454,1,0,0:0:0:0:
356,272,7551,1,0,0:0:0:0:
348,288,7648,1,0,0:0:0:0:
464,276,7744,5,0,0:0:0:0:
464,276,7841,1,0,0:0:0:0:
464,276,7938,2,0,L|472:152,1,125
288,80,8228,2,0,B|320:48|320:48|408:64,1,125
512,112,8519,6,0,L|448:128,1,62.5
352,200,8712,1,0,0:0:0:0:
348,216,8809,1,0,0:0:0:0:
256,152,8905,1,0,0:0:0:0:
260,168,9002,1,0,0:0:0:0:
148,136,9099,1,0,0:0:0:0:
156,152,9196,1,0,0:0:0:0:
40,128,9293,5,0,0:0:0:0:
64,208,9486,1,0,0:0:0:0:
112,80,9680,5,0,0:0:0:0:
80,224,9873,1,0,0:0:0:0:
200,56,10067,5,0,0:0:0:0:
72,248,10261,1,0,0:0:0:0:
288,48,10454,5,0,0:0:0:0:
48,232,10648,1,0,0:0:0:0:
384,112,10841,5,0,0:0:0:0:
32,80,11035,1,0,0:0:0:0:
400,208,11228,5,0,0:0:0:0:
112,64,11422,1,0,0:0:0:0:
336,272,11615,5,0,0:0:0:0:
192,80,11809,1,0,0:0:0:0:
256,304,12002,5,0,0:0:0:0:
272,152,12148,1,0,0:0:0:0:
288,0,12293,1,0,0:0:0:0:
288,0,12390,5,4,0:0:0:0:
328,112,15486,5,0,0:0:0:0:
368,224,18582,5,0,0:0:0:0:
408,336,21679,5,0,0:0:0:0:
472,248,24583,5,0,0:0:0:0:
472,248,24777,2,0,P|408:224|344:240,1,125,4|2,1:0|0:0,0:0:0:0:
168,312,25164,2,0,L|296:304,1,125,0|2,0:0|0:0,0:0:0:0:
292,304,25454,1,2,0:0:0:0:
354,234,25551,2,0,P|290:210|226:226,1,125,0|2,0:0|0:0,0:0:0:0:
50,298,25938,2,0,L|178:290,1,125,0|2,0:0|0:0,0:0:0:0:
174,290,26228,1,2,0:0:0:0:
236,220,26325,6,0,L|244:92,1,125,0|2,0:0|0:0,0:0:0:0:
48,56,26712,2,0,P|72:112|144:128,1,125,0|2,0:0|0:0,0:0:0:0:
129,130,27002,1,2,0:0:0:0:
243,95,27099,2,0,P|283:55|355:63,1,125,0|2,0:0|0:0,0:0:0:0:
464,144,27486,2,0,L|456:268,1,125,0|2,0:0|0:0,0:0:0:0:
456,268,27777,1,2,0:0:0:0:
512,368,27873,5,4,1:0:0:0:
360,320,28067,2,0,L|224:312,1,125,2|0,0:0|0:0,0:0:0:0:
32,296,28454,1,2,0:0:0:0:
96,376,28551,1,2,0:0:0:0:
112,280,28647,1,0,0:0:0:0:
184,96,28841,6,0,L|320:88,1,125,2|0,0:0|0:0,0:0:0:0:
512,72,29228,1,2,0:0:0:0:
448,152,29325,1,2,0:0:0:0:
432,56,29421,1,0,0:0:0:0:
464,256,29615,6,0,P|416:304|344:296,1,125,2|0,0:0|0:0,0:0:0:0:
168,256,30002,1,2,0:0:0:0:
72,240,30099,1,2,0:0:0:0:
184,176,30196,2,0,B|224:184|224:184|272:256,1,125,0|2,0:0|0:0,0:0:0:0:
32,320,30583,6,0,P|8:288|8:256,1,62.5
120,88,30777,1,2,0:0:0:0:
240,96,30873,1,2,0:0:0:0:
360,104,30970,2,0,P|416:88|472:48,1,125,4|2,1:0|0:0,0:0:0:0:
432,328,31357,6,0,L|448:256,1,62.5,8|0,0:0|0:0,0:0:0:0:
312,264,31551,2,0,L|304:192,1,62.5,2|2,0:0|0:0,0:0:0:0:
184,208,31744,2,0,P|128:192|72:152,1,125,0|2,0:0|0:0,0:0:0:0:
16,360,32132,6,0,L|0:288,1,62.5,8|0,0:0|0:0,0:0:0:0:
136,296,32326,2,0,L|144:224,1,62.5,2|2,0:0|0:0,0:0:0:0:
264,240,32519,2,0,B|288:224|288:224|384:248,1,125,0|2,1:0|0:0,0:0:0:0:
368,112,32906,6,0,L|432:96,1,62.5,8|0,0:0|0:0,0:0:0:0:
184,112,33099,2,0,L|248:96,1,62.5,2|2,0:0|0:0,0:0:0:0:
0,112,33293,2,0,B|64:96|64:96|24:144,1,125,0|2,0:0|0:0,0:0:0:0:
136,264,33680,6,0,L|72:248,1,62.5,8|0,0:0|0:0,0:0:0:0:
320,264,33873,2,0,L|256:248,1,62.5,2|2,0:0|0:0,0:0:0:0:
504,264,34067,2,0,B|440:248|440:248|480:296,1,125,0|2,1:0|0:0,0:0:0:0:
312,88,34454,6,0,L|304:160,1,62.5,8|0,0:0|0:0,0:0:0:0:
200,296,34648,2,0,L|208:224,1,62.5,2|2,0:0|0:0,0:0:0:0:
392,48,34841,2,0,B|500:61|500:61|480:80,1,125
152,136,35228,6,0,L|224:144,1,62.5,8|0,0:0|0:0,0:0:0:0:
360,248,35422,2,0,L|288:240,1,62.5,2|2,0:0|0:0,0:0:0:0:
24,160,35615,1,0,1:0:0:0:
256,192,35712,12,2,36777,0:0:0:0:
256,192,36970,5,0,1:0:0:0:
464,336,37164,5,4,0:0:0:0:
464,336,37261,1,0,0:0:0:0:
464,336,37357,1,2,0:0:0:0:
264,296,37551,2,0,L|392:280,1,125,0|2,1:0|0:0,0:0:0:0:
388,280,37841,1,2,0:0:0:0:
408,184,37938,5,0,1:0:0:0:
408,184,38035,1,0,0:0:0:0:
408,184,38132,1,2,0:0:0:0:
224,112,38325,2,0,L|352:128,1,125,0|2,1:0|0:0,0:0:0:0:
349,128,38615,1,2,0:0:0:0:
424,56,38712,5,0,1:0:0:0:
320,224,38906,1,2,0:0:0:0:
320,224,39002,1,0,0:0:0:0:
320,224,39099,1,0,1:0:0:0:
232,48,39293,1,2,0:0:0:0:
328,120,39486,6,0,P|272:160|216:168,1,125,0|2,1:0|0:0,0:0:0:0:
217,168,39777,1,2,0:0:0:0:
152,248,39873,2,0,L|168:376,1,125,0|2,1:0|0:0,0:0:0:0:
32,224,40261,5,0,1:0:0:0:
32,224,40357,1,0,0:0:0:0:
32,224,40454,1,2,0:0:0:0:
356,272,40648,2,0,L|232:288,1,125,0|2,1:0|0:0,0:0:0:0:
152,192,40938,1,2,0:0:0:0:
72,96,41035,5,0,1:0:0:0:
72,96,41132,1,0,0:0:0:0:
72,96,41228,1,0,0:0:0:0:
468,143,41422,2,0,L|344:128,1,125,0|0,1:0|0:0,0:0:0:0:
232,224,41712,1,0,0:0:0:0:
128,328,41809,5,0,1:0:0:0:
128,328,41906,1,0,0:0:0:0:
128,328,42002,1,2,0:0:0:0:
72,96,42196,1,0,0:0:0:0:
208,360,42390,5,2,0:0:0:0:
208,360,42486,1,2,0:0:0:0:
208,360,42583,2,0,L|272:344,1,62.5,0|0,1:0|0:0,0:0:0:0:
488,288,42777,1,2,0:0:0:0:
56,288,42970,5,0,1:0:0:0:
376,336,43164,1,2,0:0:0:0:
376,336,43261,1,2,0:0:0:0:
416,208,43357,5,0,1:0:0:0:
416,208,43454,1,0,0:0:0:0:
416,208,43551,1,2,0:0:0:0:
224,144,43744,2,0,B|256:128|256:128|344:152,1,125,0|0,1:0|0:0,0:0:0:0:
342,151,44035,1,2,0:0:0:0:
192,288,44132,5,0,1:0:0:0:
192,288,44229,1,0,0:0:0:0:
192,288,44326,1,2,0:0:0:0:
256,96,44519,2,0,B|272:128|272:128|248:216,1,125,0|0,1:0|0:0,0:0:0:0:
248,214,44810,1,2,0:0:0:0:
80,112,44906,5,0,1:0:0:0:
80,112,45002,1,0,0:0:0:0:
80,112,45099,1,2,0:0:0:0:
344,184,45293,1,0,1:0:0:0:
344,184,45390,1,0,0:0:0:0:
344,184,45486,1,2,0:0:0:0:
344,184,45583,1,2,0:0:0:0:
344,184,45680,5,0,1:0:0:0:
160,368,45873,1,2,0:0:0:0:
160,368,45970,1,2,0:0:0:0:
160,368,46067,2,0,L|136:304,1,62.5,0|0,1:0|0:0,0:0:0:0:
256,24,46261,5,2,0:0:0:0:
248,96,46357,1,2,0:0:0:0:
240,168,46454,2,0,L|368:152,1,125,0|2,1:0|0:0,0:0:0:0:
364,152,46744,1,0,0:0:0:0:
304,328,46841,2,0,L|432:312,1,125,0|2,1:0|0:0,0:0:0:0:
428,312,47132,1,0,0:0:0:0:
428,312,47228,1,0,1:0:0:0:
176,304,47422,6,0,L|112:296,1,62.5,2|0,0:0|0:0,0:0:0:0:
16,280,47615,1,0,1:0:0:0:
264,240,47809,1,2,0:0:0:0:
264,240,47906,1,2,0:0:0:0:
264,240,48002,1,0,1:0:0:0:
184,24,48196,6,0,L|176:88,1,62.5,2|0,0:0|0:0,0:0:0:0:
160,184,48389,1,0,1:0:0:0:
424,120,48583,2,0,L|360:112,1,62.5,2|0,0:0|0:0,0:0:0:0:
264,96,48776,1,0,1:0:0:0:
328,360,48970,2,0,L|336:296,1,62.5,2|0,0:0|0:0,0:0:0:0:
352,200,49163,1,0,1:0:0:0:
88,264,49357,2,0,L|152:272,1,62.5,2|0,0:0|0:0,0:0:0:0:
248,288,49551,6,0,P|304:264|384:288,1,125,4|0,1:0|0:0,0:0:0:0:
365,275,49841,1,0,0:0:0:0:
456,360,49938,2,0,L|464:288,1,62.5,0|0,1:0|0:0,0:0:0:0:
472,200,50132,1,2,0:0:0:0:
472,200,50228,1,2,0:0:0:0:
472,200,50325,1,0,1:0:0:0:
240,232,50519,6,0,L|168:240,1,62.5,2|0,0:0|0:0,0:0:0:0:
152,336,50712,2,0,L|88:328,1,62.5,0|0,1:0|0:0,0:0:0:0:
0,272,50906,1,2,0:0:0:0:
0,272,51002,1,2,0:0:0:0:
0,272,51099,6,0,L|16:144,1,125,0|2,1:0|0:0,0:0:0:0:
15,147,51390,1,0,0:0:0:0:
160,56,51486,2,0,L|144:184,1,125,0|2,1:0|0:0,0:0:0:0:
144,180,51777,1,2,0:0:0:0:
240,288,51873,6,0,P|296:296|368:264,1,125,0|2,1:0|0:0,0:0:0:0:
358,271,52164,1,0,0:0:0:0:
512,152,52261,2,0,P|456:144|384:176,1,125,0|2,1:0|0:0,0:0:0:0:
393,168,52552,1,2,0:0:0:0:
240,288,52648,6,0,L|106:281,1,125,0|2,1:0|0:0,0:0:0:0:
24,320,52938,1,0,0:0:0:0:
8,224,53035,1,0,1:0:0:0:
152,40,53228,5,2,0:0:0:0:
152,40,53325,1,2,0:0:0:0:
136,136,53422,1,0,1:0:0:0:
304,272,53615,6,0,L|296:200,1,62.5,2|0,0:0|0:0,0:0:0:0:
312,360,53809,1,0,1:0:0:0:
480,280,54002,5,2,0:0:0:0:
480,280,54099,1,2,0:0:0:0:
496,184,54196,2,0,P|512:128|504:56,1,125,0|0,1:0|0:0,0:0:0:0:
505,62,54486,1,0,0:0:0:0:
368,136,54583,2,0,L|376:264,1,125,0|0,1:0|0:0,0:0:0:0:
384,360,54873,1,2,0:0:0:0:
304,296,54970,6,0,P|232:272|184:296,1,125,0|2,1:0|0:0,0:0:0:0:
128,368,55261,1,0,0:0:0:0:
128,368,55357,2,0,L|0:360,1,125,0|2,1:0|0:0,0:0:0:0:
3,360,55648,1,2,0:0:0:0:
3,360,55744,1,0,1:0:0:0:
96,232,55938,6,0,L|160:224,1,62.5,2|0,0:0|0:0,0:0:0:0:
256,272,56132,2,0,L|320:280,1,62.5,0|0,1:0|0:0,0:0:0:0:
408,208,56325,1,2,0:0:0:0:
408,208,56422,1,2,0:0:0:0:
504,200,56519,1,0,1:0:0:0:
408,88,56712,6,0,L|344:80,1,62.5,2|0,0:0|0:0,0:0:0:0:
248,128,56906,2,0,L|184:136,1,62.5,0|0,1:0|0:0,0:0:0:0:
96,64,57099,1,2,0:0:0:0:
96,64,57196,1,2,0:0:0:0:
0,56,57293,5,0,1:0:0:0:
200,88,57486,1,0,1:0:0:0:
72,248,57680,1,0,1:0:0:0:
56,128,57873,5,0,1:0:0:0:
258,142,58066,1,0,1:0:0:0:
144,312,58260,1,0,1:0:0:0:
144,200,58454,6,0,P|168:208|216:208,1,62.5,0|0,1:0|0:0,0:0:0:0:
344,176,58648,2,0,P|376:168|408:144,1,62.5,0|2,1:0|0:0,0:0:0:0:
488,24,58841,6,0,L|480:152,1,125,0|2,1:0|0:0,0:0:0:0:
480,148,59132,1,0,0:0:0:0:
472,248,59228,2,0,P|440:256|408:256,1,62.5,0|0,1:0|0:0,0:0:0:0:
312,232,59422,1,0,0:0:0:0:
312,232,59519,1,2,0:0:0:0:
312,232,59615,1,0,1:0:0:0:
96,136,59809,6,0,L|88:200,1,62.5,2|0,0:0|0:0,0:0:0:0:
40,320,60002,2,0,P|72:328|104:328,1,62.5,0|0,1:0|0:0,0:0:0:0:
200,304,60196,1,0,0:0:0:0:
200,304,60293,1,2,0:0:0:0:
200,304,60389,1,0,1:0:0:0:
200,304,60486,1,0,0:0:0:0:
200,304,60583,1,2,0:0:0:0:
392,352,60777,5,0,1:0:0:0:
392,352,60873,1,0,0:0:0:0:
432,264,60970,1,2,0:0:0:0:
432,264,61067,1,2,0:0:0:0:
408,168,61164,1,0,1:0:0:0:
176,248,61357,5,2,0:0:0:0:
104,240,61454,1,0,0:0:0:0:
32,232,61551,1,4,1:0:0:0:
208,280,63873,6,0,L|216:248,3,31.25
136,256,64261,2,0,L|136:200,3,46.8750017881394
64,264,64648,2,0,L|48:200,3,62.5
112,328,65035,5,4,1:0:0:0:
112,328,65132,1,0,0:0:0:0:
112,328,65228,1,0,0:0:0:0:
112,328,65325,1,0,0:0:0:0:
184,368,65422,1,0,1:0:0:0:
184,368,65519,1,0,0:0:0:0:
184,368,65615,1,2,0:0:0:0:
216,168,65809,6,0,P|216:248|248:288,1,125,0|0,1:0|0:0,0:0:0:0:
328,328,66099,1,0,0:0:0:0:
328,328,66196,2,0,L|456:320,1,125,0|2,1:0|0:0,0:0:0:0:
112,328,66583,5,0,1:0:0:0:
100,324,66680,1,0,0:0:0:0:
112,328,66777,1,0,0:0:0:0:
100,324,66873,1,0,0:0:0:0:
184,368,66970,1,0,1:0:0:0:
184,368,67067,1,0,0:0:0:0:
184,368,67163,1,2,0:0:0:0:
216,168,67357,6,0,P|216:248|248:288,1,125,0|0,1:0|0:0,0:0:0:0:
328,328,67647,1,0,0:0:0:0:
328,328,67744,2,0,L|456:320,1,125,0|2,1:0|0:0,0:0:0:0:
112,328,68132,5,0,1:0:0:0:
88,324,68229,1,0,0:0:0:0:
112,328,68326,1,0,0:0:0:0:
88,324,68422,1,0,0:0:0:0:
184,368,68519,1,0,1:0:0:0:
184,368,68616,1,0,0:0:0:0:
184,368,68712,1,2,0:0:0:0:
216,168,68906,6,0,P|216:248|248:288,1,125,0|0,1:0|0:0,0:0:0:0:
328,328,69196,1,0,0:0:0:0:
328,328,69293,2,0,L|456:320,1,125,0|2,1:0|0:0,0:0:0:0:
112,328,69680,5,0,1:0:0:0:
72,324,69777,1,0,0:0:0:0:
120,324,69874,1,0,0:0:0:0:
64,328,69970,1,0,0:0:0:0:
184,368,70067,1,0,1:0:0:0:
184,368,70164,1,0,0:0:0:0:
184,368,70260,1,2,0:0:0:0:
216,168,70454,6,0,P|216:248|248:288,1,125,0|0,1:0|0:0,0:0:0:0:
328,328,70744,1,0,0:0:0:0:
328,328,70841,2,0,L|456:320,1,125,0|2,1:0|0:0,0:0:0:0:
64,320,71228,5,0,1:0:0:0:
48,272,71325,1,0,0:0:0:0:
48,336,71422,1,0,0:0:0:0:
64,256,71519,1,0,0:0:0:0:
128,368,71615,1,0,1:0:0:0:
128,368,71712,1,0,0:0:0:0:
128,368,71809,1,2,0:0:0:0:
248,344,72002,6,0,P|216:312|224:224,1,125,0|0,1:0|0:0,0:0:0:0:
360,136,72293,1,0,0:0:0:0:
360,136,72390,2,0,L|352:264,1,125,0|2,1:0|0:0,0:0:0:0:
64,320,72777,5,0,1:0:0:0:
47,282,72874,1,0,0:0:0:0:
52,333,72971,1,0,0:0:0:0:
59,268,73068,1,0,0:0:0:0:
128,368,73164,1,0,1:0:0:0:
128,368,73261,1,0,0:0:0:0:
128,368,73358,1,2,0:0:0:0:
248,344,73551,6,0,P|312:328|352:272,1,125,0|0,1:0|0:0,0:0:0:0:
296,160,73842,1,0,0:0:0:0:
296,160,73939,2,0,L|168:152,1,125,0|2,1:0|0:0,0:0:0:0:
64,320,74325,5,0,1:0:0:0:
49,293,74422,1,0,0:0:0:0:
56,331,74519,1,0,0:0:0:0:
57,282,74616,1,0,0:0:0:0:
128,368,74712,1,0,1:0:0:0:
128,368,74809,1,0,0:0:0:0:
128,368,74906,1,2,0:0:0:0:
248,344,75099,6,0,L|256:208,1,125,0|0,1:0|0:0,0:0:0:0:
376,80,75390,1,0,0:0:0:0:
376,80,75487,2,0,P|400:136|368:208,1,125,0|2,1:0|0:0,0:0:0:0:
64,320,75873,6,0,L|0:328,3,62.5,0|0|0|0,1:0|0:0|0:0|0:0,0:0:0:0:
128,368,76261,1,0,1:0:0:0:
128,368,76358,1,0,0:0:0:0:
128,368,76455,1,2,0:0:0:0:
248,344,76648,6,0,P|304:312|384:320,1,125,0|0,1:0|0:0,0:0:0:0:
480,192,76938,1,0,0:0:0:0:
480,192,77035,2,0,P|424:160|344:168,1,125,0|2,1:0|0:0,0:0:0:0:
176,208,77422,5,0,1:0:0:0:
160,204,77519,1,0,0:0:0:0:
144,200,77615,1,0,0:0:0:0:
128,196,77712,1,0,0:0:0:0:
64,240,77809,1,0,1:0:0:0:
64,240,77906,1,0,0:0:0:0:
64,240,78002,1,2,0:0:0:0:
272,112,78196,6,0,P|288:176|352:208,1,125,0|0,1:0|0:0,0:0:0:0:
432,176,78486,1,0,0:0:0:0:
432,176,78583,2,0,L|496:168,1,62.5,0|0,1:0|0:0,0:0:0:0:
400,304,78777,2,0,L|336:296,1,62.5,2|0,0:0|0:0,0:0:0:0:
176,208,78970,5,0,1:0:0:0:
157,199,79067,1,0,0:0:0:0:
139,191,79163,1,0,0:0:0:0:
121,183,79260,1,0,0:0:0:0:
48,216,79357,1,0,1:0:0:0:
48,216,79454,1,0,0:0:0:0:
48,216,79550,1,2,0:0:0:0:
272,112,79744,6,0,P|288:176|352:208,1,125,0|0,1:0|0:0,0:0:0:0:
432,176,80034,1,0,0:0:0:0:
432,176,80131,2,0,L|496:168,1,62.5,0|0,1:0|0:0,0:0:0:0:
400,304,80325,2,0,L|336:296,1,62.5,2|0,0:0|0:0,0:0:0:0:
176,208,80519,5,0,1:0:0:0:
155,192,80616,1,0,0:0:0:0:
136,180,80712,1,0,0:0:0:0:
118,167,80809,1,0,0:0:0:0:
40,192,80906,1,0,1:0:0:0:
40,192,81003,1,0,0:0:0:0:
40,192,81099,1,2,0:0:0:0:
272,112,81293,6,0,P|288:176|352:208,1,125,0|0,1:0|0:0,0:0:0:0:
432,176,81583,1,0,0:0:0:0:
432,176,81680,2,0,L|496:168,1,62.5,0|0,1:0|0:0,0:0:0:0:
400,304,81874,2,0,L|336:296,1,62.5,2|0,0:0|0:0,0:0:0:0:
176,208,82067,5,0,1:0:0:0:
156,187,82164,1,0,0:0:0:0:
139,171,82260,1,0,0:0:0:0:
122,154,82357,1,0,0:0:0:0:
48,184,82454,1,0,1:0:0:0:
48,184,82551,1,0,0:0:0:0:
48,184,82647,1,2,0:0:0:0:
272,112,82841,6,0,P|288:176|352:208,1,125,0|0,1:0|0:0,0:0:0:0:
432,176,83131,1,0,0:0:0:0:
432,176,83228,2,0,L|496:168,1,62.5,0|0,1:0|0:0,0:0:0:0:
400,304,83422,2,0,L|336:296,1,62.5,2|0,0:0|0:0,0:0:0:0:
88,192,83615,5,0,1:0:0:0:
96,232,83712,1,0,0:0:0:0:
104,272,83809,1,0,0:0:0:0:
112,312,83906,1,0,0:0:0:0:
144,288,84002,1,0,1:0:0:0:
176,264,84099,1,0,0:0:0:0:
208,240,84196,1,2,0:0:0:0:
328,320,84390,6,0,B|368:304|368:304|384:216,1,125,0|0,1:0|0:0,0:0:0:0:
280,120,84680,1,0,0:0:0:0:
280,120,84777,2,0,L|288:184,1,62.5,0|0,1:0|0:0,0:0:0:0:
376,88,84970,2,0,L|384:24,1,62.5,2|0,0:0|0:0,0:0:0:0:
64,183,85164,5,0,1:0:0:0:
73,231,85261,1,0,0:0:0:0:
83,279,85358,1,0,0:0:0:0:
92,327,85455,1,0,0:0:0:0:
131,298,85551,1,0,1:0:0:0:
169,269,85648,1,0,0:0:0:0:
208,240,85745,1,2,0:0:0:0:
344,312,85939,6,0,B|384:296|384:296|400:208,1,125,0|0,1:0|0:0,0:0:0:0:
296,112,86229,1,0,0:0:0:0:
296,112,86326,2,0,L|304:176,1,62.5,0|0,1:0|0:0,0:0:0:0:
392,80,86519,2,0,L|400:16,1,62.5,2|0,0:0|0:0,0:0:0:0:
28,168,86712,5,0,1:0:0:0:
40,228,86809,1,0,0:0:0:0:
52,288,86906,1,0,0:0:0:0:
64,348,87003,1,0,0:0:0:0:
112,312,87099,1,0,1:0:0:0:
160,276,87196,1,0,0:0:0:0:
208,240,87293,1,2,0:0:0:0:
360,304,87487,6,0,B|400:288|400:288|416:200,1,125,0|0,1:0|0:0,0:0:0:0:
280,136,87777,1,0,0:0:0:0:
280,136,87874,2,0,L|344:144,1,62.5,0|0,1:0|0:0,0:0:0:0:
208,56,88067,2,0,L|144:64,1,62.5,2|0,0:0|0:0,0:0:0:0:
8,160,88261,5,0,1:0:0:0:
21,226,88358,1,0,0:0:0:0:
34,293,88455,1,0,0:0:0:0:
48,360,88552,1,0,0:0:0:0:
101,320,88648,1,0,1:0:0:0:
155,280,88745,1,0,0:0:0:0:
208,240,88842,1,2,0:0:0:0:
392,304,89036,6,0,B|432:288|432:288|448:200,1,125,0|0,1:0|0:0,0:0:0:0:
264,120,89325,1,0,0:0:0:0:
264,120,89422,2,0,L|328:128,1,62.5,0|0,1:0|0:0,0:0:0:0:
168,56,89615,2,0,L|104:64,1,62.5,2|0,0:0|0:0,0:0:0:0:
16,216,89809,5,0,0:0:0:0:
92,224,89905,1,0,0:0:0:0:
169,209,90002,1,0,0:0:0:0:
246,198,90099,1,0,0:0:0:0:
323,210,90196,1,0,0:0:0:0:
323,210,90293,1,0,0:0:0:0:
323,210,90390,2,0,L|400:200,1,62.5
512,96,90583,6,0,L|384:88,1,125,4|0,0:0|0:0,0:0:0:0:
280,336,90873,1,0,0:0:0:0:
280,336,90970,2,0,L|264:272,1,62.5
192,48,91164,2,0,L|176:112,1,62.5
16,216,91357,5,0,0:0:0:0:
96,232,91453,1,0,0:0:0:0:
176,248,91550,1,0,0:0:0:0:
256,232,91647,1,0,0:0:0:0:
336,216,91744,1,0,0:0:0:0:
336,216,91841,1,0,0:0:0:0:
336,216,91938,2,0,L|408:200,1,62.5
512,96,92131,6,0,L|384:88,1,125,4|0,0:0|0:0,0:0:0:0:
312,336,92421,1,0,0:0:0:0:
312,336,92518,2,0,P|312:304|296:272,1,62.5
216,24,92712,2,0,P|200:56|200:88,1,62.5
16,208,92906,5,0,0:0:0:0:
86,241,93002,1,0,0:0:0:0:
163,247,93099,1,0,0:0:0:0:
238,226,93196,1,0,0:0:0:0:
301,180,93293,1,0,0:0:0:0:
301,180,93390,1,0,0:0:0:0:
301,180,93486,2,0,L|368:184,1,62.5
512,96,93680,6,0,P|448:112|384:104,1,125,4|0,0:0|0:0,0:0:0:0:
280,336,93970,1,0,0:0:0:0:
280,336,94067,2,0,L|208:328,1,62.5
144,64,94261,2,0,L|216:72,1,62.5
24,208,94454,5,0,0:0:0:0:
96,176,94551,1,0,0:0:0:0:
160,224,94648,1,0,0:0:0:0:
232,192,94744,1,0,0:0:0:0:
296,240,94841,1,0,0:0:0:0:
296,240,94938,1,0,0:0:0:0:
296,240,95035,2,0,L|360:232,1,62.5
512,96,95228,6,0,P|448:88|384:104,1,125,4|0,0:0|0:0,0:0:0:0:
280,336,95518,1,0,0:0:0:0:
280,336,95615,2,0,L|208:328,1,62.5
120,208,95809,2,0,L|48:216,1,62.5
24,64,96002,5,0,0:0:0:0:
96,64,96098,1,0,0:0:0:0:
164,90,96195,1,0,0:0:0:0:
223,133,96292,1,0,0:0:0:0:
280,178,96389,1,0,0:0:0:0:
347,206,96485,1,0,0:0:0:0:
419,199,96583,2,0,L|496:192,1,62.5
248,64,96777,6,0,P|216:144|232:184,1,125,4|0,0:0|0:0,0:0:0:0:
336,304,97067,1,0,0:0:0:0:
336,304,97164,2,0,L|400:296,1,62.5
464,104,97357,2,0,L|400:96,1,62.5
120,16,97551,5,0,0:0:0:0:
79,75,97647,1,0,0:0:0:0:
94,144,97744,1,0,0:0:0:0:
140,201,97841,1,0,0:0:0:0:
185,258,97938,1,0,0:0:0:0:
181,327,98034,1,0,0:0:0:0:
125,372,98132,2,0,L|56:368,1,62.5
280,304,98325,6,0,P|344:312|392:352,1,125,4|0,0:0|0:0,0:0:0:0:
472,240,98615,1,0,0:0:0:0:
472,240,98712,2,0,L|480:168,1,62.5
240,48,98906,2,0,L|248:112,1,62.5
160,304,99099,5,0,0:0:0:0:
90,315,99195,1,0,0:0:0:0:
30,280,99292,1,0,0:0:0:0:
6,214,99389,1,0,0:0:0:0:
29,148,99486,1,0,0:0:0:0:
89,112,99582,1,0,0:0:0:0:
158,123,99680,2,0,P|190:131|223:127,1,62.5
360,256,99873,6,0,P|408:256|472:312,1,125,4|0,0:0|0:0,0:0:0:0:
320,144,100164,1,0,0:0:0:0:
320,144,100261,2,0,P|312:112|312:80,1,62.5
504,32,100454,2,0,P|504:72|496:96,1,62.5
360,336,100648,5,0,0:0:0:0:
287,334,100744,1,0,0:0:0:0:
226,297,100841,1,0,0:0:0:0:
202,229,100938,1,0,0:0:0:0:
167,167,101035,1,0,0:0:0:0:
96,156,101131,1,0,0:0:0:0:
25,172,101228,2,0,P|24:136|32:104,1,62.5
304,24,101422,6,0,P|320:80|312:152,1,125,4|0,0:0|0:0,0:0:0:0:
256,288,101712,1,0,0:0:0:0:
256,288,101809,2,0,P|288:288|320:280,1,62.5
456,160,102002,2,0,P|472:128|472:96,1,62.5
192,144,102196,5,0,0:0:0:0:
120,152,102293,1,0,0:0:0:0:
48,160,102390,1,0,0:0:0:0:
120,176,102486,1,0,0:0:0:0:
192,192,102583,1,0,0:0:0:0:
120,200,102680,1,0,0:0:0:0:
48,208,102777,2,0,P|16:200|-24:200,1,62.5
224,288,102970,6,0,L|352:280,1,125,4|0,0:0|0:0,0:0:0:0:
488,320,103261,1,0,0:0:0:0:
488,320,103357,2,0,P|496:288|496:256,1,62.5
432,136,103551,2,0,L|440:64,1,62.5
272,40,103744,5,0,0:0:0:0:
264,112,103841,1,0,0:0:0:0:
256,184,103938,1,0,0:0:0:0:
208,120,104035,1,0,0:0:0:0:
160,56,104132,1,0,0:0:0:0:
152,128,104228,1,0,0:0:0:0:
144,200,104325,2,0,P|140:240|152:272,1,62.5
368,336,104519,6,0,L|496:320,1,125,4|0,0:0|0:0,0:0:0:0:
384,144,104809,1,0,0:0:0:0:
384,144,104906,2,0,P|347:155|320:176,1,62.5
224,328,105099,2,0,L|152:320,1,62.5
32,208,105293,5,0,0:0:0:0:
112,192,105390,1,0,0:0:0:0:
192,176,105486,1,0,0:0:0:0:
120,144,105583,1,0,0:0:0:0:
48,112,105680,1,0,0:0:0:0:
128,96,105777,1,0,0:0:0:0:
208,80,105873,2,0,L|272:68,1,62.5
480,272,106067,6,0,P|448:312|360:320,1,125,4|0,0:0|0:0,0:0:0:0:
192,272,106357,1,0,0:0:0:0:
192,272,106454,2,0,L|128:280,1,62.5
296,176,106648,2,0,L|360:184,1,62.5
160,88,106841,5,0,0:0:0:0:
80,104,106938,1,0,0:0:0:0:
160,96,107035,1,0,0:0:0:0:
80,96,107132,1,0,0:0:0:0:
160,104,107228,1,0,0:0:0:0:
80,88,107325,1,0,0:0:0:0:
160,112,107422,2,0,L|240:96,1,62.5
432,144,107615,6,0,P|464:88|456:16,1,125,4|0,0:0|0:0,0:0:0:0:
288,320,107906,1,0,0:0:0:0:
288,320,108002,2,0,P|304:352|304:392,1,62.5
112,192,108196,2,0,P|120:160|120:120,1,62.5
24,280,108390,5,0,0:0:0:0:
136,288,108486,1,0,0:0:0:0:
32,304,108583,1,0,0:0:0:0:
144,264,108680,1,0,0:0:0:0:
48,320,108777,5,0,0:0:0:0:
144,240,108873,1,0,0:0:0:0:
224,352,108970,2,0,P|256:352|296:344,1,62.5
488,176,109164,6,0,P|424:168|384:208,1,125,4|0,0:0|0:0,0:0:0:0:
88,160,109454,1,0,0:0:0:0:
88,160,109551,2,0,P|120:160|160:152,1,62.5
308,56,109744,2,0,P|272:52|240:60,1,62.5
24,280,109938,5,0,0:0:0:0:
136,288,110034,1,0,0:0:0:0:
32,304,110131,1,0,0:0:0:0:
144,264,110228,1,0,0:0:0:0:
48,320,110325,5,0,0:0:0:0:
144,240,110421,1,0,0:0:0:0:
224,352,110518,2,0,P|256:352|296:344,1,62.5
488,176,110712,6,0,P|424:168|384:208,1,125,4|0,0:0|0:0,0:0:0:0:
253,93,111002,1,0,0:0:0:0:
253,93,111099,2,0,P|247:63|248:31,1,62.5
96,136,111292,2,0,P|104:168|120:200,1,62.5
24,280,111486,5,0,0:0:0:0:
136,288,111582,1,0,0:0:0:0:
32,304,111679,1,0,0:0:0:0:
144,264,111776,1,0,0:0:0:0:
48,320,111873,5,0,0:0:0:0:
144,240,111969,1,0,0:0:0:0:
224,352,112066,2,0,P|256:352|296:344,1,62.5
488,176,112260,6,0,P|424:168|384:208,1,125,4|0,0:0|0:0,0:0:0:0:
48,160,112551,1,0,0:0:0:0:
48,160,112648,2,0,L|120:168,1,62.5
352,16,112841,2,0,P|352:48|344:80,1,62.5
216,376,113041,5,0,0:0:0:0:
213,360,113137,1,0,0:0:0:0:
211,345,113234,1,0,0:0:0:0:
208,329,113331,1,0,0:0:0:0:
206,314,113428,1,0,0:0:0:0:
204,298,113524,1,0,0:0:0:0:
201,283,113621,2,0,L|192:224,1,46.8750017881394
256,184,113815,6,0,L|256:123,1,46.8750017881394
320,88,114008,5,0,0:0:0:0:
323,72,114104,1,0,0:0:0:0:
326,57,114201,2,0,L|337:-2,1,46.8750017881394
440,200,114396,6,0,P|408:208|376:204,1,46.8750017881394,0|0,0:0|2:0,0:0:0:0:
12,172,114589,5,4,0:0:0:0:
128,288,118451,6,0,L|120:240,1,31.25,0|0,0:0|2:0,0:0:0:0:
224,256,118645,2,0,L|224:192,1,62.5,0|0,0:0|2:0,0:0:0:0:
320,224,118838,2,0,L|328:128,1,93.7500035762788,0|0,0:0|2:0,0:0:0:0:
432,192,119032,2,0,L|464:64,1,125,0|0,0:0|2:0,0:0:0:0:
96,128,119225,5,4,0:0:0:0:
384,288,119419,1,0,0:0:0:0:
224,128,119612,5,0,0:0:0:0:
288,256,119806,1,0,0:0:0:0:
288,32,119999,5,0,0:0:0:0:
224,352,120193,1,0,0:0:0:0:
352,128,120387,5,0,0:0:0:0:
160,256,120580,1,0,0:0:0:0:
480,128,120774,5,0,0:0:0:0:
32,256,120967,1,0,0:0:0:0:
384,224,121161,5,0,0:0:0:0:
128,160,121354,1,0,0:0:0:0:
432,328,121548,5,0,0:0:0:0:
80,56,121741,1,0,0:0:0:0:
320,256,121935,5,0,0:0:0:0:
192,128,122129,1,0,0:0:0:0:
480,0,122322,5,0,0:0:0:0:
48,160,122516,1,0,0:0:0:0:
416,224,122709,5,0,0:0:0:0:
48,160,122903,1,0,0:0:0:0:
464,112,123096,5,0,0:0:0:0:
48,272,123290,1,0,0:0:0:0:
368,352,123483,5,0,0:0:0:0:
48,272,123677,1,0,0:0:0:0:
480,256,123870,5,0,0:0:0:0:
32,128,124064,1,0,0:0:0:0:
368,144,124258,5,0,0:0:0:0:
144,240,124451,1,0,0:0:0:0:
496,352,124645,5,0,0:0:0:0:
224,32,124838,1,0,0:0:0:0:
192,104,124935,5,0,0:0:0:0:
194,115,124983,1,0,0:0:0:0:
197,126,125032,1,0,0:0:0:0:
168,192,125128,5,0,0:0:0:0:
171,204,125176,1,0,0:0:0:0:
175,217,125225,1,0,0:0:0:0:
179,230,125274,1,0,0:0:0:0:
182,243,125322,1,0,0:0:0:0:
186,256,125370,1,0,0:0:0:0:
190,269,125419,1,4,0:0:0:0:
