osu file format v14

[General]
AudioFilename: audio.mp3
AudioLeadIn: 0
PreviewTime: 51854
Countdown: 0
SampleSet: Soft
StackLeniency: 0.2
Mode: 0
LetterboxInBreaks: 0
WidescreenStoryboard: 1

[Editor]
DistanceSpacing: 1.6
BeatDivisor: 4
GridSize: 4
TimelineZoom: 2.999999

[Metadata]
Title:No Limits
TitleUnicode:No Limits
Artist:Beatcore AFF1N1TY & Corinna Jasmina
ArtistUnicode:Beatcore AFF1N1TY & Corinna Jasmina
Creator:Pandize
Version:yes no? eh no
Source:
Tags:
BeatmapID:2186062
BeatmapSetID:1045732

[Difficulty]
HPDrainRate:6
CircleSize:4
OverallDifficulty:7.5
ApproachRate:9.5
SliderMultiplier:1.7
SliderTickRate:1

[Events]
//Background and Video events
0,0,"city_study.jpg",0,0
//Break Periods
2,102376,114038
//Storyboard Layer 0 (Background)
//Storyboard Layer 1 (Fail)
//Storyboard Layer 2 (Pass)
//Storyboard Layer 3 (Foreground)
//Storyboard Layer 4 (Overlay)
//Storyboard Sound Samples

[TimingPoints]
3080,387.096774193548,4,1,1,90,1,0
52144,-100,4,1,1,5,0,0
52241,-100,4,1,1,90,0,0
52531,-100,4,1,1,5,0,0
52628,-50,4,1,1,90,0,0
53305,-50,4,1,1,5,0,0
53402,-66.6666666666667,4,1,1,90,0,0
53499,-66.6666666666667,4,1,1,5,0,0
53596,-66.6666666666667,4,1,1,90,0,0
53692,-66.6666666666667,4,1,1,5,0,0
53789,-66.6666666666667,4,1,1,90,0,0
53886,-66.6666666666667,4,1,1,5,0,0
53983,-66.6666666666667,4,1,1,90,0,0
54080,-66.6666666666667,4,1,1,5,0,0
54176,-66.6666666666667,4,1,1,90,0,0
54273,-66.6666666666667,4,1,1,5,0,0
54370,-66.6666666666667,4,1,1,90,0,0
54467,-66.6666666666667,4,1,1,5,0,0
54563,-66.6666666666667,4,1,1,90,0,0
54660,-66.6666666666667,4,1,1,5,0,0
54757,-66.6666666666667,4,1,1,90,0,0
55144,-66.6666666666667,4,1,1,5,0,0
55241,-66.6666666666667,4,1,1,90,0,0
55434,-66.6666666666667,4,1,1,5,0,0
55531,-66.6666666666667,4,1,1,90,0,0
55628,-66.6666666666667,4,1,1,5,0,0
55725,-50,4,1,1,90,0,0
56015,-50,4,1,1,5,0,0
56112,-50,4,1,1,90,0,0
56209,-50,4,1,1,5,0,0
56305,-50,4,1,1,90,0,0
56402,-50,4,1,1,5,0,0
56499,-500,4,1,1,90,0,0
56789,-500,4,1,1,5,0,0
56886,-500,4,1,1,90,0,0
57176,-500,4,1,1,5,0,0
57273,-500,4,1,1,90,0,0
57660,-50,4,1,1,90,0,0
57950,-50,4,1,1,5,0,0
58047,-50,4,1,1,90,0,0
58338,-50,4,1,1,5,0,0
58434,-500,4,1,1,90,0,0
58725,-500,4,1,1,5,0,0
58821,-50,4,1,1,90,0,0
59499,-50,4,1,1,5,0,0
59596,-50,4,1,1,90,0,0
59886,-50,4,1,1,5,0,0
59983,-133.333333333333,4,1,1,90,0,0
60273,-133.333333333333,4,1,1,5,0,0
60370,-50,4,1,1,90,0,0
60660,-50,4,1,1,5,0,0
60757,-133.333333333333,4,1,1,90,0,0
61047,-133.333333333333,4,1,1,5,0,0
61144,-66.6666666666667,4,1,1,90,0,0
61434,-133.333333333333,4,1,1,5,0,0
61531,-133.333333333333,4,1,1,90,0,0
61628,-133.333333333333,4,1,1,5,0,0
61725,-133.333333333333,4,1,1,90,0,0
61821,-133.333333333333,4,1,1,5,0,0
61918,-50,4,1,1,90,0,0
62209,-50,4,1,1,5,0,0
62305,-50,4,1,1,90,0,0
62402,-50,4,1,1,5,0,0
62499,-50,4,1,1,90,0,0
62596,-50,4,1,1,5,0,0
62692,-500,4,1,1,90,0,0
62983,-500,4,1,1,5,0,0
63079,-500,4,1,1,90,0,0
63854,-50,4,1,1,90,0,0
64144,-50,4,1,1,5,0,0
64241,-50,4,1,1,90,0,0
64531,-50,4,1,1,5,0,0
64628,-100,4,1,1,90,0,0
65015,-50,4,1,1,90,0,0
65692,-50,4,1,1,5,0,0
65789,-66.6666666666667,4,1,1,90,0,0
65886,-66.6666666666667,4,1,1,5,0,0
65983,-66.6666666666667,4,1,1,90,0,0
66079,-66.6666666666667,4,1,1,5,0,0
66176,-66.6666666666667,4,1,1,90,0,0
66273,-66.6666666666667,4,1,1,5,0,0
66370,-66.6666666666667,4,1,1,90,0,0
66467,-66.6666666666667,4,1,1,5,0,0
66563,-66.6666666666667,4,1,1,90,0,0
66660,-66.6666666666667,4,1,1,5,0,0
66757,-66.6666666666667,4,1,1,90,0,0
66854,-66.6666666666667,4,1,1,5,0,0
66950,-66.6666666666667,4,1,1,90,0,0
67047,-66.6666666666667,4,1,1,5,0,0
67144,-66.6666666666667,4,1,1,90,0,0
67338,-50,4,1,1,90,0,0
67531,-50,4,1,1,5,0,0
67628,-50,4,1,1,90,0,0
68402,-50,4,1,1,5,0,0
68499,-50,4,1,1,90,0,0
68596,-50,4,1,1,5,0,0
68692,-50,4,1,1,90,0,0
68789,-50,4,1,1,5,0,0
68886,-500,4,1,1,90,0,0
69176,-500,4,1,1,5,0,0
69273,-500,4,1,1,90,0,0
69563,-500,4,1,1,5,0,0
69660,-500,4,1,1,90,0,0
70047,-50,4,1,1,90,0,0
70338,-50,4,1,1,5,0,0
70434,-50,4,1,1,90,0,0
70725,-50,4,1,1,5,0,0
70821,-50,4,1,1,90,0,0
71015,-100,4,1,1,90,0,0
71112,-100,4,1,1,5,0,0
71209,-50,4,1,1,90,0,0
71886,-50,4,1,1,5,0,0
71983,-50,4,1,1,90,0,0
72273,-50,4,1,1,5,0,0
72370,-133.333333333333,4,1,1,90,0,0
72660,-133.333333333333,4,1,1,5,0,0
72757,-50,4,1,1,90,0,0
73047,-50,4,1,1,5,0,0
73144,-133.333333333333,4,1,1,90,0,0
73434,-133.333333333333,4,1,1,5,0,0
73531,-66.6666666666667,4,1,1,90,0,0
73821,-66.6666666666667,4,1,1,5,0,0
73918,-133.333333333333,4,1,1,90,0,0
74015,-133.333333333333,4,1,1,5,0,0
74112,-133.333333333333,4,1,1,90,0,0
74209,-133.333333333333,4,1,1,5,0,0
74305,-133.333333333333,4,1,1,90,0,0
75467,-66.6666666666667,4,1,1,90,0,0
75854,-1000,4,1,1,90,0,0
76241,-1000,4,1,1,5,0,0
76338,-1000,4,1,1,90,0,0
76821,-250,4,1,1,60,0,0
76918,-250,4,1,1,5,0,0
77015,-250,4,1,1,60,0,0
77112,-250,4,1,1,5,0,0
77209,-250,4,1,1,60,0,0
77305,-250,4,1,1,5,0,0
77402,-50,4,1,1,90,0,0
77692,-50,4,1,1,5,0,0
77789,-50,4,1,1,90,0,0
78079,-50,4,1,1,5,0,0
78176,-66.6666666666667,4,1,1,90,0,0
78273,-66.6666666666667,4,1,1,5,0,0
78370,-66.6666666666667,4,1,1,90,0,0
78467,-66.6666666666667,4,1,1,5,0,0
78563,-66.6666666666667,4,1,1,90,0,0
78660,-66.6666666666667,4,1,1,5,0,0
78757,-66.6666666666667,4,1,1,90,0,0
78854,-66.6666666666667,4,1,1,5,0,0
78950,-66.6666666666667,4,1,1,90,0,0
79241,-66.6666666666667,4,1,1,5,0,0
79338,-66.6666666666667,4,1,1,90,0,0
79434,-66.6666666666667,4,1,1,5,0,0
79531,-66.6666666666667,4,1,1,90,0,0
79628,-66.6666666666667,4,1,1,5,0,0
79725,-66.6666666666667,4,1,1,90,0,0
79821,-66.6666666666667,4,1,1,5,0,0
79918,-66.6666666666667,4,1,1,90,0,0
80209,-66.6666666666667,4,1,1,5,0,0
80305,-66.6666666666667,4,1,1,90,0,0
80596,-66.6666666666667,4,1,1,5,0,0
80692,-66.6666666666667,4,1,1,90,0,0
80789,-66.6666666666667,4,1,1,5,0,0
80886,-66.6666666666667,4,1,1,90,0,0
80983,-66.6666666666667,4,1,1,5,0,0
81079,-66.6666666666667,4,1,1,90,0,0
81176,-66.6666666666667,4,1,1,5,0,0
81273,-66.6666666666667,4,1,1,90,0,0
81467,-66.6666666666667,4,1,1,90,0,0
81563,-66.6666666666667,4,1,1,5,0,0
81660,-66.6666666666667,4,1,1,90,0,0
81757,-66.6666666666667,4,1,1,5,0,0
81854,-66.6666666666667,4,1,1,90,0,0
81950,-66.6666666666667,4,1,1,5,0,0
82047,-66.6666666666667,4,1,1,90,0,0
82144,-66.6666666666667,4,1,1,5,0,0
82241,-66.6666666666667,4,1,1,90,0,0
82531,-66.6666666666667,4,1,1,5,0,0
82628,-66.6666666666667,4,1,1,90,0,0
82725,-66.6666666666667,4,1,1,5,0,0
82821,-133.333333333333,4,1,1,90,0,0
83209,-66.6666666666667,4,1,1,90,0,0
83499,-66.6666666666667,4,1,1,5,0,0
83596,-50,4,1,1,90,0,0
83886,-50,4,1,1,5,0,0
83983,-50,4,1,1,90,0,0
84273,-50,4,1,1,5,0,0
84370,-66.6666666666667,4,1,1,90,0,0
84467,-66.6666666666667,4,1,1,5,0,0
84563,-66.6666666666667,4,1,1,90,0,0
84660,-66.6666666666667,4,1,1,5,0,0
84757,-66.6666666666667,4,1,1,90,0,0
84854,-66.6666666666667,4,1,1,5,0,0
84950,-66.6666666666667,4,1,1,90,0,0
85047,-66.6666666666667,4,1,1,5,0,0
85144,-66.6666666666667,4,1,1,90,0,0
85434,-66.6666666666667,4,1,1,5,0,0
85531,-66.6666666666667,4,1,1,90,0,0
85628,-66.6666666666667,4,1,1,5,0,0
85725,-66.6666666666667,4,1,1,90,0,0
85821,-66.6666666666667,4,1,1,5,0,0
85918,-66.6666666666667,4,1,1,90,0,0
86015,-66.6666666666667,4,1,1,5,0,0
86112,-66.6666666666667,4,1,1,90,0,0
86402,-66.6666666666667,4,1,1,5,0,0
86499,-66.6666666666667,4,1,1,90,0,0
86789,-66.6666666666667,4,1,1,5,0,0
86886,-66.6666666666667,4,1,1,90,0,0
86983,-66.6666666666667,4,1,1,5,0,0
87079,-66.6666666666667,4,1,1,90,0,0
87176,-66.6666666666667,4,1,1,5,0,0
87273,-66.6666666666667,4,1,1,90,0,0
87370,-66.6666666666667,4,1,1,5,0,0
87467,-66.6666666666667,4,1,1,90,0,0
87757,-66.6666666666667,4,1,1,5,0,0
87854,-66.6666666666667,4,1,1,90,0,0
87950,-66.6666666666667,4,1,1,5,0,0
88047,-66.6666666666667,4,1,1,90,0,0
88144,-66.6666666666667,4,1,1,5,0,0
88241,-66.6666666666667,4,1,1,90,0,0
88338,-66.6666666666667,4,1,1,5,0,0
88434,-66.6666666666667,4,1,1,90,0,0
88725,-66.6666666666667,4,1,1,5,0,0
88821,-66.6666666666667,4,1,1,90,0,0
88918,-66.6666666666667,4,1,1,5,0,0
89015,-66.6666666666667,4,1,1,90,0,0
89112,-66.6666666666667,4,1,1,5,0,0
89209,-66.6666666666667,4,1,1,90,0,0
89305,-66.6666666666667,4,1,1,5,0,0
89402,-66.6666666666667,4,1,1,90,0,0
89499,-66.6666666666667,4,1,1,5,0,0
89596,-66.6666666666667,4,1,1,90,0,0
89692,-66.6666666666667,4,1,1,5,0,0
89789,-50,4,1,1,90,0,0
90079,-50,4,1,1,5,0,0
90176,-50,4,1,1,90,0,0
90660,-50,4,1,1,5,0,0
90757,-50,4,1,1,90,0,0
90854,-50,4,1,1,5,0,0
90950,-50,4,1,1,90,0,0
91047,-50,4,1,1,5,0,0
91144,-50,4,1,1,90,0,0
91241,-50,4,1,1,5,0,0
91338,-50,4,1,1,90,0,0
91628,-50,4,1,1,5,0,0
91725,-50,4,1,1,90,0,0
91821,-50,4,1,1,5,0,0
91918,-50,4,1,1,90,0,0
92015,-50,4,1,1,5,0,0
92112,-50,4,1,1,90,0,0
92209,-50,4,1,1,5,0,0
92305,-50,4,1,1,90,0,0
92596,-50,4,1,1,5,0,0
92692,-50,4,1,1,90,0,0
94144,-50,4,1,1,5,0,0
94241,-50,4,1,1,90,0,0
94338,-50,4,1,1,5,0,0
94434,-50,4,1,1,90,0,0
94531,-50,4,1,1,5,0,0
94628,-50,4,1,1,90,0,0
94918,-50,4,1,1,5,0,0
95015,-50,4,1,1,90,0,0
95112,-50,4,1,1,5,0,0
95209,-50,4,1,1,90,0,0
95305,-50,4,1,1,5,0,0
95402,-50,4,1,1,90,0,0
95499,-50,4,1,1,5,0,0
95596,-100,4,1,1,90,0,0
95983,-50,4,1,1,90,0,0
96273,-50,4,1,1,5,0,0
96370,-50,4,1,1,90,0,0
96467,-50,4,1,1,5,0,0
96563,-50,4,1,1,90,0,0
96757,-50,4,1,1,90,0,0
96854,-50,4,1,1,5,0,0
96950,-50,4,1,1,90,0,0
97047,-50,4,1,1,5,0,0
97144,-50,4,1,1,90,0,0
97241,-50,4,1,1,5,0,0
97338,-50,4,1,1,90,0,0
97434,-50,4,1,1,5,0,0
97531,-50,4,1,1,90,0,0
97821,-50,4,1,1,5,0,0
97918,-50,4,1,1,90,0,0
98015,-50,4,1,1,5,0,0
98112,-50,4,1,1,90,0,0
98209,-50,4,1,1,5,0,0
98305,-50,4,1,1,90,0,0
98402,-50,4,1,1,5,0,0
98499,-50,4,1,1,90,0,0
98789,-50,4,1,1,5,0,0
98886,-50,4,1,1,90,0,0
99079,-200,4,1,1,90,0,0
99176,-200,4,1,1,5,0,0
99273,-133.333333333333,4,1,1,90,0,0
99370,-133.333333333333,4,1,1,5,0,0
99467,-100,4,1,1,90,0,0
99563,-100,4,1,1,5,0,0
99660,-80,4,1,1,90,0,0
99757,-80,4,1,1,5,0,0
99854,-66.6666666666667,4,1,1,90,0,0
99950,-66.6666666666667,4,1,1,5,0,0
100047,-57.1428571428571,4,1,1,90,0,0
100144,-57.1428571428571,4,1,1,5,0,0
100241,-50,4,1,1,90,0,0
100338,-50,4,1,1,5,0,0
100434,-44.4444444444445,4,1,1,90,0,0
100531,-44.4444444444445,4,1,1,5,0,0
100628,-40,4,1,1,90,0,0
100725,-40,4,1,1,5,0,0
100821,-36.3636363636364,4,1,1,90,0,0
100918,-36.3636363636364,4,1,1,5,0,0
101015,-33.3333333333333,4,1,1,90,0,0
101112,-33.3333333333333,4,1,1,5,0,0
101209,-30.7692307692308,4,1,1,90,0,0
101305,-30.7692307692308,4,1,1,5,0,0
101402,-100,4,1,1,90,0,0
102079,-100,4,1,1,5,0,0
102176,-100,4,1,1,90,0,0
114563,-166.666666666667,4,2,1,60,0,0
126950,-133.333333333333,4,2,1,60,0,0
133144,-133.333333333333,4,2,1,60,0,0
133918,-133.333333333333,4,2,1,60,0,0
134886,-133.333333333333,4,2,1,60,0,0
139338,-100,4,2,1,60,0,0
140596,-100,4,2,1,5,0,0
140692,-100,4,2,1,60,0,0
140789,-100,4,2,1,5,0,0
140886,-100,4,2,1,60,0,0
147176,-100,4,2,1,5,0,0
147273,-100,4,2,1,60,0,0
147370,-100,4,2,1,5,0,0
147467,-100,4,2,1,60,0,0
147563,-100,4,2,1,5,0,0
147660,-100,4,2,1,60,0,0
147757,-100,4,2,1,5,0,0
147854,-100,4,2,1,60,0,0
147950,-100,4,2,1,5,0,0
148047,-100,4,2,1,60,0,0
148144,-100,4,2,1,5,0,0
148241,-100,4,2,1,60,0,0
148338,-100,4,2,1,5,0,0
148434,-100,4,2,1,60,0,0
148531,-100,4,2,1,5,0,0
148628,-100,4,2,1,60,0,0
151241,-100,4,2,1,5,0,0
151338,-100,4,2,1,60,0,0
151628,-100,4,2,1,5,0,0
151725,-50,4,1,1,90,0,0
152402,-50,4,1,1,5,0,0
152499,-66.6666666666667,4,1,1,90,0,0
152596,-66.6666666666667,4,1,1,5,0,0
152692,-66.6666666666667,4,1,1,90,0,0
152789,-66.6666666666667,4,1,1,5,0,0
152886,-66.6666666666667,4,1,1,90,0,0
152983,-66.6666666666667,4,1,1,5,0,0
153079,-66.6666666666667,4,1,1,90,0,0
153176,-66.6666666666667,4,1,1,5,0,0
153273,-66.6666666666667,4,1,1,90,0,0
153370,-66.6666666666667,4,1,1,5,0,0
153467,-66.6666666666667,4,1,1,90,0,0
153563,-66.6666666666667,4,1,1,5,0,0
153660,-66.6666666666667,4,1,1,90,0,0
153757,-66.6666666666667,4,1,1,5,0,0
153854,-66.6666666666667,4,1,1,90,0,0
154241,-66.6666666666667,4,1,1,5,0,0
154338,-66.6666666666667,4,1,1,90,0,0
154531,-66.6666666666667,4,1,1,5,0,0
154628,-66.6666666666667,4,1,1,90,0,0
154725,-66.6666666666667,4,1,1,5,0,0
154821,-50,4,1,1,90,0,0
155112,-50,4,1,1,5,0,0
155209,-50,4,1,1,90,0,0
155305,-50,4,1,1,5,0,0
155402,-50,4,1,1,90,0,0
155499,-50,4,1,1,5,0,0
155596,-500,4,1,1,90,0,0
155886,-500,4,1,1,5,0,0
155983,-500,4,1,1,90,0,0
156273,-500,4,1,1,5,0,0
156370,-500,4,1,1,90,0,0
156757,-50,4,1,1,90,0,0
157047,-50,4,1,1,5,0,0
157144,-50,4,1,1,90,0,0
157434,-50,4,1,1,5,0,0
157531,-500,4,1,1,90,0,0
157821,-500,4,1,1,5,0,0
157918,-50,4,1,1,90,0,0
158596,-50,4,1,1,5,0,0
158692,-50,4,1,1,90,0,0
158983,-50,4,1,1,5,0,0
159079,-133.333333333333,4,1,1,90,0,0
159370,-133.333333333333,4,1,1,5,0,0
159467,-50,4,1,1,90,0,0
159757,-50,4,1,1,5,0,0
159854,-133.333333333333,4,1,1,90,0,0
160144,-133.333333333333,4,1,1,5,0,0
160241,-66.6666666666667,4,1,1,90,0,0
160531,-66.6666666666667,4,1,1,5,0,0
160628,-133.333333333333,4,1,1,90,0,0
160725,-133.333333333333,4,1,1,5,0,0
160821,-133.333333333333,4,1,1,90,0,0
160918,-133.333333333333,4,1,1,5,0,0
161015,-50,4,1,1,90,0,0
161305,-50,4,1,1,5,0,0
161402,-50,4,1,1,90,0,0
161499,-50,4,1,1,5,0,0
161596,-50,4,1,1,90,0,0
161692,-50,4,1,1,5,0,0
161789,-500,4,1,1,90,0,0
162079,-500,4,1,1,5,0,0
162176,-500,4,1,1,90,0,0
162950,-50,4,1,1,90,0,0
163241,-50,4,1,1,5,0,0
163338,-50,4,1,1,90,0,0
163628,-50,4,1,1,5,0,0
163725,-100,4,1,1,90,0,0
164112,-50,4,1,1,90,0,0
164789,-50,4,1,1,5,0,0
164886,-66.6666666666667,4,1,1,90,0,0
164983,-66.6666666666667,4,1,1,5,0,0
165079,-66.6666666666667,4,1,1,90,0,0
165176,-66.6666666666667,4,1,1,5,0,0
165273,-66.6666666666667,4,1,1,90,0,0
165370,-66.6666666666667,4,1,1,5,0,0
165467,-66.6666666666667,4,1,1,90,0,0
165563,-66.6666666666667,4,1,1,5,0,0
165660,-66.6666666666667,4,1,1,90,0,0
165757,-66.6666666666667,4,1,1,5,0,0
165854,-66.6666666666667,4,1,1,90,0,0
165950,-66.6666666666667,4,1,1,5,0,0
166047,-66.6666666666667,4,1,1,90,0,0
166144,-66.6666666666667,4,1,1,5,0,0
166241,-66.6666666666667,4,1,1,90,0,0
166434,-50,4,1,1,90,0,0
166628,-50,4,1,1,5,0,0
166725,-50,4,1,1,90,0,0
167499,-50,4,1,1,5,0,0
167596,-50,4,1,1,90,0,0
167692,-50,4,1,1,5,0,0
167789,-50,4,1,1,90,0,0
167886,-50,4,1,1,5,0,0
167983,-500,4,1,1,90,0,0
168273,-500,4,1,1,5,0,0
168370,-500,4,1,1,90,0,0
168660,-500,4,1,1,5,0,0
168757,-500,4,1,1,90,0,0
169144,-50,4,1,1,90,0,0
169434,-50,4,1,1,5,0,0
169531,-50,4,1,1,90,0,0
169821,-50,4,1,1,5,0,0
169918,-50,4,1,1,90,0,0
170112,-100,4,1,1,90,0,0
170209,-100,4,1,1,5,0,0
170305,-50,4,1,1,90,0,0
170983,-50,4,1,1,5,0,0
171079,-50,4,1,1,90,0,0
171370,-50,4,1,1,5,0,0
171467,-133.333333333333,4,1,1,90,0,0
171757,-133.333333333333,4,1,1,5,0,0
171854,-50,4,1,1,90,0,0
172144,-50,4,1,1,5,0,0
172241,-133.333333333333,4,1,1,90,0,0
172531,-133.333333333333,4,1,1,5,0,0
172628,-66.6666666666667,4,1,1,90,0,0
172918,-66.6666666666667,4,1,1,5,0,0
173015,-133.333333333333,4,1,1,90,0,0
173112,-133.333333333333,4,1,1,5,0,0
173209,-133.333333333333,4,1,1,90,0,0
173305,-133.333333333333,4,1,1,5,0,0
173402,-133.333333333333,4,1,1,90,0,0
174176,-66.6666666666667,4,1,1,90,0,0
174950,-1000,4,1,1,90,0,0
175144,-1000,4,1,1,5,0,0
175241,-1000,4,1,1,5,0,0
175338,-1000,4,1,1,90,0,0
175918,-1000,4,1,1,45,0,0
176112,-133.333333333333,4,1,1,45,0,0
176499,-50,4,1,1,90,0,0
176789,-50,4,1,1,5,0,0
176886,-50,4,1,1,90,0,0
177176,-50,4,1,1,5,0,0
177273,-100,4,1,1,90,0,0
177467,-50,4,1,1,5,0,0
177660,-50,4,1,1,90,0,0
178531,-50,4,1,1,5,0,0
178628,-50,4,1,1,90,0,0
178725,-50,4,1,1,5,0,0
178821,-50,4,1,1,90,0,0
179209,-50,4,1,1,90,0,0
179305,-50,4,1,1,5,0,0
179402,-50,4,1,1,90,0,0
180079,-50,4,1,1,5,0,0
180176,-50,4,1,1,90,0,0
180273,-50,4,1,1,5,0,0
180370,-50,4,1,1,90,0,0
180467,-50,4,1,1,5,0,0
180563,-50,4,1,1,90,0,0
180660,-50,4,1,1,5,0,0
180757,-50,4,1,1,90,0,0
180854,-50,4,1,1,5,0,0
180950,-50,4,1,1,90,0,0
181628,-50,4,1,1,5,0,0
181725,-50,4,1,1,90,0,0
181821,-50,4,1,1,5,0,0
181918,-142.857142857143,4,1,1,90,0,0
182305,-66.6666666666667,4,1,1,90,0,0
182596,-66.6666666666667,4,1,1,5,0,0
182692,-50,4,1,1,90,0,0
182983,-50,4,1,1,5,0,0
183079,-50,4,1,1,90,0,0
183370,-50,4,1,1,5,0,0
183467,-100,4,1,1,90,0,0
183563,-100,4,1,1,5,0,0
183660,-100,4,1,1,90,0,0
183757,-100,4,1,1,5,0,0
183854,-100,4,1,1,90,0,0
183950,-100,4,1,1,5,0,0
184047,-100,4,1,1,90,0,0
184144,-100,4,1,1,5,0,0
184241,-50,4,1,1,90,0,0
184628,-50,4,1,1,90,0,0
184725,-50,4,1,1,5,0,0
184821,-50,4,1,1,90,0,0
184918,-50,4,1,1,5,0,0
185015,-50,4,1,1,90,0,0
185499,-50,4,1,1,5,0,0
185596,-50,4,1,1,90,0,0
185692,-50,4,1,1,5,0,0
185789,-50,4,1,1,90,0,0
186273,-50,4,1,1,5,0,0
186370,-50,4,1,1,90,0,0
186467,-50,4,1,1,5,0,0
186563,-50,4,1,1,90,0,0
186757,-40,4,1,1,90,0,0
186854,-40,4,1,1,5,0,0
186950,-40,4,1,1,90,0,0
187047,-40,4,1,1,5,0,0
187144,-40,4,1,1,90,0,0
187628,-40,4,1,1,5,0,0
187725,-40,4,1,1,90,0,0
187821,-40,4,1,1,5,0,0
187918,-40,4,1,1,90,0,0
188015,-40,4,1,1,5,0,0
188112,-133.333333333333,4,1,1,90,0,0
188209,-133.333333333333,4,1,1,5,0,0
188305,-133.333333333333,4,1,1,90,0,0
188402,-133.333333333333,4,1,1,5,0,0
188499,-66.6666666666667,4,1,1,90,0,0
188596,-66.6666666666667,4,1,1,5,0,0
188692,-66.6666666666667,4,1,1,90,0,0
188789,-66.6666666666667,4,1,1,5,0,0
188886,-50,4,1,1,90,0,0
189176,-50,4,1,1,5,0,0
189273,-50,4,1,1,90,0,0
189660,-133.333333333333,4,1,1,90,0,0
189757,-133.333333333333,4,1,1,5,0,0
189854,-100,4,1,1,90,0,0
189950,-100,4,1,1,5,0,0
190047,-66.6666666666667,4,1,1,90,0,0
190144,-66.6666666666667,4,1,1,5,0,0
190241,-50,4,1,1,90,0,0
190338,-50,4,1,1,5,0,0
190434,-66.6666666666667,4,1,1,90,0,0
190628,-66.6666666666667,4,1,1,5,0,0
190821,-50,4,1,1,90,0,0
190918,-50,4,1,1,5,0,0
191015,-50,4,1,1,90,0,0
191112,-50,4,1,1,5,0,0
191209,-50,4,1,1,90,0,0
191886,-66.6666666666667,4,1,1,5,0,0
191983,-50,4,1,1,90,0,0
192176,-50,4,1,1,5,0,0
192370,-50,4,1,1,90,0,0
192467,-50,4,1,1,5,0,0
192563,-50,4,1,1,90,0,0
192854,-50,4,1,1,5,0,0
192950,-50,4,1,1,90,0,0
193047,-50,4,1,1,5,0,0
193144,-50,4,1,1,90,0,0
193241,-50,4,1,1,5,0,0
193338,-50,4,1,1,90,0,0
193628,-50,4,1,1,5,0,0
193725,-50,4,1,1,90,0,0
194015,-50,4,1,1,5,0,0
194112,-50,4,1,1,90,0,0
194692,-100,4,1,1,90,0,0
195079,-50,4,1,1,90,0,0
195370,-50,4,1,1,5,0,0
195467,-50,4,1,1,90,0,0
195563,-50,4,1,1,5,0,0
195660,-50,4,1,1,90,0,0
195854,-100,4,1,1,90,0,0
195950,-100,4,1,1,5,0,0
196047,-100,4,1,1,90,0,0
196144,-100,4,1,1,5,0,0
196241,-100,4,1,1,90,0,0
196338,-100,4,1,1,5,0,0
196434,-100,4,1,1,90,0,0
196531,-100,4,1,1,5,0,0
196628,-50,4,1,1,90,0,0
196821,-50,4,1,1,5,0,0
197015,-50,4,1,1,90,0,0
197112,-50,4,1,1,5,0,0
197209,-50,4,1,1,90,0,0
197305,-50,4,1,1,5,0,0
197402,-50,4,1,1,90,0,0
197596,-50,4,1,1,5,0,0
197789,-50,4,1,1,90,0,0
197886,-50,4,1,1,5,0,0
197983,-50,4,1,1,90,0,0
198079,-50,4,1,1,5,0,0
198176,-200,4,1,1,90,0,0
198273,-200,4,1,1,5,0,0
198370,-133.333333333333,4,1,1,90,0,0
198467,-133.333333333333,4,1,1,5,0,0
198563,-100,4,1,1,90,0,0
198660,-100,4,1,1,5,0,0
198757,-80,4,1,1,90,0,0
198854,-80,4,1,1,5,0,0
198950,-66.6666666666667,4,1,1,90,0,0
199047,-66.6666666666667,4,1,1,5,0,0
199144,-57.1428571428571,4,1,1,90,0,0
199241,-57.1428571428571,4,1,1,5,0,0
199338,-50,4,1,1,90,0,0
199434,-50,4,1,1,5,0,0
199531,-44.4444444444445,4,1,1,90,0,0
199628,-44.4444444444445,4,1,1,5,0,0
199725,-40,4,1,1,90,0,0
199821,-40,4,1,1,5,0,0
199918,-36.3636363636364,4,1,1,90,0,0
200015,-36.3636363636364,4,1,1,5,0,0
200112,-33.3333333333333,4,1,1,90,0,0
200209,-33.3333333333333,4,1,1,5,0,0
200305,-30.7692307692308,4,1,1,90,0,0
200402,-30.7692307692308,4,1,1,5,0,0
200499,-100,4,1,1,90,0,0
201176,-100,4,1,1,5,0,0
201273,-100,4,1,1,90,0,0

[Colours]
Combo1 : 255,128,255
Combo2 : 0,128,128
Combo3 : 255,255,255
Combo4 : 128,255,255

[HitObjects]
69,271,51854,6,0,P|113:243|75:178,1,127.5,0|0,0:0|2:0,0:0:0:0:
90,182,52241,2,0,P|46:210|84:275,1,127.5,0|0,0:0|2:0,0:0:0:0:
247,375,52628,6,0,B|176:301|172:206|205:162|291:135|352:163|381:228|378:300|343:348|343:348|278:310|279:257,1,595,6|0,0:3|2:0,0:0:0:0:
291,35,53402,6,0,L|287:98,1,63.7500024318696,8|0,0:0|2:0,0:0:0:0:
277,95,53596,2,0,L|280:31,1,63.7500024318696,0|0,0:0|2:0,0:0:0:0:
270,29,53789,2,0,L|266:92,1,63.7500024318696,0|0,0:0|2:0,0:0:0:0:
416,66,53983,6,0,L|419:2,1,63.7500024318696,0|0,0:0|2:0,0:0:0:0:
409,0,54176,2,0,L|405:63,1,63.7500024318696,0|0,0:0|2:0,0:0:0:0:
128,122,54370,6,0,L|131:58,1,63.7500024318696,0|0,0:0|2:0,0:0:0:0:
121,56,54563,2,0,L|117:119,1,63.7500024318696,0|0,0:0|2:0,0:0:0:0:
327,199,54757,5,2,0:3:0:0:
211,205,54950,6,0,P|270:224|327:199,1,127.500004863739,8|0,0:1|2:3,0:3:0:0:
346,118,55241,1,0,2:0:0:0:
346,118,55338,2,8,P|333:89|310:67,1,63.7500024318696,0|8,0:0|2:0,0:0:0:0:
211,74,55531,2,8,P|182:127|196:188,1,63.7500024318696,0|8,2:0|2:0,0:0:0:0:
128,380,55725,6,0,B|173:313|256:312|256:312|385:310,1,255,2|0,0:3|2:0,0:0:0:0:
411,253,56112,6,0,P|434:288|436:330,1,85,0|0,0:0|2:0,0:0:0:0:
309,372,56305,2,0,P|286:337|285:296,1,85,0|0,0:0|2:0,0:0:0:0:
329,202,56499,6,0,L|297:206,1,25.5,8|0,0:0|2:0,0:0:0:0:
231,215,56886,2,0,L|199:219,1,25.5,0|0,0:0|2:0,0:0:0:0:
132,229,57273,5,0,2:0:0:0:
132,229,57467,1,0,2:0:0:0:
390,76,57660,6,0,P|313:139|357:277,1,255,2|0,0:3|2:0,0:0:0:0:
442,289,58047,2,0,P|519:226|475:88,1,255,8|0,0:0|2:0,0:0:0:0:
448,0,58434,6,0,L|445:25,1,25.5,2|0,0:2|2:3,0:0:0:0:
413,184,58821,6,0,B|329:95|228:161|228:161|126:232|29:169|45:89|83:43|83:43|141:52|141:109,1,595,2|0,0:3|2:0,0:0:0:0:
130,297,59596,6,0,B|175:304|228:280|228:280|261:238|261:238|312:210|361:243,1,255,8|0,0:0|2:0,0:0:0:0:
366,236,59983,6,0,P|321:218|274:223,1,95.6250036478044,0|0,0:0|2:0,0:0:0:0:
345,322,60370,6,0,B|414:332|446:269|446:269|456:266|456:266|449:259|449:259|461:197|404:161,1,255
408,153,60757,6,0,P|443:183|463:225,1,95.6250036478044,2|0,0:2|2:0,0:0:0:0:
512,382,61144,6,0,P|436:322|343:323,1,191.250007295609,8|0,0:0|2:0,0:0:0:0:
272,347,61531,2,0,L|229:359,1,31.8750012159348,0|0,0:0|2:0,0:0:0:0:
213,280,61725,2,0,L|170:268,1,31.8750012159348,0|0,0:0|2:0,0:0:0:0:
7,361,61918,6,0,B|74:316|75:233|75:233|77:104,1,255,2|0,0:3|2:0,0:0:0:0:
136,78,62305,6,0,P|101:55|59:53,1,85,0|0,0:0|2:0,0:0:0:0:
17,180,62499,2,0,P|52:203|93:204,1,85,0|0,0:0|2:0,0:0:0:0:
229,113,62692,6,0,L|233:145,1,25.5,8|0,0:0|2:0,0:0:0:0:
242,211,63079,2,0,L|244:227,1,17,8|8,0:3|2:3,0:0:0:0:
256,310,63466,5,0,2:0:0:0:
256,310,63660,1,0,2:0:0:0:
45,173,63854,6,0,P|108:250|246:206,1,255,2|0,0:3|2:0,0:0:0:0:
292,113,64241,2,0,P|403:67|489:151,1,255,8|0,0:0|2:0,0:0:0:0:
440,258,64628,6,0,L|448:322,2,56.6666666666667,0|0|0,3:0|3:0|3:0,3:0:0:0:
489,151,65015,6,4,B|472:81|400:26|311:74|291:113|291:113|241:211|241:211|213:254|148:278|82:259|52:196,1,595,6|4,0:3|2:0,0:0:0:0:
62,76,65789,6,0,P|65:44|60:12,1,63.7500024318696,8|0,0:0|2:0,0:0:0:0:
62,76,65983,2,0,P|33:89|7:108,1,63.7500024318696,0|0,0:0|2:0,0:0:0:0:
62,76,66176,2,0,P|87:94|117:106,1,63.7500024318696,0|0,0:0|2:0,0:0:0:0:
268,106,66370,6,0,P|293:87|323:75,1,63.7500024318696,0|0,0:0|2:0,0:0:0:0:
268,106,66563,2,0,P|242:124|212:136,1,63.7500024318696,0|0,0:0|2:0,0:0:0:0:
382,228,66757,6,0,P|377:259|366:289,1,63.7500024318696,0|0,0:0|2:0,0:0:0:0:
382,228,66950,2,0,P|386:196|397:166,1,63.7500024318696,0|0,0:0|2:0,0:0:0:0:
163,37,67144,5,2,0:2:0:0:
396,22,67338,6,0,P|314:38|268:107,1,170,8|0,0:0|2:0,0:0:0:0:
382,228,67629,1,0,2:0:0:0:
382,228,67726,2,0,P|340:222|303:202,1,85,0|0,0:0|2:0,0:0:0:0:
463,86,67918,2,0,P|469:127|458:168,1,85,0|0,0:0|2:0,0:0:0:0:
308,324,68112,6,0,B|263:257|180:256|180:256|51:254,1,255,2|0,0:3|2:0,0:0:0:0:
24,197,68499,6,0,P|1:232|0:274,1,85,0|0,0:0|2:0,0:0:0:0:
126,316,68692,2,0,P|148:280|149:238,1,85,0|0,0:0|2:0,0:0:0:0:
20,99,68886,6,0,L|52:95,1,25.5,8|0,0:0|2:0,0:0:0:0:
118,86,69273,2,0,L|150:82,1,25.5,0|0,0:0|2:0,0:0:0:0:
217,72,69660,5,0,2:0:0:0:
217,72,69854,1,0,2:0:0:0:
345,285,70047,6,0,P|320:188|176:170,1,255,2|0,0:3|2:0,0:0:0:0:
129,242,70434,2,0,P|153:338|297:356,1,255,8|0,0:0|2:0,0:0:0:0:
410,370,70821,6,0,L|418:308,2,42.5,0|0|0,2:0|2:0|2:0,2:0:0:0:
345,285,71015,2,0,L|337:223,1,42.5,0|0,2:0|2:0,2:0:0:0:
426,68,71209,6,0,B|384:148|309:160|230:112|230:112|158:64|89:57|32:94|14:147|14:147|18:212|61:243,1,595,2|0,0:3|0:0,0:0:0:0:
203,380,71983,6,0,B|162:332|195:272|195:272|205:269|205:269|204:258|204:258|245:205|213:142,1,255,8|0,0:0|2:0,0:0:0:0:
218,136,72370,6,0,P|236:181|231:228,1,95.6250036478044,0|0,0:0|2:0,0:0:0:0:
133,157,72757,6,0,B|123:87|186:55|186:55|189:45|189:45|196:52|196:52|258:41|294:97,1,255
302,94,73144,6,0,P|272:58|230:38,1,95.6250036478044,2|0,0:2|2:0,0:0:0:0:
51,0,73531,6,0,P|121:66|133:159,1,191.250007295609,8|0,0:0|2:0,0:0:0:0:
120,233,73918,2,0,L|115:277,1,31.8750012159348,0|0,3:0|2:0,0:0:0:0:
194,282,74112,2,0,L|212:322,1,31.8750012159348,0|0,2:0|2:0,2:0:0:0:
267,231,74305,5,2,2:3:0:0:
299,234,74402,1,2,2:2:0:0:
331,237,74499,1,2,2:2:0:0:
363,240,74596,1,2,2:2:0:0:
395,243,74692,2,2,L|437:248,3,31.8750012159348,2|2|2|2,2:3|2:2|2:2|2:2,2:2:0:0:
406,164,75079,5,2,2:3:0:0:
327,157,75176,1,2,2:2:0:0:
248,150,75273,1,2,2:2:0:0:
169,143,75370,1,2,2:2:0:0:
90,136,75467,2,2,L|13:129,3,63.7500024318696,2|2|2|2,2:3|2:2|2:2|2:2,2:2:0:0:
184,223,75854,6,0,L|184:241,1,17,0|0,2:0|2:0,2:0:0:0:
184,239,76821,6,0,L|183:221,1,17,8|0,2:2|2:0,2:0:0:0:
176,244,77015,2,0,L|175:226,1,17,8|0,2:2|2:0,2:0:0:0:
168,248,77209,2,0,L|167:230,1,17,8|0,2:2|2:0,2:0:0:0:
407,197,77402,6,0,B|329:197|329:197|287:197|257:230|257:230|216:263|162:246,1,255,2|0,0:3|2:0,0:0:0:0:
24,79,77789,6,0,B|37:131|37:131|53:132|53:132|41:145|41:145|66:244|66:244|2:247,1,255,4|0,3:3|2:0,0:0:0:0:
5,256,78176,6,0,L|68:251,1,63.7500024318696,8|0,1:0|2:0,2:0:0:0:
169,246,78370,2,0,L|267:239,1,63.7500024318696,0|0,1:0|2:0,2:0:0:0:
209,149,78563,6,0,L|272:145,1,63.7500024318696,0|0,1:0|2:0,2:0:0:0:
373,139,78756,2,0,L|436:135,1,63.7500024318696,0|0,1:0|2:0,2:0:0:0:
365,146,79144,6,0,L|428:142,1,63.7500024318696,0|0,1:0|2:0,2:0:0:0:
395,243,79338,2,0,L|458:239,1,63.7500024318696,2|0,1:3|2:0,2:0:0:0:
428,337,79531,2,0,L|491:333,1,63.7500024318696,0|0,1:0|2:0,2:0:0:0:
160,260,79725,6,0,L|223:256,1,63.7500024318696,8|0,1:0|2:0,2:0:0:0:
150,251,80113,6,0,L|213:247,1,63.7500024318696,0|0,1:0|2:0,2:0:0:0:
141,244,80499,6,0,L|144:180,1,63.7500024318696,2|0,1:3|2:0,2:0:0:0:
148,88,80692,2,0,L|154:-11,1,63.7500024318696,0|0,1:0|2:0,2:0:0:0:
297,383,80886,6,0,L|293:319,1,63.7500024318696,0|0,1:0|2:0,2:0:0:0:
287,219,81079,2,0,L|283:155,1,63.7500024318696,0|0,1:0|2:0,2:0:0:0:
277,8,81273,1,8,0:0:0:0:
283,2,81467,6,0,L|286:66,1,63.7500024318696,0|0,1:0|2:0,2:0:0:0:
293,157,81660,2,0,L|296:220,1,63.7500024318696,0|0,1:0|2:0,2:0:0:0:
303,321,81854,2,0,L|306:385,1,63.7500024318696,2|0,1:3|2:0,2:0:0:0:
461,94,82047,6,0,L|458:31,1,63.7500024318696,0|0,1:0|2:0,2:0:0:0:
452,89,82434,6,0,L|449:26,1,63.7500024318696,2|0,1:3|2:0,2:0:0:0:
461,240,82628,2,0,L|458:177,1,63.7500024318696,0|0,1:0|2:0,2:0:0:0:
470,336,82821,6,0,L|515:325,2,39.8437515199185,8|0|0,1:0|2:0|2:0,2:0:0:0:
329,358,83209,6,0,B|371:338|377:294|377:294|383:284|383:284|376:276|376:276|370:228|328:212,1,191.250007295609,0|0,3:0|3:0,3:0:0:0:
45,287,83596,6,0,B|75:314|170:285|170:285|257:257|292:285,1,255,2|0,0:3|0:0,0:0:0:0:
250,351,83983,6,0,B|194:329|204:249|204:249|210:207|210:207|228:204|228:204|212:193|212:193|219:139,1,255,4|0,3:3|2:0,0:0:0:0:
211,134,84370,6,0,L|201:212,1,63.7500024318696,8|0,0:0|2:0,0:0:0:0:
393,183,84563,2,0,L|400:246,1,63.7500024318696,0|0,0:0|2:0,0:0:0:0:
189,276,84757,6,0,L|179:354,1,63.7500024318696,0|0,0:0|2:0,0:0:0:0:
384,106,84950,2,0,L|375:40,1,63.7500024318696,0|0,0:0|2:0,0:0:0:0:
392,101,85338,6,0,L|383:35,1,63.7500024318696,0|0,0:0|2:0,0:0:0:0:
408,241,85531,2,0,L|400:177,1,63.7500024318696,2|0,0:3|2:0,0:0:0:0:
424,381,85725,2,0,L|416:317,1,63.7500024318696,0|0,0:0|2:0,0:0:0:0:
183,340,85918,6,0,L|190:276,1,63.7500024318696,8|0,0:0|2:0,0:0:0:0:
175,343,86305,6,0,L|182:279,1,63.7500024318696,0|0,0:0|2:0,0:0:0:0:
163,349,86692,6,0,L|227:346,1,63.7500024318696,2|0,1:3|2:0,2:0:0:0:
319,342,86886,2,0,L|418:336,1,63.7500024318696,0|0,1:0|2:0,2:0:0:0:
35,199,87079,6,0,L|99:203,1,63.7500024318696,0|0,1:0|2:0,2:0:0:0:
199,209,87273,2,0,L|263:213,1,63.7500024318696,0|0,1:0|2:0,2:0:0:0:
411,221,87466,1,8,0:0:0:0:
416,213,87660,6,0,L|352:210,1,63.7500024318696,0|0,1:0|2:0,2:0:0:0:
261,203,87853,2,0,L|198:200,1,63.7500024318696,0|0,1:0|2:0,2:0:0:0:
97,193,88047,2,0,L|33:190,1,63.7500024318696,2|0,1:3|2:0,2:0:0:0:
163,349,88241,6,0,L|160:286,1,63.7500024318696,0|0,1:0|2:0,2:0:0:0:
171,356,88628,6,0,L|168:293,1,63.7500024318696,2|0,1:3|2:0,2:0:0:0:
157,107,88821,2,0,L|160:170,1,63.7500024318696,0|0,1:0|2:0,2:0:0:0:
261,203,89015,6,0,P|255:233|246:267,1,63.7500024318696,8|0,3:2|2:0,2:0:0:0:
278,123,89208,2,0,P|283:89|291:61,1,63.7500024318696,0|0,3:0|2:0,2:0:0:0:
326,289,89402,6,0,P|309:315|297:345,1,63.7500024318696,8|0,3:2|2:0,2:0:0:0:
375,178,89595,2,0,P|395:146|403:121,1,63.7500024318696,2|0,3:2|2:0,2:0:0:0:
10,312,89789,6,0,B|47:255|136:259|136:259|259:265,1,255,2|0,0:3|2:0,0:0:0:0:
247,264,90176,1,0,2:0:0:0:
251,268,90563,6,0,P|243:231|252:177,1,85,8|0,0:0|2:0,0:0:0:0:
337,121,90757,2,0,P|373:132|415:167,1,85,0|0,0:0|2:0,0:0:0:0:
421,268,90950,2,0,P|392:293|341:312,1,85,0|0,0:0|2:0,0:0:0:0:
177,141,91144,6,0,P|216:156|248:184,1,85,0|0,0:0|2:0,0:0:0:0:
183,131,91531,6,0,P|222:146|254:174,1,85,0|0,0:0|2:0,0:0:0:0:
82,257,91725,2,0,P|75:215|83:173,1,85,2|0,0:3|2:0,0:0:0:0:
243,281,91919,2,0,P|209:307|169:321,1,85,0|0,0:0|2:0,0:0:0:0:
10,133,92112,6,0,P|50:146|83:173,1,85,8|0,0:0|2:0,0:0:0:0:
15,126,92499,6,0,P|55:139|88:166,1,85,0|0,0:0|2:0,0:0:0:0:
22,118,92886,6,0,P|51:21|171:10,1,226.666666666667,2|0,0:3|2:3,0:0:0:0:
254,129,93273,5,0,3:0:0:0:
347,168,93402,5,0,3:0:0:0:
428,107,93531,5,0,3:0:0:0:
360,268,93660,5,8,1:0:0:0:
367,274,94047,6,0,P|327:288|285:287,1,85,0|0,0:0|2:0,0:0:0:0:
361,86,94241,2,0,P|393:113|414:151,1,85,2|0,0:3|2:0,0:0:0:0:
200,185,94434,2,0,P|207:143|229:105,1,85,0|0,0:0|2:0,0:0:0:0:
208,188,94821,6,8,P|216:146|238:109,1,85,2|8,0:3|2:0,0:0:0:0:
99,184,95015,2,8,P|94:141|76:102,1,85,0|8,0:0|2:0,0:0:0:0:
237,109,95209,2,8,P|272:85|314:75,1,85,8|8,0:0|2:0,0:0:0:0:
77,104,95402,2,8,P|44:76|3:62,1,85,0|8,0:0|2:0,0:0:0:0:
161,56,95596,6,0,L|162:-15,2,56.6666666666667,0|0|0,3:0|3:0|3:0,3:0:0:0:
96,289,95983,6,0,B|150:282|150:282|153:266|153:266|164:280|164:280|265:267|265:267|251:349,1,255,2|0,0:3|2:0,0:0:0:0:
62,365,96371,6,0,P|28:339|13:300,1,85,0|0,3:0|2:0,0:0:0:0:
31,202,96563,1,2,0:2:0:0:
265,267,96757,6,0,P|273:230|265:175,1,85,8|0,0:0|2:0,0:0:0:0:
180,117,96951,2,0,P|143:127|101:161,1,85,0|0,0:0|2:0,0:0:0:0:
94,263,97144,2,0,P|122:288|173:308,1,85,2|0,0:3|2:0,0:0:0:0:
351,82,97338,6,8,P|309:85|271:104,1,85,0|8,0:0|2:0,0:0:0:0:
173,216,97531,1,2,0:2:0:0:
164,224,97725,6,0,P|206:223|245:208,1,85,0|0,0:0|2:0,0:0:0:0:
112,71,97919,2,0,P|91:108|84:151,1,85,0|0,0:0|2:0,0:0:0:0:
271,104,98113,2,0,P|248:68|215:41,1,85,2|0,0:3|2:0,0:0:0:0:
3,163,98306,6,0,P|45:165|85:151,1,85,8|0,0:0|2:0,0:0:0:0:
5,171,98692,6,0,P|47:173|87:159,1,85,2|0,0:2|2:0,0:0:0:0:
97,328,99079,6,0,L|100:307,1,21.25,2|0,0:2|2:0,0:0:0:0:
229,327,99273,2,0,L|224:294,1,31.8750012159348,2|0,0:2|2:0,0:0:0:0:
88,333,99467,6,0,L|94:291,1,42.5,2|0,0:2|2:0,0:0:0:0:
238,330,99661,2,0,L|227:268,1,53.125,2|0,0:2|2:0,0:0:0:0:
42,130,99854,6,0,L|32:68,1,63.7500024318696,10|0,0:2|2:0,0:0:0:0:
295,95,100048,2,2,L|282:168,1,74.3750007092953,2|2,0:2|2:2,0:2:0:0:
37,146,100241,6,0,L|24:63,1,85,0|0,0:0|2:0,0:0:0:0:
304,81,100435,2,0,L|289:176,1,95.6250036478044,0|0,0:0|2:0,0:0:0:0:
40,333,100628,6,0,L|144:315,1,106.25,2|0,0:3|2:0,0:0:0:0:
404,195,100821,2,0,L|288:175,1,116.875001114607,2|0,0:3|2:0,0:0:0:0:
31,342,101015,6,0,L|156:321,1,127.500004863739,2|0,0:3|2:0,0:0:0:0:
419,191,101209,2,0,L|229:159,1,138.125003951788,2|0,0:3|2:0,0:0:0:0:
141,147,101402,6,0,B|109:187|132:248|132:248|114:250|114:250|137:300|103:353|103:353|123:323|164:319,1,297.5,10|0,2:2|2:0,2:0:0:0:
238,330,102176,1,6,0:3:0:0:
114,306,114563,6,0,P|151:272|201:261,1,101.999996887207,2|0,3:2|0:0,0:0:0:0:
285,285,115144,1,2,3:2:0:0:
308,369,115338,2,0,L|364:361,1,50.9999984436036,0|0,2:0|2:0,2:0:0:0:
408,303,115725,2,0,L|464:311,2,50.9999984436036,2|0|0,3:2|2:0|2:0,2:0:0:0:
285,285,116305,6,0,L|277:229,1,50.9999984436036,2|0,3:2|2:0,2:0:0:0:
265,158,116692,1,0,0:0:0:0:
179,239,116886,2,0,L|187:183,1,50.9999984436036,2|0,3:2|2:0,2:0:0:0:
199,112,117273,1,0,0:0:0:0:
119,138,117467,1,2,3:2:0:0:
352,114,117660,6,0,P|314:147|264:158,1,101.999996887207,2|0,3:2|0:0,0:0:0:0:
181,135,118241,1,2,3:2:0:0:
158,51,118435,2,0,L|102:59,1,50.9999984436036,0|0,2:0|2:0,2:0:0:0:
58,117,118821,2,0,L|2:109,2,50.9999984436036,2|0|0,3:2|2:0|2:0,2:0:0:0:
181,135,119402,6,0,L|189:191,1,50.9999984436036,2|0,3:2|2:0,2:0:0:0:
201,262,119789,1,0,0:0:0:0:
287,181,119983,2,0,L|279:237,1,50.9999984436036,2|0,3:2|2:0,2:0:0:0:
267,308,120370,1,0,0:0:0:0:
377,70,120757,6,0,P|379:44|376:19,2,50.9999984436036,2|0|0,3:2|2:0|0:2,0:0:0:0:
306,112,121338,2,0,P|303:137|306:162,1,50.9999984436036,2|0,3:2|2:0,0:0:0:0:
359,224,121725,1,0,0:0:0:0:
409,287,121918,2,0,P|412:312|409:337,2,50.9999984436036,2|0|0,3:2|2:0|0:0,0:0:0:0:
359,224,122499,5,2,3:2:0:0:
279,240,122693,1,0,0:0:0:0:
199,256,122886,1,0,0:0:0:0:
225,179,123079,6,0,P|214:155|198:135,1,50.9999984436036,2|0,3:2|2:0,0:0:0:0:
118,120,123467,1,0,0:0:0:0:
171,58,123660,1,0,0:0:0:0:
127,247,123854,6,0,L|123:196,1,50.9999984436036,2|0,3:2|0:0,0:0:0:0:
118,120,124241,1,0,0:0:0:0:
216,306,124434,2,0,L|219:255,1,50.9999984436036,2|0,3:2|0:0,0:0:0:0:
225,179,124821,1,0,0:0:0:0:
294,365,125015,1,2,3:2:0:0:
294,365,125596,6,0,P|331:331|381:320,1,101.999996887207,2|0,3:2|0:0,0:0:0:0:
462,323,126176,2,0,L|521:325,2,50.9999984436036,2|0|0,3:2|0:0|2:0,0:0:0:0:
271,212,126950,5,2,3:2:0:0:
271,212,127531,5,2,3:2:0:0:
303,289,127725,2,0,P|295:319|278:346,1,63.7500024318696
142,342,128112,2,0,P|169:358|199:366,2,63.7500024318696,2|0|0,3:2|0:0|0:0,0:0:0:0:
93,222,128692,6,0,P|62:229|35:246,1,63.7500024318696,2|0,3:2|0:0,0:0:0:0:
15,323,129079,1,0,0:0:0:0:
85,366,129273,2,0,P|115:358|142:341,2,63.7500024318696,2|0|0,3:2|0:0|0:0,0:0:0:0:
15,323,129854,1,2,3:2:0:0:
227,357,130047,5,2,3:2:0:0:
227,357,130628,5,2,3:2:0:0:
195,280,130822,2,0,P|202:249|219:222,1,63.7500024318696
356,227,131209,2,0,P|328:210|298:202,2,63.7500024318696,2|0|0,3:2|0:0|0:0,0:0:0:0:
405,347,131789,6,0,P|435:339|462:322,1,63.7500024318696,2|0,3:2|0:0,0:0:0:0:
483,246,132176,1,0,0:0:0:0:
413,203,132370,2,0,B|373:188|329:219|329:219|286:255|230:229,1,191.250007295609,2|0,3:2|0:0,0:0:0:0:
176,179,133144,5,2,3:2:0:0:
187,167,133531,5,0,0:0:0:0:
95,214,133725,1,2,3:2:0:0:
233,231,133918,2,0,L|248:316,1,63.7500024318696,2|0,0:2|2:0,0:0:0:0:
95,214,134305,2,0,L|81:297,2,63.7500024318696,2|0|0,3:2|2:0|0:0,0:0:0:0:
242,131,134886,6,0,L|230:68,2,63.7500024318696,2|0|0,3:2|2:0|0:0,0:0:0:0:
259,205,135467,2,0,P|274:232|298:253,1,63.7500024318696,2|0,3:2|0:0,0:0:0:0:
372,274,135854,1,0,0:0:0:0:
321,330,136047,1,0,0:0:0:0:
419,215,136241,5,2,3:2:0:0:
409,206,136628,5,0,0:0:0:0:
512,228,136822,1,2,3:2:0:0:
466,133,137015,2,0,P|429:160|408:205,1,95.6250036478044,2|2,0:2|2:2,0:0:0:0:
419,215,137402,1,2,3:2:0:0:
372,274,137596,2,0,L|287:276,1,63.7500024318696,2|0,0:2|0:0,0:0:0:0:
226,280,137983,6,0,L|237:342,2,63.7500024318696,2|0|0,3:2|2:0|0:0,0:0:0:0:
268,209,138563,2,0,L|256:146,1,63.7500024318696,2|0,3:2|2:0,0:0:0:0:
486,236,139338,6,0,P|445:223|390:233,1,85,2|0,3:2|0:0,0:0:0:0:
324,379,139725,2,0,P|355:349|374:297,1,85,2|0,3:2|0:0,0:0:0:0:
281,167,140112,2,0,P|290:209|326:251,1,85,2|0,3:2|0:0,0:0:0:0:
414,307,140499,6,2,L|372:312,1,42.5,2|0,3:2|3:2,3:2:0:0:
274,324,140692,2,2,L|225:329,1,42.5,2|0,3:2|3:2,3:2:0:0:
132,340,140886,6,0,P|155:302|153:254,1,85,2|0,3:2|0:0,0:0:0:0:
28,151,141273,2,0,P|49:189|91:212,1,85,2|0,3:2|0:0,0:0:0:0:
243,155,141660,2,0,P|198:154|158:179,1,85,2|0,3:2|0:0,0:0:0:0:
132,340,142047,1,2,3:2:0:0:
60,293,142241,1,2,3:2:0:0:
249,255,142434,6,0,L|361:251,1,85,2|0,3:3|2:0,3:0:0:0:
512,253,142821,1,2,3:2:0:0:
427,256,143015,1,2,2:2:0:0:
344,261,143209,2,0,L|259:264,1,85,2|0,3:2|2:0,3:0:0:0:
216,336,143596,2,0,L|131:339,1,85,2|0,3:2|2:0,3:0:0:0:
238,245,143983,6,0,L|350:241,1,85,2|0,3:3|2:0,3:0:0:0:
501,243,144370,1,2,3:2:0:0:
416,246,144564,1,2,2:2:0:0:
333,251,144758,2,0,L|248:254,1,85,2|0,3:2|2:0,3:0:0:0:
205,326,145145,2,0,L|120:329,1,85,2|0,3:2|2:0,3:0:0:0:
35,333,145531,5,2,3:2:0:0:
80,238,145725,1,2,0:2:0:0:
205,326,145918,5,2,3:2:0:0:
205,220,146112,1,2,0:2:0:0:
356,247,146305,5,2,3:2:0:0:
311,151,146499,1,2,0:2:0:0:
459,111,146692,5,2,3:2:0:0:
378,43,146886,1,2,0:2:0:0:
459,111,147079,6,0,P|486:114|508:110,1,42.5,2|0,3:2|2:2,0:2:0:0:
377,43,147273,2,0,P|349:39|327:43,1,42.5,2|0,0:2|2:2,0:2:0:0:
356,247,147467,6,0,P|379:261|401:267,1,42.5,2|0,3:2|2:2,0:2:0:0:
311,151,147660,2,0,P|287:136|265:130,1,42.5,2|0,0:2|2:2,0:2:0:0:
205,326,147854,6,0,P|220:349|237:363,1,42.5,2|0,3:2|2:2,0:2:0:0:
204,219,148047,2,0,P|188:195|171:181,1,42.5,2|0,0:2|2:2,0:2:0:0:
35,333,148241,6,0,P|38:360|48:380,1,42.5,2|0,3:2|2:2,0:2:0:0:
80,238,148434,2,0,P|76:210|66:190,1,42.5,2|0,0:2|2:2,0:2:0:0:
205,326,148628,5,2,0:2:0:0:
238,331,148725,1,2,0:2:0:0:
271,329,148821,1,2,0:2:0:0:
303,317,148918,1,2,0:2:0:0:
331,302,149015,1,2,0:2:0:0:
356,278,149112,1,2,0:2:0:0:
373,248,149209,2,0,L|394:197,1,42.5,2|0,3:3|0:0,0:0:0:0:
431,45,149402,5,2,0:2:0:0:
410,71,149499,1,2,0:2:0:0:
395,100,149595,1,2,0:2:0:0:
389,134,149692,1,2,0:2:0:0:
388,166,149789,2,0,L|388:214,1,42.5,2|0,3:3|2:0,0:0:0:0:
496,344,149983,5,2,0:3:0:0:
398,354,150080,1,2,0:3:0:0:
301,360,150176,1,2,0:3:0:0:
301,360,150950,6,0,P|257:332|295:267,1,127.5,0|0,0:0|2:0,0:0:0:0:
280,271,151337,2,0,P|324:299|286:364,1,127.5,0|0,0:0|2:0,0:0:0:0:
51,357,151725,6,0,B|134:368|214:325|236:164|125:91|1:133|-32:200|-32:200|10:261|69:250,1,595,6|0,0:3|2:0,0:0:0:0:
328,217,152499,6,0,L|265:224,1,63.7500024318696,8|0,0:1|2:3,0:3:0:0:
268,234,152693,2,0,L|331:227,1,63.7500024318696,0|0,0:3|2:3,0:3:0:0:
335,237,152886,2,0,L|272:244,1,63.7500024318696,0|0,0:3|2:3,0:3:0:0:
196,138,153080,6,0,L|260:141,1,63.7500024318696,0|0,0:0|2:0,0:0:0:0:
262,131,153273,2,0,L|199:127,1,63.7500024318696,0|0,0:0|2:0,0:0:0:0:
193,339,153467,6,0,L|256:332,1,63.7500024318696,0|0,0:0|2:0,0:0:0:0:
259,343,153660,2,0,L|196:350,1,63.7500024318696,0|0,0:0|2:0,0:0:0:0:
42,180,153854,5,2,0:3:0:0:
158,191,154047,6,0,P|102:163|42:180,1,127.500004863739,8|0,0:1|2:3,0:3:0:0:
12,258,154338,1,0,2:0:0:0:
11,257,154435,2,8,P|20:287|39:312,1,63.7500024318696,0|8,0:0|2:0,0:0:0:0:
138,319,154628,2,8,P|174:270|168:208,1,63.7500024318696,0|8,2:0|2:0,0:0:0:0:
327,36,154821,6,0,B|260:81|259:164|259:164|257:293,1,255,2|0,0:3|2:0,0:0:0:0:
200,319,155209,6,0,P|235:342|277:344,1,85,0|0,0:0|2:0,0:0:0:0:
319,217,155402,2,0,P|284:194|243:193,1,85,0|0,0:0|2:0,0:0:0:0:
146,221,155596,6,0,L|150:189,1,25.5,8|0,0:0|2:0,0:0:0:0:
159,123,155983,2,0,L|163:91,1,25.5,0|0,0:0|2:0,0:0:0:0:
173,24,156370,5,0,2:0:0:0:
173,24,156564,1,0,2:0:0:0:
134,221,156757,6,0,P|211:158|167:20,1,255,2|0,0:3|2:0,0:0:0:0:
82,8,157144,2,0,P|5:71|49:209,1,255,8|0,0:0|2:0,0:0:0:0:
74,305,157531,6,0,L|77:280,1,25.5,2|0,0:2|2:3,0:0:0:0:
107,114,157918,6,0,B|177:176|306:184|420:136|455:37|455:37|353:-9|272:66,1,595,2|0,0:3|2:0,0:0:0:0:
241,275,158692,6,0,B|262:223|229:185|229:185|171:174|171:174|124:209|133:262,1,255,8|0,0:1|2:3,0:3:0:0:
124,268,159080,6,0,P|126:219|151:179,1,95.6250036478044,0|0,0:3|2:3,0:3:0:0:
193,329,159467,6,0,B|146:381|81:353|81:353|71:357|71:357|72:347|72:347|23:307|44:243,1,255,0|0,3:0|3:0,3:0:0:0:
36,240,159854,6,0,P|28:285|40:330,1,95.6250036478044,2|0,3:2|3:0,3:0:0:0:
329,384,160241,6,8,P|269:308|270:214,1,191.250007295609,8|8,0:0|2:0,0:0:0:0:
292,141,160628,2,0,L|304:98,1,31.8750012159348,0|0,0:0|2:0,0:0:0:0:
219,104,160822,2,0,L|207:61,1,31.8750012159348,0|0,0:0|2:0,0:0:0:0:
9,270,161015,6,0,B|54:203|137:202|137:202|266:200,1,255,2|0,0:3|2:0,0:0:0:0:
292,141,161402,6,0,P|315:176|317:218,1,85,0|0,0:0|2:0,0:0:0:0:
190,260,161596,2,0,P|167:225|166:184,1,85,0|0,0:0|2:0,0:0:0:0:
308,60,161789,6,0,L|276:64,1,25.5,8|0,0:0|2:0,0:0:0:0:
210,73,162176,2,8,L|194:75,1,17,8|8,0:3|2:3,0:0:0:0:
111,87,162563,5,8,2:0:0:0:
111,87,162757,1,8,2:0:0:0:
434,65,162951,6,0,P|320:16|209:72,1,255,2|0,0:3|2:0,0:0:0:0:
177,167,163338,2,0,P|233:277|353:305,1,255,8|0,0:1|2:3,0:3:0:0:
453,201,163725,6,8,L|517:193,2,56.6666666666667,8|8|8,3:0|3:0|3:0,3:0:0:0:
350,320,164112,6,0,P|229:291|440:61,1,595,2|0,0:3|2:3,0:3:0:0:
452,201,164886,6,0,P|455:169|431:177,1,63.7500024318696,8|0,0:0|2:0,0:0:0:0:
452,201,165079,2,0,P|478:219|483:194,1,63.7500024318696,0|0,0:0|2:0,0:0:0:0:
452,201,165273,2,0,P|422:214|441:231,1,63.7500024318696,0|0,0:3|2:3,0:3:0:0:
350,119,165467,6,0,P|330:93|355:87,1,63.7500024318696,0|0,0:0|2:0,0:0:0:0:
349,118,165660,2,0,P|368:143|343:149,1,63.7500024318696,0|0,0:0|2:0,0:0:0:0:
251,250,165854,6,0,P|276:230|282:255,1,63.7500024318696,0|0,0:0|2:0,0:0:0:0:
251,249,166047,2,0,P|225:268|219:243,1,63.7500024318696,0|0,0:0|2:0,0:0:0:0:
253,149,166241,5,2,0:2:0:0:
204,349,166434,6,0,P|287:347|344:287,1,170,8|0,0:0|2:0,0:0:0:0:
253,149,166725,1,0,2:0:0:0:
253,149,166822,2,0,P|293:161|326:188,1,85,0|0,0:0|2:0,0:0:0:0:
147,274,167014,2,0,P|148:231|165:193,1,85,0|0,0:0|2:0,0:0:0:0:
308,0,167209,6,0,B|263:67|180:68|180:68|51:70,1,255,2|0,0:3|2:0,0:0:0:0:
25,128,167596,6,0,P|2:92|0:50,1,85,0|0,0:0|2:0,0:0:0:0:
127,15,167789,2,0,P|149:50|150:92,1,85,0|0,0:0|2:0,0:0:0:0:
107,171,167983,6,0,L|139:175,1,25.5,8|0,0:0|2:0,0:0:0:0:
205,184,168370,2,0,L|237:188,1,25.5,0|0,0:0|2:0,0:0:0:0:
304,198,168757,5,0,2:0:0:0:
304,198,168951,1,0,2:0:0:0:
129,299,169144,6,0,P|164:205|309:202,1,255,2|0,0:3|2:0,0:0:0:0:
349,278,169531,2,0,P|315:370|170:373,1,255,8|0,0:0|2:0,0:0:0:0:
76,383,169918,6,0,L|65:327,2,42.5,0|0|0,2:0|2:0|2:0,2:0:0:0:
129,299,170112,2,0,L|140:243,1,42.5,0|0,2:0|2:0,2:0:0:0:
53,123,170306,6,0,B|112:219|253:210|307:140|307:25|253:-43|150:-85|66:-25|74:81|118:108|169:101,1,595,2|0,0:3|2:0,0:0:0:0:
459,58,171079,6,0,B|390:62|351:102|351:102|341:102|341:102|343:113|343:113|310:163|324:222,1,255,8|0,0:0|2:0,0:0:0:0:
315,227,171467,6,0,P|309:177|321:129,1,95.6250036478044,0|0,0:0|2:0,0:0:0:0:
394,186,171854,6,0,B|420:251|367:297|367:297|366:308|366:308|358:303|358:303|300:328|252:283,1,255,0|0,0:3|0:3,0:3:0:0:
245,288,172241,6,0,P|282:315|328:324,1,95.6250036478044,2|0,0:3|2:3,0:3:0:0:
476,342,172628,6,8,P|406:276|394:183,1,191.250007295609,8|0,0:0|2:0,0:0:0:0:
407,109,173015,2,0,L|412:65,1,31.8750012159348,0|0,3:0|2:0,0:0:0:0:
333,60,173209,2,0,L|315:20,1,31.8750012159348,0|0,2:0|2:0,2:0:0:0:
271,131,173402,5,2,2:3:0:0:
239,128,173499,1,2,2:2:0:0:
207,125,173596,1,2,2:2:0:0:
175,122,173693,1,2,2:2:0:0:
143,119,173789,2,2,L|101:114,3,31.8750012159348,2|2|2|2,2:3|2:2|2:2|2:2,2:2:0:0:
42,187,174176,5,2,2:3:0:0:
120,194,174273,1,2,2:2:0:0:
200,201,174370,1,2,2:2:0:0:
279,208,174467,1,2,2:2:0:0:
358,215,174564,2,2,L|435:222,3,63.7500024318696,2|2|2|2,2:3|2:2|2:2|2:2,2:2:0:0:
274,285,174950,6,0,L|274:299,1,12.75,2|0,2:2|2:0,2:0:0:0:
273,370,175338,5,0,2:0:0:0:
199,376,175531,1,0,2:0:0:0:
348,363,175725,1,0,2:0:0:0:
279,208,175918,5,8,2:0:0:0:
354,214,176112,2,8,L|378:216,2,15.9375006079674,8|8|8,2:0|2:0|2:0,2:0:0:0:
205,201,176305,2,8,L|181:199,2,15.9375006079674,8|8|8,2:0|2:0|2:0,2:0:0:0:
480,67,176499,6,0,B|476:161|476:161|471:219|399:249|353:213,1,255,6|0,0:3|2:0,0:0:0:0:
243,135,176886,6,0,B|318:111|318:111|329:125|329:125|331:107|331:107|402:84|402:84|400:151,1,255,0|0,3:3|2:0,0:0:0:0:
394,310,177273,6,0,L|398:226,1,85,8|0,0:0|2:0,0:0:0:0:
466,349,177660,6,0,P|467:267|397:225,1,170,0|0,0:0|2:0,0:0:0:0:
477,346,178047,6,0,P|475:265|406:220,1,170,0|0,0:0|2:0,0:0:0:0:
168,270,178434,6,0,P|170:227|190:190,1,85,2|0,0:3|2:0,0:0:0:0:
182,189,178628,2,0,P|163:226|161:268,1,85,0|0,0:0|2:0,0:0:0:0:
324,295,178821,6,0,P|329:213|261:168,1,170,8|0,0:1|2:0,0:0:0:0:
81,60,179209,6,0,P|113:87|154:98,1,85,0|0,0:0|2:0,0:0:0:0:
234,78,179402,1,0,0:0:0:0:
112,315,179596,6,0,P|114:233|183:188,1,170,2|0,0:3|2:0,0:0:0:0:
456,261,179983,6,0,P|454:218|434:181,1,85,0|0,0:0|2:0,0:0:0:0:
442,180,180177,2,0,P|461:217|463:259,1,85,0|0,0:0|2:0,0:0:0:0:
264,356,180370,6,0,L|154:350,1,85,8|0,0:0|2:0,0:0:0:0:
368,239,180563,2,0,L|258:245,1,85,0|0,0:0|2:0,0:0:0:0:
458,361,180757,2,0,L|348:355,1,85,0|0,0:0|2:0,0:0:0:0:
271,349,180950,1,2,0:3:0:0:
439,112,181144,6,0,P|438:193|369:238,1,170,0|0,0:0|2:0,0:0:0:0:
154,89,181531,6,0,P|194:72|236:75,1,85,2|0,0:3|2:0,0:0:0:0:
234,67,181725,2,0,P|193:65|154:81,1,85,0|0,0:0|2:0,0:0:0:0:
96,233,181918,6,0,L|95:287,2,39.6666654561361,8|0|0,3:1|3:0|3:0,3:0:0:0:
22,204,182306,6,0,B|42:162|86:156|86:156|96:150|96:150|107:156|107:156|152:163|168:205,1,191.250007295609,0|0,3:0|2:0,3:0:0:0:
194,376,182692,6,0,B|156:318|216:273|216:273|273:225|232:151,1,255,2|0,0:3|0:0,0:0:0:0:
112,58,183079,6,0,B|165:61|165:61|173:79|173:79|180:62|180:62|222:64|222:64|302:69|313:128,1,255,0|0,3:3|2:0,0:0:0:0:
328,230,183467,6,0,L|333:272,1,42.5,8|0,3:1|2:0,0:0:0:0:
266,40,183660,2,0,L|288:3,1,42.5,0|0,3:0|2:0,0:0:0:0:
366,113,183854,2,0,L|408:121,1,42.5,0|0,3:0|2:0,0:0:0:0:
167,114,184047,2,0,L|139:81,1,42.5,0|0,3:0|2:0,0:0:0:0:
205,230,184241,6,0,L|35:212,1,170,0|0,3:0|2:0,0:0:0:0:
336,314,184628,6,0,L|329:226,1,85,2|0,0:3|2:0,0:0:0:0:
339,224,184821,2,0,L|347:308,1,85,0|0,3:0|2:0,0:0:0:0:
469,341,185015,6,0,L|456:169,1,170,8|0,0:0|2:0,0:0:0:0:
445,176,185402,6,0,L|453:263,1,85,0|0,0:0|2:0,0:0:0:0:
442,266,185596,2,0,L|435:181,1,85,0|0,3:0|2:0,0:0:0:0:
343,25,185789,6,0,B|379:40|391:74|391:74|388:106|345:135|345:135|303:123,1,170,2|0,0:3|2:0,0:0:0:0:
163,34,186176,6,0,L|171:121,1,85,0|0,0:0|2:0,0:0:0:0:
160,124,186369,2,0,L|153:39,1,85,0|0,3:0|2:0,0:0:0:0:
167,210,186563,1,8,0:0:0:0:
61,217,186757,6,0,P|113:207|166:209,1,106.25,0|0,3:0|2:0,0:0:0:0:
332,298,186950,2,0,P|294:260|249:232,2,106.25,0|0|2,3:0|2:0|0:2,0:0:0:0:
393,16,187338,6,0,P|326:83|503:165,1,318.75,0|0,0:0|2:0,0:0:0:0:
512,86,187725,2,0,P|467:81|410:119,1,106.25,2|0,3:0|2:0,0:0:0:0:
332,298,187918,2,0,L|227:284,1,106.25,2|0,3:0|3:0,3:0:0:0:
37,242,188112,6,0,P|47:227|53:208,1,31.8750012159348,8|0,0:2|2:0,0:0:0:0:
207,207,188305,2,0,P|197:192|191:173,1,31.8750012159348,2|0,0:2|2:0,0:0:0:0:
9,72,188499,6,0,P|19:102|36:128,1,63.7500024318696,8|0,0:2|2:0,0:0:0:0:
225,40,188692,2,0,P|216:70|199:96,1,63.7500024318696,2|0,0:2|2:0,0:0:0:0:
18,364,188886,6,0,B|38:308|107:306|107:306|159:306|159:306|226:307|257:334,1,255,2|0,3:3|2:0,3:0:0:0:
245,328,189273,1,0,0:0:0:0:
244,362,189660,6,0,P|243:346|249:332,1,31.8750012159348,8|0,3:2|3:0,3:0:0:0:
355,276,189854,2,0,P|337:285|316:286,1,42.5,0|0,3:0|3:0,3:0:0:0:
438,242,190047,2,0,P|422:215|395:198,1,63.7500024318696,0|0,3:0|3:0,3:0:0:0:
201,165,190241,6,0,L|286:168,1,85,0|0,3:0|3:0,3:0:0:0:
308,158,190434,2,0,L|181:152,1,127.500004863739,0|0,2:0|3:0,3:0:0:0:
383,97,190821,6,0,P|386:53|369:12,1,85,2|0,3:3|2:0,3:0:0:0:
378,15,191015,2,0,P|394:54|391:96,1,85,0|0,3:0|0:0,0:0:0:0:
355,276,191209,5,8,0:0:0:0:
277,283,191305,1,0,0:0:0:0:
198,290,191402,1,0,3:0:0:0:
432,263,191596,6,0,P|364:355|277:283,1,255
235,146,191983,2,0,B|270:92|270:92|273:199,1,170,2|0,3:3|2:0,0:0:0:0:
60,205,192370,6,0,P|104:202|145:219,1,85,0|0,3:0|2:0,3:0:0:0:
198,290,192563,1,0,0:0:0:0:
319,151,192757,6,0,L|209:145,1,85,8|0,0:0|2:0,0:0:0:0:
422,34,192950,2,0,L|312:40,1,85,0|0,0:0|2:0,0:0:0:0:
512,156,193144,2,0,L|402:150,1,85,0|0,0:0|2:0,0:0:0:0:
318,144,193337,1,2,0:3:0:0:
214,370,193531,6,0,P|217:327|199:289,1,85,0|0,3:0|2:0,3:0:0:0:
127,236,193725,1,0,0:0:0:0:
337,382,193918,6,0,P|345:340|370:307,1,85,0|0,3:0|2:0,3:0:0:0:
453,271,194112,1,0,0:0:0:0:
289,251,194305,1,8,0:0:0:0:
416,64,194499,6,0,L|374:56,2,42.5,0|0|0,2:0|2:0|2:0,2:0:0:0:
318,144,194692,2,0,L|394:138,2,56.6666666666667,0|0|0,3:0|3:0|3:0,3:0:0:0:
100,245,195079,6,0,B|154:252|154:252|157:268|157:268|168:254|168:254|269:267|269:267|255:185,1,255,2|0,0:3|2:0,0:0:0:0:
31,91,195467,6,0,P|65:117|86:153,1,85,0|0,3:0|2:0,0:0:0:0:
105,239,195659,1,2,0:2:0:0:
488,145,195854,6,0,P|487:168|481:190,1,42.5,8|0,0:0|2:0,0:0:0:0:
296,78,196047,2,0,P|311:59|329:45,1,42.5,0|0,3:0|2:0,0:0:0:0:
413,243,196241,2,0,P|391:249|369:250,1,42.5,0|0,3:0|2:0,0:0:0:0:
416,42,196434,2,0,P|438:50|457:62,1,42.5,0|0,3:0|2:0,0:0:0:0:
294,203,196628,6,0,P|211:187|127:194,1,170,2|0,3:3|2:0,0:0:0:0:
33,325,197015,6,0,P|32:282|42:241,1,85,0|0,0:0|2:0,0:0:0:0:
34,241,197209,2,0,P|25:282|26:324,1,85,0|0,3:0|2:0,0:0:0:0:
119,362,197402,6,0,P|134:281|127:194,1,170,8|0,0:0|2:0,0:0:0:0:
57,75,197789,6,0,P|99:77|139:63,1,85,2|0,0:2|2:0,0:0:0:0:
298,1,197983,2,0,P|256:-1|216:13,1,85,2|0,3:2|2:0,0:0:0:0:
156,314,198176,6,0,L|188:309,1,21.25,2|0,0:2|2:0,0:0:0:0:
157,188,198370,2,0,L|189:192,1,31.8750012159348,2|0,0:2|2:0,0:0:0:0:
152,322,198564,6,0,L|201:315,1,42.5,2|0,0:2|2:0,0:0:0:0:
155,180,198758,2,0,L|214:190,1,53.125,2|0,0:2|2:0,0:0:0:0:
344,366,198950,6,0,L|407:376,1,63.7500024318696,10|0,0:2|2:0,0:0:0:0:
378,124,199145,2,2,L|292:139,1,74.3750007092953,2|0,0:2|2:2,0:2:0:0:
329,370,199338,6,0,L|413:383,1,85,0|0,0:0|2:0,0:0:0:0:
391,117,199532,2,0,L|237:141,1,95.6250036478044,0|0,0:0|2:0,0:0:0:0:
152,368,199725,6,0,L|171:259,1,106.25,2|0,0:3|2:0,0:0:0:0:
283,22,199918,2,0,L|305:145,1,116.875001114607,2|0,0:3|2:0,0:0:0:0:
143,376,200112,6,0,L|165:245,1,127.500004863739,2|0,0:3|2:0,0:0:0:0:
287,8,200306,2,0,L|316:179,1,138.125003951788,2|0,0:3|2:0,0:0:0:0:
357,276,200499,6,0,B|318:307|257:284|257:284|255:302|255:302|205:279|153:313|153:313|149:276|170:239,1,297.5,10|0,2:2|2:0,2:0:0:0:
230,191,201273,1,6,0:3:0:0:
