osu file format v14

[General]
AudioFilename: audio.mp3
AudioLeadIn: 0
PreviewTime: -1
Countdown: 1
SampleSet: None
StackLeniency: 0.7
Mode: 0
LetterboxInBreaks: 0
WidescreenStoryboard: 0

[Editor]
DistanceSpacing: 1.2
BeatDivisor: 4
GridSize: 16
TimelineZoom: 1

[Metadata]
Title:Israel
TitleUnicode:Israel
Artist:Beasttroll
ArtistUnicode:Beasttroll
Creator:- Satori
Version:estado illegitimo
Source:quel cazzo di handicappato di surpy
Tags:SIMONETRAPANI
BeatmapID:1981560
BeatmapSetID:948896

[Difficulty]
HPDrainRate:5
CircleSize:5
OverallDifficulty:9
ApproachRate:10
SliderMultiplier:1.4
SliderTickRate:1

[Events]
//Background and Video events
0,0,"D3Aax2hWwAE-fyy.png",0,0
//Break Periods
//Storyboard Layer 0 (Background)
Sprite,Background,Centre,"Yuki-Shiroki Hoshi no Yume.jpg",320,240
//Storyboard Layer 1 (Fail)
//Storyboard Layer 2 (Pass)
//Storyboard Layer 3 (Foreground)
//Storyboard Sound Samples

[TimingPoints]
584,322.58064516129,4,2,2,40,1,0
162680,-90.9090909090909,4,2,3,75,0,1
165745,-90.9090909090909,4,2,1,70,0,0
176067,-111.111111111111,4,2,1,65,0,0
177358,-111.111111111111,4,2,3,65,0,0
180745,-125,4,2,3,50,0,0
184858,-125,4,2,3,5,0,0
184938,-125,4,2,3,50,0,0
185342,-125,4,2,3,5,0,0
185422,-125,4,2,3,50,0,0
190180,-125,4,2,3,5,0,0
190261,-111.111111111111,4,2,1,55,0,0
191551,-100,4,2,1,60,0,0
195019,-100,4,2,1,5,0,0
195100,-100,4,2,1,60,0,0
196309,-100,4,2,1,5,0,0
196390,-100,4,2,1,60,0,0
196713,-100,4,2,1,65,0,0
207035,-125,4,2,3,50,0,0
211551,-125,4,2,1,55,0,0
212196,-100,4,2,1,60,0,0
214777,-90.9090909090909,4,2,1,65,0,0
219616,-90.9090909090909,4,2,3,65,0,0
219938,-90.9090909090909,4,2,1,70,0,0
222519,-90.9090909090909,4,2,1,75,0,0
223809,-96.1538461538461,4,2,3,70,0,0
224213,-96.1538461538461,4,2,3,5,0,0
224293,-96.1538461538461,4,2,3,70,0,0
224696,-96.1538461538461,4,2,3,5,0,0
224777,-57.8034682080925,4,2,3,70,0,0
225019,-57.8034682080925,4,2,3,5,0,0
225100,-76.9230769230769,4,2,1,75,0,0
225583,-90.9090909090909,4,2,1,75,0,0
230180,-90.9090909090909,4,2,1,5,0,0
230261,-90.9090909090909,4,2,1,75,0,0
235422,-200,4,2,1,75,0,0
235664,-200,4,2,1,5,0,0
235745,-76.9230769230769,4,2,1,80,0,1
236229,-90.9090909090909,4,2,1,80,0,1
245261,-90.9090909090909,4,2,3,80,0,1
248325,-90.9090909090909,4,2,1,75,0,1
251148,-90.9090909090909,4,2,1,5,0,1
251229,-90.9090909090909,4,2,1,75,0,1
252196,-90.9090909090909,4,2,3,70,0,0
253487,-100,4,2,1,70,0,0
263809,-90.9090909090909,4,2,1,75,0,0
268971,-90.9090909090909,4,2,1,70,0,0
271551,-100,4,2,1,65,0,0
272761,-100,4,2,1,55,0,0
274132,-100,4,2,1,49,0,0
275422,-100,4,2,1,43,0,0
276713,-100,4,2,1,37,0,0
278003,-100,4,2,1,31,0,0
279293,-100,4,2,1,5,0,0

[Colours]
Combo1 : 255,255,128
Combo2 : 192,192,192
Combo3 : 255,128,192
Combo4 : 128,128,255

[HitObjects]
304,371,145100,6,0,P|210:379|153:304,1,198.000006042481,2|8,0:0|0:0,0:0:0:0:
239,87,145583,1,0,3:0:0:0:
350,285,145745,2,0,L|251:285,1,99.0000030212403,2|0,0:0|0:0,0:0:0:0:
53,285,146067,1,8,0:0:0:0:
245,186,146229,1,0,0:0:0:0:
41,87,146390,5,8,0:0:0:0:
152,302,146551,1,8,0:0:0:0:
239,87,146713,1,8,0:0:0:0:
350,285,146874,2,0,L|340:186,1,99.0000030212403,8|0,0:0|0:0,0:0:0:0:
151,49,147196,2,0,P|159:143|244:186,1,198.000006042481,8|2,0:0|0:0,0:0:0:0:
404,76,147680,6,0,P|318:35|238:88,1,198.000006042481,4|8,0:0|0:0,0:0:0:0:
152,302,148164,1,0,0:0:0:0:
340,186,148325,1,2,0:0:0:0:
151,49,148487,1,0,3:0:0:0:
251,293,148648,2,0,P|300:287|349:284,1,99.0000030212403,8|0,0:0|0:0,0:0:0:0:
148,182,148971,6,0,P|98:176|55:195,1,99.0000030212403,2|0,0:0|3:0,0:0:0:0:
217,381,149293,2,0,P|246:341|251:293,1,99.0000030212403,8|0,0:0|0:0,0:0:0:0:
54,195,149616,2,0,P|60:244|63:293,1,99.0000030212403,2|0,0:0|3:0,0:0:0:0:
251,293,149938,2,0,P|254:243|260:194,1,99.0000030212403,8|0,0:0|0:0,0:0:0:0:
404,76,150261,6,0,P|410:125|413:174,1,99.0000030212403,8|0,0:0|0:0,0:0:0:0:
434,375,150583,1,8,0:0:0:0:
251,293,150745,2,0,P|201:287|152:284,1,99.0000030212403,8|0,0:0|0:0,0:0:0:0:
341,181,151067,1,8,0:0:0:0:
377,177,151149,1,8,0:0:0:0:
413,174,151229,1,8,0:0:0:0:
331,359,151390,1,4,1:1:0:0:
161,185,151551,6,0,P|155:234|152:283,1,99.0000030212403,2|0,0:0|3:0,0:0:0:0:
341,181,151874,2,0,P|338:131|332:82,1,99.0000030212403,8|0,0:0|3:0,0:0:0:0:
251,293,152196,1,2,0:0:0:0:
89,192,152358,1,8,0:0:0:0:
125,188,152438,1,8,0:0:0:0:
161,185,152520,1,8,0:0:0:0:
332,82,152680,1,8,0:0:0:0:
295,78,152762,1,8,0:0:0:0:
262,95,152842,6,0,P|254:193|251:292,1,198.000006042481,12|8,0:0|0:0,0:0:0:0:
93,364,153325,1,0,3:0:0:0:
8,166,153487,2,0,P|37:126|82:107,1,99.0000030212403,2|0,0:0|0:0,0:0:0:0:
250,292,153809,1,8,0:0:0:0:
89,192,153971,1,0,0:0:0:0:
261,94,154132,6,0,L|360:94,1,99.0000030212403,2|0,0:0|3:0,0:0:0:0:
250,292,154454,2,0,L|151:292,1,99.0000030212403,8|0,0:0|0:0,0:0:0:0:
81,107,154777,1,2,0:0:0:0:
255,193,154938,1,0,3:0:0:0:
93,364,155100,1,8,0:0:0:0:
168,150,155261,1,0,0:0:0:0:
336,334,155422,6,0,P|430:342|488:266,1,198.000006042481,2|8,0:0|0:0,0:0:0:0:
427,59,155906,1,0,3:0:0:0:
255,193,156067,2,0,L|354:193,1,99.0000030212403,2|0,0:0|0:0,0:0:0:0:
182,59,156390,1,8,0:0:0:0:
122,266,156551,1,0,3:0:0:0:
354,192,156713,6,0,P|341:145|308:109,1,99.0000030212403,8|8,0:0|0:0,0:0:0:0:
231,59,156954,1,8,0:0:0:0:
231,59,157035,2,0,L|181:59,1,49.5000015106202,8|8,0:0|0:0,0:0:0:0:
52,221,157196,2,0,P|90:190|138:183,1,99.0000030212403,8|0,3:3|0:0,0:0:0:0:
256,342,157519,2,0,L|157:342,1,99.0000030212403,8|0,3:3|0:0,0:0:0:0:
52,221,157842,1,8,3:3:0:0:
157,342,158003,5,12,0:0:0:0:
52,114,158164,1,2,0:0:0:0:
229,293,158325,5,8,0:0:0:0:
43,96,158486,1,2,0:0:0:0:
279,222,158648,5,8,0:0:0:0:
34,78,158809,1,2,0:0:0:0:
302,138,158971,5,8,0:0:0:0:
25,60,159132,1,2,0:0:0:0:
295,51,159293,5,8,0:0:0:0:
52,221,159454,1,2,0:0:0:0:
311,40,159616,5,8,0:0:0:0:
141,257,159777,1,2,0:0:0:0:
327,29,159938,5,8,0:0:0:0:
229,293,160100,1,2,0:0:0:0:
343,18,160261,5,8,0:0:0:0:
317,329,160422,1,8,0:0:0:0:
317,319,160503,1,8,0:0:0:0:
318,309,160583,2,0,L|335:111,1,198.000006042481,8|0,0:0|0:0,0:0:0:0:
132,158,161067,2,0,L|140:256,1,99.0000030212403,2|8,0:0|0:0,0:0:0:0:
25,382,161390,1,2,0:0:0:0:
229,293,161551,1,0,3:0:0:0:
45,144,161713,6,0,L|58:292,1,148.50000453186,4|0,3:0|0:0,0:0:0:0:
115,373,162035,2,0,L|164:369,1,49.5000015106202,0|0,3:0|0:0,0:0:0:0:
229,293,162196,2,0,L|278:297,1,49.5000015106202,0|0,3:0|0:0,0:0:0:0:
372,333,162358,1,0,3:0:0:0:
372,333,162681,5,2,0:0:0:0:
274,162,162842,1,2,0:0:0:0:
472,162,163003,1,2,0:0:0:0:
212,221,163164,6,0,P|193:128|269:73,1,198.000006042481,4|0,0:0|3:0,0:0:0:0:
477,73,163648,1,2,0:0:0:0:
274,162,163809,1,0,3:0:0:0:
467,251,163971,1,8,0:0:0:0:
384,19,164132,2,0,P|378:68|375:117,1,99.0000030212403,0|8,0:0|0:0,0:0:0:0:
221,319,164454,6,0,P|217:269|211:220,1,99.0000030212403,2|0,0:0|3:0,0:0:0:0:
264,28,164777,1,8,0:0:0:0:
92,128,164939,1,0,3:0:0:0:
62,130,165019,1,0,3:0:0:0:
33,133,165100,1,0,3:0:0:0:
211,220,165261,1,0,3:0:0:0:
240,219,165342,1,0,3:0:0:0:
268,226,165422,1,0,3:0:0:0:
292,243,165503,1,0,3:0:0:0:
310,265,165583,1,0,3:0:0:0:
322,292,165664,1,0,3:0:0:0:
327,321,165745,6,0,L|327:371,3,49.5000015106202,4|0|0|0,0:0|0:0|0:0|0:0,0:0:0:0:
359,164,166067,2,0,L|408:164,3,49.5000015106202,8|0|0|0,0:0|0:0|0:0|0:0,0:0:0:0:
211,220,166390,2,0,L|161:220,3,49.5000015106202,2|0|0|0,0:0|0:0|0:0|0:0,0:0:0:0:
237,62,166712,2,0,L|237:12,3,49.5000015106202,8|0|0|0,0:0|0:0|0:0|0:0,0:0:0:0:
88,119,167035,5,2,0:0:0:0:
60,130,167116,1,0,0:0:0:0:
35,148,167196,1,0,0:0:0:0:
17,172,167277,1,0,0:0:0:0:
6,199,167358,1,8,0:0:0:0:
2,228,167438,1,0,0:0:0:0:
6,258,167519,1,0,0:0:0:0:
17,285,167600,1,8,0:0:0:0:
36,309,167680,5,2,0:0:0:0:
60,277,167761,1,0,0:0:0:0:
91,252,167841,1,0,0:0:0:0:
127,237,167922,1,0,0:0:0:0:
167,232,168003,1,8,0:0:0:0:
206,237,168083,1,0,0:0:0:0:
242,252,168164,1,0,0:0:0:0:
274,276,168245,1,0,0:0:0:0:
298,307,168325,6,0,L|397:299,1,99.0000030212403,6|0,0:0|0:0,0:0:0:0:
167,232,168648,1,8,0:0:0:0:
297,156,168809,2,0,L|396:148,1,99.0000030212403,2|0,0:0|0:0,0:0:0:0:
166,81,169132,1,2,0:0:0:0:
298,307,169293,1,8,0:0:0:0:
395,148,169454,1,2,0:0:0:0:
167,232,169616,6,0,L|68:240,1,99.0000030212403,8|0,0:0|0:0,0:0:0:0:
166,81,169938,1,2,0:0:0:0:
297,156,170100,2,0,L|396:148,1,99.0000030212403,8|0,0:0|0:0,0:0:0:0:
166,81,170422,2,0,L|67:73,1,99.0000030212403,8|0,0:0|0:0,0:0:0:0:
296,5,170745,2,0,L|345:0,1,49.5000015106202,2|2,0:0|0:0,0:0:0:0:
297,156,170906,6,0,L|198:164,1,99.0000030212403,12|0,0:0|0:0,0:0:0:0:
413,60,171229,1,2,0:0:0:0:
305,254,171390,2,0,L|297:155,1,99.0000030212403,8|0,0:0|0:0,0:0:0:0:
400,370,171713,1,2,0:0:0:0:
207,262,171874,2,0,L|306:254,1,99.0000030212403,8|0,0:0|0:0,0:0:0:0:
89,357,172197,5,2,0:0:0:0:
199,163,172358,2,0,L|207:262,1,99.0000030212403,8|0,0:0|0:0,0:0:0:0:
338,336,172680,1,2,0:0:0:0:
118,275,172842,1,8,3:3:0:0:
297,155,173003,1,0,3:0:0:0:
310,125,173083,1,0,3:0:0:0:
314,92,173164,1,0,3:0:0:0:
305,60,173244,1,0,3:0:0:0:
286,34,173325,1,0,3:0:0:0:
260,15,173406,1,0,3:0:0:0:
229,6,173487,6,0,L|237:105,1,99.0000030212403,12|0,0:0|0:0,0:0:0:0:
428,152,173809,1,2,0:0:0:0:
157,85,173971,2,0,L|165:184,1,99.0000030212403,8|0,0:0|0:0,0:0:0:0:
356,231,174293,1,2,0:0:0:0:
85,164,174454,1,8,0:0:0:0:
284,310,174616,6,0,L|276:211,1,99.0000030212403,8|0,3:3|0:0,0:0:0:0:
229,6,174938,1,2,0:0:0:0:
428,152,175100,1,8,3:3:0:0:
284,310,175261,1,0,3:0:0:0:
248,310,175342,1,0,3:0:0:0:
212,310,175422,1,0,3:0:0:0:
85,164,175583,1,8,3:3:0:0:
276,211,175745,1,0,3:0:0:0:
318,215,175825,1,0,3:0:0:0:
361,205,175906,1,0,3:0:0:0:
398,183,175986,1,0,3:0:0:0:
428,152,176067,6,0,P|452:77|403:16,1,161.999995056153,4|0,0:0|0:0,0:0:0:0:
276,211,176551,1,2,0:0:0:0:
276,244,177035,1,2,0:0:0:0:
276,277,177358,5,4,3:0:0:0:
276,178,177519,1,2,0:0:0:0:
362,228,177680,1,0,3:0:0:0:
189,228,177842,1,2,0:0:0:0:
276,79,178003,1,0,3:0:0:0:
276,277,178164,1,2,0:0:0:0:
189,129,178325,1,0,3:0:0:0:
362,129,178487,1,2,0:0:0:0:
276,376,178648,5,4,0:0:0:0:
256,192,178729,12,0,180422,0:0:0:0:
322,58,180745,5,0,0:0:0:0:
252,140,180906,1,0,0:0:0:0:
169,71,181067,1,0,0:0:0:0:
99,153,181229,6,0,L|63:149,3,36,2|0|0|0,0:0|0:0|0:0|0:0,0:0:0:0:
182,222,181551,2,0,L|217:218,3,36,2|0|0|0,0:0|0:0|0:0|0:0,0:0:0:0:
112,304,181874,2,0,L|118:375,1,72
225,369,182196,2,0,L|296:363,1,72,2|0,0:0|0:0,0:0:0:0:
395,281,182519,6,0,L|407:136,1,144,2|0,0:0|0:0,0:0:0:0:
376,33,183003,1,0,0:0:0:0:
304,114,183164,2,0,L|233:120,1,72,2|0,0:0|0:0,0:0:0:0:
151,50,183487,2,0,L|80:44,1,72,2|0,0:0|0:0,0:0:0:0:
233,121,183809,6,0,L|227:192,1,72,2|0,0:0|0:0,0:0:0:0:
155,274,184132,1,0,0:0:0:0:
308,263,184293,2,0,L|314:192,1,72
145,166,184616,2,0,L|154:273,1,108,2|0,0:0|0:0,0:0:0:0:
119,314,184938,6,0,P|204:295|279:341,1,180,2|0,0:0|0:0,0:0:0:0:
309,373,185422,2,0,L|380:379,1,72
494,309,185745,2,0,L|423:303,1,72
308,263,186067,1,2,0:0:0:0:
410,198,186229,1,2,0:0:0:0:
345,96,186390,6,0,L|201:108,1,144,2|0,0:0|0:0,0:0:0:0:
108,52,186874,1,0,0:0:0:0:
26,123,187035,2,0,L|32:194,1,72,2|0,0:0|0:0,0:0:0:0:
140,199,187358,2,0,L|134:270,1,72,2|0,0:0|0:0,0:0:0:0:
201,108,187680,6,0,L|195:37,1,72,2|0,0:0|0:0,0:0:0:0:
194,36,188164,2,0,L|265:42,1,72,2|0,0:0|0:0,0:0:0:0:
335,125,188487,1,2,0:0:0:0:
417,55,188648,1,2,0:0:0:0:
417,55,188971,6,0,P|481:84|510:148,1,144,2|0,3:2|3:0,0:0:0:0:
445,233,189454,1,0,3:0:0:0:
335,125,189616,2,0,L|341:196,1,72,0|0,3:0|0:0,0:0:0:0:
436,343,189938,2,0,L|328:343,1,108
284,343,190261,5,2,0:0:0:0:
163,343,190422,1,8,0:0:0:0:
341,196,190583,1,2,0:0:0:0:
185,220,190745,1,2,0:0:0:0:
284,343,190906,1,2,0:0:0:0:
360,181,191067,5,0,3:0:0:0:
287,367,191229,1,0,3:0:0:0:
161,211,191390,1,0,3:0:0:0:
414,262,191551,6,0,P|458:186|420:107,1,180,4|0,2:1|0:0,0:0:0:0:
242,73,192035,1,0,0:0:0:0:
360,181,192196,2,0,L|270:188,1,90,8|0,0:0|0:0,0:0:0:0:
152,65,192519,2,0,L|241:72,1,90
206,300,192842,6,0,P|118:300|68:227,1,180,2|0,0:0|0:0,0:0:0:0:
62,57,193325,2,0,L|151:64,1,90,0|8,0:0|0:0,0:0:0:0:
270,187,193648,1,2,0:0:0:0:
69,230,193809,1,2,0:0:0:0:
241,72,193971,1,2,0:0:0:0:
206,300,194132,6,0,P|295:293|385:284,1,180,4|0,2:1|0:0,0:0:0:0:
270,187,194616,1,0,0:0:0:0:
437,344,194777,2,0,P|469:290|425:246,1,135,8|0,0:0|0:0,0:0:0:0:
385,284,195100,2,0,P|340:290|295:294,1,90,2|0,0:0|0:0,0:0:0:0:
403,93,195422,6,0,P|453:165|422:247,1,180,4|0,0:0|0:0,0:0:0:0:
270,187,195906,1,0,0:0:0:0:
145,340,196067,2,0,P|140:272|133:205,1,135,8|0,0:0|0:0,0:0:0:0:
180,177,196390,2,0,P|225:183|270:187,1,90,2|0,0:0|0:0,0:0:0:0:
403,93,196713,5,8,0:0:0:0:
274,247,196874,1,0,3:0:0:0:
271,216,196955,1,0,3:0:0:0:
269,186,197035,1,0,3:0:0:0:
418,306,197196,1,0,3:0:0:0:
421,275,197277,1,0,3:0:0:0:
423,245,197357,1,0,3:0:0:0:
282,358,197519,1,0,0:0:0:0:
169,217,197680,2,0,P|124:212|79:207,1,90,2|0,0:0|0:0,0:0:0:0:
261,75,198003,5,8,0:0:0:0:
71,96,198164,1,0,3:0:0:0:
269,186,198325,1,2,0:0:0:0:
79,207,198487,1,0,3:0:0:0:
262,275,198648,2,0,L|269:185,1,90,2|0,0:0|0:0,0:0:0:0:
87,296,198971,2,0,L|79:206,1,90,2|0,0:0|0:0,0:0:0:0:
153,37,199293,6,0,L|168:216,1,180,8|2,0:0|0:0,0:0:0:0:
360,244,199777,1,0,3:0:0:0:
261,75,199938,1,2,0:0:0:0:
169,233,200099,1,0,3:0:0:0:
171,251,200180,1,0,3:0:0:0:
172,269,200261,2,0,L|180:359,1,90,2|0,0:0|0:0,0:0:0:0:
360,244,200583,5,8,0:0:0:0:
79,206,200745,1,8,0:0:0:0:
261,75,200906,1,8,0:0:0:0:
172,269,201067,1,8,3:3:0:0:
172,269,201390,5,8,0:0:0:0:
261,75,201551,1,8,0:0:0:0:
360,244,201713,1,8,0:0:0:0:
79,206,201874,6,0,P|60:291|110:363,1,180,4|2,0:0|0:0,0:0:0:0:
266,257,202358,1,0,0:0:0:0:
171,88,202519,2,0,L|260:75,1,90,2|0,0:0|0:0,0:0:0:0:
79,206,202842,2,0,L|168:218,1,90,2|0,0:0|0:0,0:0:0:0:
360,244,203164,5,8,0:0:0:0:
171,88,203325,1,0,3:0:0:0:
402,120,203487,1,8,0:0:0:0:
168,218,203648,1,0,3:0:0:0:
376,260,203809,5,8,0:0:0:0:
149,72,203970,1,0,3:0:0:0:
426,111,204132,1,8,0:0:0:0:
145,228,204293,1,0,3:0:0:0:
360,0,204454,5,12,0:0:0:0:
256,192,204535,12,2,207035,0:0:0:0:
352,96,207358,5,2,0:0:0:0:
201,140,207519,2,0,L|129:133,1,72,2|0,0:0|0:0,0:0:0:0:
339,216,207842,1,2,0:0:0:0:
188,260,208003,2,0,L|116:253,1,72,2|0,0:0|0:0,0:0:0:0:
201,140,208325,5,0,0:0:0:0:
339,216,208487,2,0,L|410:209,2,72,2|0|0,0:0|0:0|0:0,0:0:0:0:
351,95,208971,1,0,0:0:0:0:
213,33,209132,2,0,L|142:40,2,72,2|0|0,0:0|0:0|0:0,0:0:0:0:
78,114,209616,6,0,L|84:186,1,72,2|0,0:0|0:0,0:0:0:0:
96,343,209938,1,2,0:0:0:0:
199,223,210100,2,0,L|205:295,1,72,2|0,0:0|0:0,0:0:0:0:
204,294,210583,2,0,L|276:300,1,72,2|0,0:0|0:0,0:0:0:0:
418,232,210906,5,0,3:0:0:0:
288,141,211067,2,0,L|216:135,2,72,0|0|0,3:0|3:0|3:0,0:0:0:0:
433,71,211552,1,0,3:0:0:0:
429,111,211633,1,0,3:0:0:0:
426,152,211713,1,0,3:0:0:0:
422,192,211794,1,0,3:0:0:0:
418,232,211874,1,0,3:0:0:0:
275,299,212035,1,0,3:0:0:0:
271,259,212116,1,0,3:0:0:0:
268,218,212196,6,0,L|178:210,1,90,8|0,0:0|0:0,0:0:0:0:
54,311,212519,1,2,0:0:0:0:
186,120,212680,2,0,L|178:210,1,90,8|0,0:0|0:0,0:0:0:0:
279,334,213003,1,2,0:0:0:0:
88,201,213164,2,0,L|178:209,1,90,8|0,0:0|0:0,0:0:0:0:
302,108,213487,6,0,L|309:17,2,90,2|0|0,0:0|0:0|0:0,0:0:0:0:
279,334,213971,1,8,3:0:0:0:
402,233,214132,1,8,0:0:0:0:
302,108,214293,1,2,0:0:0:0:
177,208,214454,1,8,0:0:0:0:
279,334,214616,1,2,0:0:0:0:
302,108,214777,6,0,P|252:104|203:98,1,99.0000030212403,6|0,0:0|0:0,0:0:0:0:
402,233,215100,2,0,P|451:229|500:223,1,99.0000030212403,2|0,0:0|0:0,0:0:0:0:
279,334,215422,1,2,0:0:0:0:
415,121,215583,1,2,0:0:0:0:
177,208,215745,1,2,0:0:0:0:
391,346,215906,1,2,0:0:0:0:
177,208,216067,6,0,P|127:211|78:217,1,99.0000030212403,2|0,0:0|0:0,0:0:0:0:
316,111,216390,2,0,P|365:114|414:120,1,99.0000030212403,2|0,0:0|0:0,0:0:0:0:
279,334,216713,1,2,0:0:0:0:
197,90,216874,1,2,0:0:0:0:
402,233,217035,1,2,0:0:0:0:
165,322,217196,1,2,0:0:0:0:
316,111,217358,5,8,0:0:0:0:
78,217,217519,1,0,3:0:0:0:
402,233,217680,1,2,0:0:0:0:
275,0,217842,1,0,3:0:0:0:
279,334,218003,1,2,0:0:0:0:
78,69,218164,1,0,3:0:0:0:
394,21,218325,1,2,0:0:0:0:
197,164,218487,1,0,3:0:0:0:
391,346,218648,5,8,0:0:0:0:
316,111,218809,1,0,3:0:0:0:
91,321,218971,1,2,0:0:0:0:
177,35,219132,1,0,3:0:0:0:
354,229,219293,1,2,0:0:0:0:
78,69,219454,1,0,3:0:0:0:
229,329,219616,2,0,L|278:333,1,49.5000015106202,2|2,0:0|0:0,0:0:0:0:
403,233,219777,2,0,L|353:228,1,49.5000015106202,2|2,0:0|0:0,0:0:0:0:
197,164,219938,5,8,0:0:0:0:
495,300,220100,1,0,3:0:0:0:
394,21,220261,1,2,0:0:0:0:
278,333,220422,5,8,0:0:0:0:
177,35,220583,1,0,3:0:0:0:
403,233,220745,1,2,0:0:0:0:
78,217,220906,5,8,0:0:0:0:
399,127,221067,1,0,3:0:0:0:
78,69,221229,1,2,0:0:0:0:
278,333,221390,5,8,0:0:0:0:
286,28,221551,1,8,0:0:0:0:
491,194,221713,1,0,3:0:0:0:
197,164,221874,5,8,0:0:0:0:
407,339,222035,1,8,0:0:0:0:
141,381,222197,1,0,3:0:0:0:
118,369,222277,1,0,3:0:0:0:
103,349,222358,1,0,3:0:0:0:
100,324,222439,1,0,3:0:0:0:
108,300,222519,5,8,0:0:0:0:
399,127,222680,1,8,0:0:0:0:
399,151,223003,5,8,0:0:0:0:
72,68,223164,1,8,0:0:0:0:
89,52,223487,5,8,0:0:0:0:
278,333,223648,1,8,0:0:0:0:
460,237,223809,6,0,B|284:251|284:251|322:258|336:275,1,233.999998571777,2|0,0:0|0:0,0:0:0:0:
278,333,224293,6,0,P|204:254|272:171,1,233.999998571777,2|0,0:0|0:0,0:0:0:0:
336,275,224777,6,0,B|347:255|383:242|383:242|207:258,1,233.999998571777,2|0,0:0|0:0,0:0:0:0:
380,160,225100,6,0,P|461:229|403:320,1,233.999998571777,4|0,0:0|3:0,0:0:0:0:
208,257,225583,1,0,3:0:0:0:
261,72,225745,2,0,P|267:121|270:170,1,99.0000030212403,2|0,0:0|0:0,0:0:0:0:
278,333,226067,1,0,3:0:0:0:
380,160,226229,1,0,3:0:0:0:
162,62,226390,6,0,P|211:68|260:71,1,99.0000030212403,2|0,0:0|0:0,0:0:0:0:
208,257,226713,2,0,P|159:263|110:266,1,99.0000030212403,2|0,0:0|0:0,0:0:0:0:
362,357,227035,2,0,P|372:258|379:159,1,198.000006042481,2|0,0:0|0:0,0:0:0:0:
260,71,227519,1,0,0:0:0:0:
109,266,227680,6,0,P|101:167|92:68,1,198.000006042481,4|0,0:0|0:0,0:0:0:0:
13,253,228164,2,0,P|47:339|143:357,1,198.000006042481,2|0,0:0|0:0,0:0:0:0:
270,170,228648,1,2,0:0:0:0:
109,266,228809,1,2,0:0:0:0:
299,327,228971,5,8,0:0:0:0:
142,137,229132,1,8,0:0:0:0:
378,159,229293,1,8,0:0:0:0:
207,275,229454,2,0,P|157:271|108:265,1,99.0000030212403,8|0,0:0|0:0,0:0:0:0:
46,122,229777,2,0,P|132:40|231:98,1,247.500007553101,8|0,0:0|0:0,0:0:0:0:
270,170,230261,5,12,0:0:0:0:
108,265,230422,1,0,3:0:0:0:
105,229,230503,1,0,3:0:0:0:
102,194,230583,1,0,3:0:0:0:
223,24,230745,1,0,3:0:0:0:
226,60,230826,1,0,3:0:0:0:
229,95,230906,1,0,3:0:0:0:
207,275,231067,1,0,3:0:0:0:
378,159,231229,1,0,3:0:0:0:
411,155,231309,1,0,3:0:0:0:
446,163,231390,1,0,3:0:0:0:
476,181,231471,1,0,3:0:0:0:
500,206,231551,5,2,0:0:0:0:
367,331,231713,1,0,3:0:0:0:
334,335,231793,1,0,3:0:0:0:
299,327,231874,1,0,3:0:0:0:
169,212,232035,1,0,3:0:0:0:
137,196,232116,1,0,3:0:0:0:
102,194,232196,1,0,3:0:0:0:
69,205,232277,1,0,3:0:0:0:
43,228,232358,1,0,3:0:0:0:
28,259,232438,1,0,3:0:0:0:
26,294,232519,1,0,3:0:0:0:
37,326,232600,1,0,3:0:0:0:
59,352,232680,1,0,3:0:0:0:
91,367,232761,1,0,3:0:0:0:
125,370,232842,6,0,P|129:320|134:271,1,99.0000030212403,8|0,0:0|0:0,0:0:0:0:
28,99,233164,1,2,0:0:0:0:
229,95,233325,2,0,P|279:91|328:86,1,99.0000030212403,8|0,0:0|0:0,0:0:0:0:
232,262,233648,2,0,P|182:265|133:270,1,99.0000030212403,8|0,0:0|0:0,0:0:0:0:
28,99,233971,1,2,0:0:0:0:
208,31,234132,5,2,0:0:0:0:
224,62,234212,1,2,0:0:0:0:
229,95,234293,1,2,0:0:0:0:
133,269,234454,2,0,L|125:170,1,99.0000030212403,8|0,0:0|3:0,0:0:0:0:
327,86,234777,2,0,L|319:185,1,99.0000030212403,8|0,0:0|3:0,0:0:0:0:
239,360,235100,2,0,L|231:261,1,99.0000030212403,8|0,0:0|3:0,0:0:0:0:
433,177,235422,6,0,L|427:244,1,67.5
406,365,235745,6,0,P|316:296|319:184,1,233.999989288331,4|2,0:0|0:0,0:0:0:0:
405,5,236229,1,0,3:0:0:0:
229,95,236390,2,0,P|179:91|130:86,1,99.0000030212403,8|0,0:0|0:0,0:0:0:0:
133,269,236713,6,0,P|182:263|231:261,1,99.0000030212403,2|0,0:0|3:0,0:0:0:0:
311,54,237035,2,0,P|262:60|228:95,1,99.0000030212403,8|0,0:0|0:0,0:0:0:0:
433,177,237358,1,2,0:0:0:0:
231,260,237519,1,0,3:0:0:0:
461,349,237680,1,8,0:0:0:0:
318,183,237842,1,0,0:0:0:0:
147,366,238003,6,0,P|60:331|42:235,1,198.000006042481,2|8,0:0|0:0,0:0:0:0:
228,94,238487,1,0,3:0:0:0:
326,281,238648,2,0,P|324:231|318:182,1,99.0000030212403,2|0,0:0|0:0,0:0:0:0:
133,269,238971,1,8,0:0:0:0:
29,100,239132,1,0,3:0:0:0:
282,12,239293,6,0,P|317:45|326:93,1,99.0000030212403,8|8,0:0|0:0,0:0:0:0:
325,114,239536,1,8,0:0:0:0:
323,133,239616,2,0,L|318:182,1,49.5000015106202,8|8,0:0|0:0,0:0:0:0:
129,84,239777,2,0,L|227:93,1,99.0000030212403,8|0,3:3|0:0,0:0:0:0:
416,173,240100,2,0,L|318:182,1,99.0000030212403,8|0,3:3|0:0,0:0:0:0:
133,269,240422,1,8,3:3:0:0:
325,93,240583,5,12,0:0:0:0:
223,358,240745,1,2,0:0:0:0:
333,75,240906,5,8,0:0:0:0:
377,355,241067,1,2,0:0:0:0:
330,56,241229,5,8,0:0:0:0:
231,340,241390,1,2,0:0:0:0:
338,38,241551,5,8,0:0:0:0:
374,336,241713,1,2,0:0:0:0:
141,171,241874,5,8,0:0:0:0:
443,267,242035,1,2,0:0:0:0:
141,363,242196,5,8,0:0:0:0:
463,267,242358,1,2,0:0:0:0:
161,171,242519,5,8,0:0:0:0:
483,267,242680,1,2,0:0:0:0:
161,363,242842,5,8,0:0:0:0:
483,267,243003,1,8,0:0:0:0:
463,267,243083,1,8,0:0:0:0:
443,267,243164,2,0,L|245:267,1,198.000006042481,8|0,0:0|0:0,0:0:0:0:
62,171,243648,2,0,L|161:171,1,99.0000030212403,2|8,0:0|0:0,0:0:0:0:
346,98,243971,1,2,0:0:0:0:
245,267,244132,1,0,3:0:0:0:
317,21,244293,6,0,P|388:27|425:88,1,148.50000453186,4|0,3:2|0:0,0:0:0:0:
381,178,244616,2,0,L|331:182,1,49.5000015106202,0|0,3:0|0:0,0:0:0:0:
433,262,244777,2,0,L|482:266,1,49.5000015106202,0|0,3:0|0:0,0:0:0:0:
389,352,244938,1,0,3:0:0:0:
389,352,245261,5,2,0:0:0:0:
477,172,245422,1,2,0:0:0:0:
245,267,245583,1,2,0:0:0:0:
262,69,245745,6,0,P|252:167|245:266,1,198.000006042481,4|0,0:0|3:0,0:0:0:0:
74,368,246229,1,2,0:0:0:0:
151,186,246390,1,0,3:0:0:0:
195,378,246551,1,8,0:0:0:0:
46,248,246713,2,0,L|37:150,1,99.0000030212403,0|8,0:0|0:0,0:0:0:0:
244,266,247035,1,2,0:0:0:0:
244,266,248325,6,0,L|343:258,1,99.0000030212403,8|0,0:0|0:0,0:0:0:0:
128,362,248648,1,2,0:0:0:0:
237,168,248809,2,0,L|245:267,1,99.0000030212403,8|0,0:0|0:0,0:0:0:0:
141,52,249132,1,2,0:0:0:0:
336,161,249293,2,0,L|237:169,1,99.0000030212403,8|0,0:0|0:0,0:0:0:0:
452,65,249616,5,2,0:0:0:0:
344,259,249777,2,0,L|336:160,1,99.0000030212403,8|0,0:0|0:0,0:0:0:0:
439,375,250100,1,2,0:0:0:0:
244,266,250261,1,8,3:0:0:0:
445,169,250422,1,2,0:0:0:0:
250,60,250583,1,8,3:0:0:0:
344,259,250745,1,2,0:0:0:0:
127,159,250906,6,0,P|58:177|32:243,1,148.50000453186,4|0,0:0|0:0,0:0:0:0:
42,293,251229,1,2,0:0:0:0:
225,166,251390,2,0,P|175:160|126:158,1,99.0000030212403,2|0,0:0|0:0,0:0:0:0:
343,259,251713,2,0,P|392:253|441:251,1,99.0000030212403,8|0,0:0|0:0,0:0:0:0:
222,348,252035,1,8,0:0:0:0:
126,158,252196,5,2,0:0:0:0:
108,123,252842,1,2,0:0:0:0:
90,88,253487,6,0,P|133:93|178:96,1,90,4|0,0:0|0:0,0:0:0:0:
336,183,253809,2,0,P|293:188|248:191,1,90,8|0,0:0|0:0,0:0:0:0:
73,242,254132,1,2,0:0:0:0:
179,96,254293,1,0,0:0:0:0:
238,280,254454,2,0,P|240:235|246:190,1,90,8|0,0:0|0:0,0:0:0:0:
419,86,254777,6,0,P|424:130|426:175,1,90,2|0,0:0|0:0,0:0:0:0:
238,280,255100,2,0,P|282:274|327:271,1,90,8|0,0:0|0:0,0:0:0:0:
345,270,255342,1,8,0:0:0:0:
363,270,255423,1,8,0:0:0:0:
511,334,255583,1,0,0:0:0:0:
426,175,255745,2,0,P|381:168|336:165,1,90,8|0,0:0|0:0,0:0:0:0:
247,369,256067,6,0,P|243:324|237:279,1,90,2|0,0:0|0:0,0:0:0:0:
179,96,256390,2,0,P|175:140|169:185,1,90,8|0,0:0|0:0,0:0:0:0:
66,334,256713,1,2,0:0:0:0:
237,279,256874,1,0,0:0:0:0:
79,176,257035,2,0,P|123:182|168:185,1,90,8|0,0:0|0:0,0:0:0:0:
356,61,257358,6,0,P|311:63|266:70,1,90,2|0,0:0|0:0,0:0:0:0:
237,279,257680,2,0,P|281:285|326:288,1,90,8|0,0:0|0:0,0:0:0:0:
339,275,257922,1,8,0:0:0:0:
353,264,258003,2,0,P|397:258|442:255,1,90,8|0,0:0|0:0,0:0:0:0:
471,93,258325,2,0,P|426:90|382:84,1,90,8|0,0:0|0:0,0:0:0:0:
368,73,258567,1,8,0:0:0:0:
355,59,258648,6,0,P|310:62|266:69,1,90,2|0,0:0|0:0,0:0:0:0:
90,23,258971,1,8,0:0:0:0:
168,185,259132,1,0,0:0:0:0:
355,59,259293,2,0,P|347:103|344:148,1,90,2|0,0:0|0:0,0:0:0:0:
178,274,259616,2,0,P|175:229|167:184,1,90,8|0,0:0|0:0,0:0:0:0:
90,23,259938,5,2,0:0:0:0:
355,59,260100,1,0,3:0:0:0:
167,184,260260,1,8,0:0:0:0:
343,148,260422,1,0,3:0:0:0:
128,103,260583,1,2,0:0:0:0:
331,237,260745,1,0,3:0:0:0:
98,242,260906,1,8,0:0:0:0:
222,41,261067,1,0,3:0:0:0:
258,306,261229,5,8,0:0:0:0:
477,166,261390,2,0,P|484:210|487:255,1,90,8|0,0:0|0:0,0:0:0:0:
258,306,261713,2,0,P|250:261|247:216,1,90,8|0,0:0|0:0,0:0:0:0:
276,49,262035,1,8,0:0:0:0:
249,45,262116,1,8,0:0:0:0:
222,41,262196,1,8,0:0:0:0:
59,161,262358,1,4,1:1:0:0:
247,216,262519,5,2,0:0:0:0:
84,336,262680,1,8,0:0:0:0:
58,326,262760,1,0,0:0:0:0:
37,304,262842,2,0,P|32:283|30:260,1,45,2|0,0:0|0:0,0:0:0:0:
59,161,263003,1,8,0:0:0:0:
80,144,263084,1,0,0:0:0:0:
106,139,263164,2,0,P|128:141|150:146,1,45,2|0,0:0|0:0,0:0:0:0:
247,216,263325,1,8,0:0:0:0:
268,233,263406,1,8,0:0:0:0:
294,238,263486,2,0,P|316:235|338:230,1,45,8|0,0:0|0:0,0:0:0:0:
452,140,263648,2,0,P|429:137|407:132,1,45,8|8,0:0|0:0,0:0:0:0:
222,41,263809,5,4,0:0:0:0:
254,28,263890,1,0,0:0:0:0:
288,27,263971,1,0,0:0:0:0:
321,34,264051,1,0,0:0:0:0:
352,50,264132,1,8,0:0:0:0:
377,73,264213,1,0,0:0:0:0:
395,101,264293,1,0,0:0:0:0:
407,132,264374,1,0,0:0:0:0:
408,166,264455,5,2,0:0:0:0:
369,139,264536,1,0,0:0:0:0:
325,132,264617,1,0,0:0:0:0:
281,132,264697,1,0,0:0:0:0:
238,146,264778,1,8,0:0:0:0:
202,170,264859,1,0,0:0:0:0:
171,201,264939,1,0,0:0:0:0:
150,239,265020,1,0,0:0:0:0:
141,282,265100,6,0,L|186:264,1,49.5000015106202,2|0,0:0|0:0,0:0:0:0:
224,362,265261,2,0,L|248:319,1,49.5000015106202
339,359,265422,2,0,L|325:311,1,49.5000015106202,8|0,0:0|0:0,0:0:0:0:
419,276,265583,2,0,L|378:248,1,49.5000015106202,0|2,0:0|0:0,0:0:0:0:
238,146,265745,5,2,0:0:0:0:
207,133,265826,1,0,0:0:0:0:
175,126,265906,1,0,0:0:0:0:
141,127,265987,1,0,0:0:0:0:
108,138,266068,1,8,0:0:0:0:
79,156,266148,1,0,0:0:0:0:
56,181,266229,1,0,0:0:0:0:
42,213,266310,1,0,0:0:0:0:
41,247,266390,6,0,L|50:345,1,99.0000030212403,2|0,0:0|3:0,0:0:0:0:
228,244,266713,2,0,L|237:146,1,99.0000030212403,8|0,0:0|0:0,0:0:0:0:
41,247,267035,1,2,0:0:0:0:
224,362,267196,1,0,3:0:0:0:
335,154,267358,2,0,L|237:145,1,99.0000030212403,8|0,0:0|0:0,0:0:0:0:
41,247,267680,6,0,L|139:256,1,99.0000030212403,2|0,0:0|0:0,0:0:0:0:
325,311,268003,2,0,P|374:309|423:303,1,99.0000030212403,8|0,0:0|0:0,0:0:0:0:
438,290,268245,1,8,0:0:0:0:
457,285,268325,2,0,L|457:383,1,99.0000030212403,8|0,0:0|0:0,0:0:0:0:
224,362,268648,1,8,0:0:0:0:
335,154,268809,2,0,L|313:199,1,49.5000015106202,2|2,0:0|0:0,0:0:0:0:
174,261,268971,5,8,0:0:0:0:
139,256,269052,1,0,3:0:0:0:
109,240,269133,1,0,3:0:0:0:
84,217,269213,1,0,3:0:0:0:
65,188,269294,1,0,3:0:0:0:
55,155,269375,1,0,3:0:0:0:
54,122,269455,1,0,3:0:0:0:
59,89,269536,1,0,3:0:0:0:
75,59,269616,6,0,L|124:54,1,49.5000015106202,2|0,0:0|0:0,0:0:0:0:
202,166,269777,2,0,L|152:161,1,49.5000015106202,2|0,0:0|0:0,0:0:0:0:
257,51,269938,2,0,L|306:46,1,49.5000015106202,2|0,0:0|0:0,0:0:0:0:
384,158,270099,2,0,L|334:153,1,49.5000015106202,2|0,0:0|0:0,0:0:0:0:
488,85,270261,5,8,0:0:0:0:
488,85,270422,2,0,L|493:135,1,49.5000015106202,8|8,0:0|0:0,0:0:0:0:
505,281,270583,1,8,0:0:0:0:
505,281,270745,2,0,L|455:286,1,49.5000015106202,8|8,0:0|0:0,0:0:0:0:
309,298,270907,1,8,0:0:0:0:
309,298,271068,2,0,L|304:248,1,49.5000015106202,8|8,0:0|0:0,0:0:0:0:
379,108,271229,2,0,L|384:158,1,49.5000015106202,8|8,0:0|0:0,0:0:0:0:
202,166,271390,1,8,0:0:0:0:
339,384,271551,6,0,P|253:368|217:289,1,180,12|0,0:0|0:0,0:0:0:0:
379,108,272035,1,8,0:0:0:0:
130,66,272196,1,2,0:0:0:0:
304,248,272358,1,2,0:0:0:0:
270,0,272519,1,2,0:0:0:0:
152,221,272680,5,12,0:0:0:0:
256,192,272761,12,0,279293,0:0:0:0:
