osu file format v14

[General]
AudioFilename: audio.mp3
AudioLeadIn: 0
PreviewTime: 563
Countdown: 1
SampleSet: Normal
StackLeniency: 0.7
Mode: 0
LetterboxInBreaks: 0
EpilepsyWarning: 1
WidescreenStoryboard: 1

[Editor]
Bookmarks: 26218,29092,31966,34840,53523,54960,210529
DistanceSpacing: 1.9
BeatDivisor: 4
GridSize: 4
TimelineZoom: 1.7

[Metadata]
Title:Hated
TitleUnicode:Hated
Artist:Beartooth
ArtistUnicode:Beartooth
Creator:Eeveesenpai_4_u
Version:Pure Hate
Source:
Tags:
BeatmapID:1019302
BeatmapSetID:468878

[Difficulty]
HPDrainRate:8
CircleSize:4
OverallDifficulty:7
ApproachRate:9.4
SliderMultiplier:1.4
SliderTickRate:1

[Events]
//Background and Video events
0,0,"Beartooth Hated.jpg",0,0
//Break Periods
2,26417,28552
2,32166,34300
2,49771,54420
2,130968,134899
2,167256,175139
//Storyboard Layer 0 (Background)
//Storyboard Layer 1 (Fail)
//Storyboard Layer 2 (Pass)
//Storyboard Layer 3 (Foreground)
//Storyboard Sound Samples

[TimingPoints]
1787,359.281437125748,4,1,0,60,1,0
1787,-200,4,1,0,60,0,0
14361,-100,4,1,0,60,0,0
54960,-80,4,1,0,60,0,1
74900,-200,4,1,0,60,0,0
80469,-80,4,1,0,60,0,0
89541,-100,4,1,0,60,0,0
92415,-83.3333333333333,4,1,0,60,0,0
101128,-133.333333333333,4,1,0,60,0,0
106697,-80,4,1,0,60,0,1
129870,-111.111111111111,4,1,0,60,0,0
135439,-83.3333333333333,4,1,0,60,0,0
141188,-90.9090909090909,4,1,0,60,0,0
164361,-200,4,1,0,60,0,0
175858,-80,4,1,0,60,0,1
198852,-100,4,1,0,60,0,0

[Colours]
Combo1 : 123,82,216
Combo2 : 26,128,216
Combo3 : 240,6,6
Combo4 : 26,216,86
Combo5 : 26,183,216

[HitObjects]
352,96,1787,6,0,P|368:124|372:132,1,35
112,72,2146,1,0,0:0:0:0:
464,336,2505,2,0,L|480:292,1,35
232,340,2864,1,0,0:0:0:0:
480,8,3224,2,0,L|468:24,2,17.5
236,64,3583,1,0,0:0:0:0:
64,248,3763,1,0,0:0:0:0:
312,216,3942,1,0,0:0:0:0:
76,112,4122,1,0,0:0:0:0:
216,320,4301,1,0,0:0:0:0:
480,16,4661,5,0,0:0:0:0:
44,348,5379,2,0,L|104:304,1,70
464,32,6098,1,0,0:0:0:0:
48,340,6816,1,0,0:0:0:0:
312,320,6996,1,0,0:0:0:0:
144,132,7176,1,0,0:0:0:0:
184,376,7355,1,0,0:0:0:0:
348,184,7535,6,0,L|404:120,1,70
148,92,8074,1,0,0:0:0:0:
120,340,8254,2,0,L|120:268,1,70
368,236,8792,1,0,0:0:0:0:
148,92,8972,6,0,L|208:136,1,70
48,328,9511,1,0,0:0:0:0:
296,320,9691,1,0,0:0:0:0:
80,200,9870,1,0,0:0:0:0:
292,64,10050,1,0,0:0:0:0:
176,288,10230,1,0,0:0:0:0:
408,188,10409,2,0,L|408:112,1,70
32,352,11128,6,0,L|72:324,1,35
184,112,11487,2,0,L|160:144,1,35
388,252,11846,2,0,L|408:220,1,35
160,284,12206,1,0,0:0:0:0:
348,108,12385,1,0,0:0:0:0:
256,192,12565,12,0,14182,0:0:0:0:
384,304,14361,5,0,0:0:0:0:
48,24,14721,2,0,L|104:68,1,70
352,124,15080,2,0,L|296:172,1,70
96,324,15439,2,0,L|160:272,1,70
84,36,15798,2,0,B|124:56|104:92|152:104,1,70
308,264,16158,5,0,0:0:0:0:
312,268,16337,1,0,0:0:0:0:
80,176,16517,2,0,L|80:96,1,70
324,160,16876,2,0,L|324:84,1,70
156,272,17236,2,0,L|156:352,1,70
396,272,17595,5,0,0:0:0:0:
396,272,17775,1,0,0:0:0:0:
180,144,17954,1,0,0:0:0:0:
180,144,18134,1,0,0:0:0:0:
44,356,18313,1,0,0:0:0:0:
44,356,18493,1,0,0:0:0:0:
272,256,18673,2,0,L|344:216,1,70
128,88,19032,5,0,0:0:0:0:
136,92,19122,1,0,0:0:0:0:
136,92,19212,2,0,P|180:80|208:80,1,70
236,84,19481,1,0,0:0:0:0:
268,92,19571,2,0,P|312:112|328:128,1,70
340,160,19840,1,0,0:0:0:0:
352,200,19929,1,0,0:0:0:0:
360,240,20019,1,0,0:0:0:0:
364,276,20110,2,0,B|376:332|376:360|376:360|300:356,1,140
100,276,20649,5,0,0:0:0:0:
256,80,20828,1,0,0:0:0:0:
256,80,21008,1,0,0:0:0:0:
196,324,21188,1,0,0:0:0:0:
196,324,21367,1,0,0:0:0:0:
400,180,21547,1,0,0:0:0:0:
400,180,21727,1,0,0:0:0:0:
152,188,21906,6,0,L|220:124,1,70
396,296,22266,2,0,L|336:248,1,70
96,284,22625,2,0,L|96:208,1,70
304,72,22984,2,0,L|404:72,1,70
240,284,23343,6,0,L|156:284,1,70
60,28,23703,2,0,L|136:28,1,70
312,248,24062,2,0,L|232:248,1,70
64,24,24421,2,0,L|144:24,1,70
364,128,24781,1,0,0:0:0:0:
392,164,24870,1,0,0:0:0:0:
416,204,24960,1,0,0:0:0:0:
436,244,25050,1,0,0:0:0:0:
444,284,25140,2,0,L|356:284,1,70
288,316,25498,5,0,0:0:0:0:
268,220,25678,1,0,0:0:0:0:
264,144,25768,1,0,0:0:0:0:
260,64,25858,2,0,L|104:64,1,140
256,192,29092,5,0,0:0:0:0:
56,344,29272,1,0,0:0:0:0:
56,344,29361,1,0,0:0:0:0:
104,96,29541,1,0,0:0:0:0:
104,96,29631,1,0,0:0:0:0:
416,240,29900,1,0,0:0:0:0:
416,240,29990,1,0,0:0:0:0:
168,248,30170,2,0,L|120:228,2,35
372,108,30529,5,0,0:0:0:0:
124,92,30709,1,0,0:0:0:0:
124,92,30798,1,0,0:0:0:0:
324,236,30978,1,0,0:0:0:0:
324,236,31068,1,0,0:0:0:0:
96,332,31337,1,0,0:0:0:0:
96,332,31427,1,0,0:0:0:0:
192,100,31607,1,0,0:0:0:0:
192,100,31697,1,0,0:0:0:0:
192,100,31786,1,0,0:0:0:0:
352,296,31966,1,4,0:0:0:0:
256,188,34840,5,0,0:0:0:0:
56,344,35020,2,0,L|88:308,1,35
168,84,35289,1,0,0:0:0:0:
168,84,35379,1,0,0:0:0:0:
392,344,35649,1,0,0:0:0:0:
392,344,35739,1,0,0:0:0:0:
152,288,35918,2,0,L|156:228,2,35
244,52,36278,6,0,L|336:52,1,70
336,52,36547,1,0,0:0:0:0:
128,328,36727,1,0,0:0:0:0:
128,328,36816,1,0,0:0:0:0:
412,128,37086,1,0,0:0:0:0:
412,128,37176,1,0,0:0:0:0:
160,156,37355,1,0,0:0:0:0:
160,156,37445,1,0,0:0:0:0:
160,156,37535,1,0,0:0:0:0:
368,296,37715,1,4,0:0:0:0:
240,76,37894,5,0,0:0:0:0:
132,308,38074,2,0,L|224:308,1,70
364,112,38433,2,0,L|364:200,1,70
104,192,38792,2,0,L|192:192,1,70
408,312,39152,5,0,0:0:0:0:
152,356,39331,2,0,L|184:316,1,35
328,144,39601,1,0,0:0:0:0:
328,144,39691,1,0,0:0:0:0:
80,120,39870,2,0,L|80:208,1,70
288,56,40230,1,0,0:0:0:0:
188,280,40409,1,0,0:0:0:0:
404,136,40589,2,0,B|448:192|448:192|376:248|392:312,1,210
88,76,41397,5,0,0:0:0:0:
88,76,41487,1,0,0:0:0:0:
332,120,41667,2,0,B|304:140|303:159|296:152,2,35
144,292,42026,5,0,0:0:0:0:
400,272,42206,1,0,0:0:0:0:
400,272,42295,1,0,0:0:0:0:
176,164,42475,1,0,0:0:0:0:
176,164,42565,1,0,0:0:0:0:
484,24,42834,1,0,0:0:0:0:
484,24,42924,1,0,0:0:0:0:
324,216,43104,1,0,0:0:0:0:
324,216,43194,1,0,0:0:0:0:
324,216,43284,1,0,0:0:0:0:
84,288,43463,6,0,L|84:200,1,70
292,72,43822,2,0,L|192:72,1,70
368,272,44182,1,0,0:0:0:0:
124,316,44361,1,0,0:0:0:0:
308,160,44541,1,0,0:0:0:0:
304,156,44721,6,0,L|152:156,1,140
344,332,45260,1,0,0:0:0:0:
432,96,45439,1,0,0:0:0:0:
180,64,45619,2,0,L|180:160,1,70
32,332,45978,1,0,0:0:0:0:
62,348,46067,1,0,0:0:0:0:
96,357,46157,1,0,0:0:0:0:
131,359,46247,1,0,0:0:0:0:
160,356,46337,6,0,P|196:352|256:336,1,70
252,336,46607,1,0,0:0:0:0:
392,132,46786,1,0,0:0:0:0:
392,132,46876,1,0,0:0:0:0:
40,140,47146,1,0,0:0:0:0:
40,140,47236,1,0,0:0:0:0:
276,220,47415,2,0,L|320:208,2,35
56,344,47775,5,0,0:0:0:0:
184,128,47954,1,0,0:0:0:0:
184,128,48044,1,0,0:0:0:0:
436,104,48224,2,0,L|436:152,1,35
128,296,48583,1,0,0:0:0:0:
128,296,48673,1,0,0:0:0:0:
376,324,48852,1,0,0:0:0:0:
268,116,49032,1,0,0:0:0:0:
272,112,49212,6,0,L|440:112,1,140
260,192,54960,5,0,0:0:0:0:
52,340,55140,1,0,0:0:0:0:
136,108,55319,1,0,0:0:0:0:
216,344,55499,1,0,0:0:0:0:
24,188,55679,2,0,B|156:188|156:188|152:328,1,262.5
384,216,56397,1,0,0:0:0:0:
324,96,56577,6,0,P|252:128|240:248,1,175
328,196,57116,2,0,B|328:304|328:304|244:304,1,175
261,304,57655,1,0,0:0:0:0:
176,324,57834,5,0,0:0:0:0:
424,280,58014,1,0,0:0:0:0:
292,64,58194,1,0,0:0:0:0:
84,212,58373,1,0,0:0:0:0:
332,208,58553,2,0,B|332:316|332:316|228:316,1,175
352,80,59092,1,0,0:0:0:0:
100,80,59272,6,0,B|200:184|40:184|108:336,1,262.5
328,216,59990,1,0,0:0:0:0:
108,88,60170,1,0,0:0:0:0:
356,72,60349,1,0,0:0:0:0:
396,96,60438,1,0,0:0:0:0:
428,124,60528,1,0,0:0:0:0:
452,164,60618,1,0,0:0:0:0:
456,208,60709,6,0,P|448:264|432:304,1,87.5
176,308,61068,1,0,0:0:0:0:
52,88,61248,1,0,0:0:0:0:
332,120,61427,2,0,B|400:196|400:196|312:240,1,175
84,164,61966,1,0,0:0:0:0:
276,340,62146,6,0,B|368:268|368:268|288:216,1,175
76,156,62685,1,0,0:0:0:0:
320,92,62864,1,0,0:0:0:0:
156,276,63044,1,0,0:0:0:0:
392,188,63224,1,0,0:0:0:0:
160,80,63403,1,0,0:0:0:0:
284,292,63583,6,0,B|180:204|184:352|24:260,1,262.5
192,72,64301,1,0,0:0:0:0:
384,236,64481,1,0,0:0:0:0:
192,72,64661,1,0,0:0:0:0:
432,140,64840,1,0,0:0:0:0:
188,212,65020,6,0,B|84:312|84:312|232:320,1,262.5
392,160,65739,1,0,0:0:0:0:
144,116,65918,1,0,0:0:0:0:
332,276,66098,1,0,0:0:0:0:
272,32,66278,1,0,0:0:0:0:
176,268,66457,2,0,L|232:188,2,87.5
400,168,66996,1,0,0:0:0:0:
176,48,67176,2,0,B|360:48|360:48|360:236,1,350
120,136,68074,5,0,0:0:0:0:
360,216,68254,1,0,0:0:0:0:
24,364,68613,1,0,0:0:0:0:
300,328,68792,1,0,0:0:0:0:
60,248,68972,1,0,0:0:0:0:
304,192,69152,1,0,0:0:0:0:
72,100,69331,6,0,B|152:72|152:128|276:92,1,175
428,272,69870,1,0,0:0:0:0:
184,300,70050,2,0,L|184:204,1,87.5
428,132,70409,2,0,L|340:168,1,87.5
100,108,70769,1,0,0:0:0:0:
312,244,70948,5,0,0:0:0:0:
224,8,71128,1,0,0:0:0:0:
120,240,71307,1,0,0:0:0:0:
320,76,71487,2,0,P|360:100|376:244,1,175
136,236,72026,1,0,0:0:0:0:
396,312,72206,2,0,P|472:280|480:184,2,175
128,168,73104,5,0,0:0:0:0:
360,48,73284,2,0,L|356:232,1,175
148,88,73822,1,0,0:0:0:0:
56,320,74002,1,0,0:0:0:0:
264,168,74182,1,0,0:0:0:0:
452,344,74361,2,0,L|452:240,2,87.5
200,292,74900,1,0,0:0:0:0:
256,192,74990,12,0,77954,0:0:0:0:
256,188,80469,5,0,0:0:0:0:
215,170,80558,1,0,0:0:0:0:
173,160,80648,1,0,0:0:0:0:
129,158,80738,1,0,0:0:0:0:
108,160,80828,2,0,L|104:256,1,87.5
128,260,81098,1,0,0:0:0:0:
160,272,81188,2,0,L|240:272,2,43.75
440,72,81637,1,0,0:0:0:0:
440,72,81727,1,0,0:0:0:0:
208,32,81906,1,0,0:0:0:0:
192,72,81995,1,0,0:0:0:0:
198,115,82085,1,0,0:0:0:0:
380,280,82266,6,0,L|448:344,2,87.5
128,304,82804,1,0,0:0:0:0:
392,72,83074,1,0,0:0:0:0:
392,72,83164,1,0,0:0:0:0:
144,16,83343,1,0,0:0:0:0:
132,57,83432,1,0,0:0:0:0:
144,98,83522,1,0,0:0:0:0:
296,288,83703,2,0,L|372:348,1,87.5
380,88,84062,2,0,L|328:88,3,43.75
304,112,84421,2,0,L|248:112,3,43.75
236,136,84781,2,0,L|184:136,2,43.75
236,136,85050,6,0,L|236:200,1,43.75
240,224,85230,1,0,0:0:0:0:
240,272,85319,1,0,0:0:0:0:
240,272,85409,2,0,L|240:340,1,43.75
292,316,85589,1,0,0:0:0:0:
348,316,85679,1,0,0:0:0:0:
392,316,85769,2,0,L|452:316,1,43.75
444,312,86038,1,0,0:0:0:0:
224,64,86218,5,0,0:0:0:0:
181,52,86307,1,0,0:0:0:0:
138,45,86397,1,0,0:0:0:0:
95,42,86487,1,0,0:0:0:0:
64,52,86577,2,0,B|32:108|32:108|96:204|88:232,1,175
244,360,87116,1,0,0:0:0:0:
404,168,87385,1,0,0:0:0:0:
404,168,87475,1,0,0:0:0:0:
156,172,87655,1,0,0:0:0:0:
156,172,87745,1,0,0:0:0:0:
156,172,87834,1,0,0:0:0:0:
396,72,88014,6,0,L|296:72,1,87.5
304,68,88284,1,0,0:0:0:0:
188,296,88463,1,0,0:0:0:0:
188,296,88553,1,0,0:0:0:0:
24,24,88822,1,0,0:0:0:0:
24,24,88912,1,0,0:0:0:0:
256,128,89092,2,0,L|308:128,2,43.75
44,264,89451,6,0,L|164:264,1,87.5
376,236,89810,1,0,0:0:0:0:
376,236,89990,1,0,0:0:0:0:
140,152,90170,2,0,L|60:120,1,70
312,52,90529,2,0,L|312:140,1,70
112,284,90888,5,0,0:0:0:0:
228,96,91068,1,0,0:0:0:0:
304,328,91248,1,0,0:0:0:0:
424,108,91427,1,0,0:0:0:0:
208,236,91607,1,0,0:0:0:0:
44,44,91786,1,0,0:0:0:0:
284,124,91966,2,0,L|324:196,1,70
80,276,92325,6,0,B|24:176|24:176|92:128,1,175
80,136,92864,1,0,0:0:0:0:
392,284,93134,1,0,0:0:0:0:
392,284,93224,1,0,0:0:0:0:
256,72,93403,1,0,0:0:0:0:
256,72,93493,1,0,0:0:0:0:
256,72,93583,1,0,0:0:0:0:
80,252,93763,6,0,L|172:252,1,83.9999974365235
180,252,94032,1,0,0:0:0:0:
416,164,94212,1,0,0:0:0:0:
416,164,94301,1,0,0:0:0:0:
72,108,94571,1,0,0:0:0:0:
72,108,94661,1,0,0:0:0:0:
352,312,94840,2,0,L|280:264,1,83.9999974365235
136,64,95200,6,0,L|188:144,1,83.9999974365235
432,108,95559,1,0,0:0:0:0:
204,208,95739,1,0,0:0:0:0:
420,328,95918,2,0,L|332:288,1,83.9999974365235
232,68,96278,1,0,0:0:0:0:
68,264,96457,1,0,0:0:0:0:
312,196,96637,6,0,L|232:224,1,83.9999974365235
424,60,96996,1,0,0:0:0:0:
436,312,97176,1,0,0:0:0:0:
256,136,97355,2,0,L|316:204,1,83.9999974365235
64,180,97715,1,0,0:0:0:0:
68,221,97804,1,0,0:0:0:0:
84,260,97894,1,0,0:0:0:0:
110,293,97984,1,0,0:0:0:0:
132,312,98074,6,0,P|184:332|228:336,1,83.9999974365235
244,336,98343,1,0,0:0:0:0:
404,144,98523,1,0,0:0:0:0:
404,144,98613,1,0,0:0:0:0:
56,144,98882,1,0,0:0:0:0:
56,144,98972,1,0,0:0:0:0:
288,248,99152,2,0,L|340:264,2,41.9999987182618
108,64,99511,6,0,L|204:64,1,83.9999974365235
208,64,99781,1,0,0:0:0:0:
428,188,99960,1,0,0:0:0:0:
428,188,100050,1,0,0:0:0:0:
92,272,100319,1,0,0:0:0:0:
92,272,100409,1,0,0:0:0:0:
280,104,100589,1,0,0:0:0:0:
32,76,100769,1,0,0:0:0:0:
252,200,100948,6,0,B|364:188|364:188|444:40,1,251.999992309571
180,64,101667,1,0,0:0:0:0:
76,288,101846,1,0,0:0:0:0:
296,168,102026,1,0,0:0:0:0:
460,360,102206,1,0,0:0:0:0:
392,116,102385,2,0,B|360:64|360:64|280:96|256:56,1,157.500006008148
56,216,103104,2,0,B|136:280|136:280|148:268,1,105.000004005432
384,224,103643,1,0,0:0:0:0:
168,100,103822,1,0,0:0:0:0:
256,192,103912,12,0,105080,0:0:0:0:
68,56,106158,5,0,0:0:0:0:
68,56,106337,1,0,0:0:0:0:
392,320,106697,2,0,L|320:256,1,87.5
80,200,107056,1,0,0:0:0:0:
328,176,107236,1,0,0:0:0:0:
104,68,107415,2,0,L|104:176,1,87.5
344,80,107775,1,0,0:0:0:0:
184,276,107954,1,0,0:0:0:0:
424,196,108134,6,0,L|520:196,2,87.5
168,164,108673,2,0,L|260:180,1,87.5
448,344,109032,2,0,L|372:280,1,87.5
116,284,109391,1,0,0:0:0:0:
352,188,109571,6,0,B|352:92|352:92|184:92,1,262.5
40,312,110289,1,0,0:0:0:0:
288,272,110469,1,0,0:0:0:0:
168,56,110649,1,0,0:0:0:0:
400,164,110828,1,0,0:0:0:0:
152,208,111008,2,0,B|216:128|216:128|296:176|368:88,1,262.5
272,44,111727,5,0,0:0:0:0:
320,216,111906,1,0,0:0:0:0:
72,244,112086,2,0,L|144:168,1,87.5
364,88,112445,1,0,0:0:0:0:
392,336,112625,1,0,0:0:0:0:
256,128,112804,1,0,0:0:0:0:
80,304,112984,1,0,0:0:0:0:
320,248,113164,2,0,L|216:256,1,87.5
416,88,113523,1,0,0:0:0:0:
408,336,113703,1,0,0:0:0:0:
152,328,113882,6,0,L|248:332,1,87.5
184,88,114242,1,0,0:0:0:0:
436,108,114421,1,0,0:0:0:0:
204,212,114601,2,0,L|292:176,1,87.5
56,288,114960,1,0,0:0:0:0:
56,288,115140,1,0,0:0:0:0:
304,316,115319,6,0,B|400:256|400:256|268:160,1,262.5
64,304,116038,1,0,0:0:0:0:
136,64,116218,1,0,0:0:0:0:
384,120,116397,2,0,L|292:96,1,87.5
216,328,116757,6,0,L|248:232,1,87.5
492,236,117116,1,0,0:0:0:0:
256,128,117295,1,0,0:0:0:0:
404,328,117475,1,0,0:0:0:0:
388,80,117655,1,0,0:0:0:0:
156,160,117834,2,0,P|140:224|216:304,1,175
432,196,118373,5,0,0:0:0:0:
204,68,118553,1,0,0:0:0:0:
332,288,118733,1,0,0:0:0:0:
84,208,118912,2,0,B|220:92|220:272|440:188,1,350
192,72,119810,1,0,0:0:0:0:
252,316,119990,1,0,0:0:0:0:
372,96,120170,1,0,0:0:0:0:
140,208,120349,5,8,0:0:0:0:
384,264,120529,1,4,0:0:0:0:
184,104,120709,1,4,0:0:0:0:
284,332,120888,1,4,0:0:0:0:
72,192,121068,6,0,L|160:192,1,87.5
408,188,121427,2,0,L|312:192,1,87.5
72,56,121786,1,0,0:0:0:0:
184,280,121966,1,0,0:0:0:0:
296,56,122146,2,0,L|256:144,1,87.5
60,288,122505,2,0,B|144:184|144:184|240:268|360:208,1,350
36,120,123403,5,0,0:0:0:0:
280,88,123583,2,8,P|180:60|112:108,1,175
204,156,124122,1,0,0:0:0:0:
272,224,124301,2,8,P|264:304|160:356,1,175
176,256,124840,1,0,0:0:0:0:
120,184,125020,2,8,P|132:104|228:64,1,175
216,160,125559,1,0,0:0:0:0:
308,136,125739,2,8,P|384:88|484:140,1,175
396,188,126278,1,0,0:0:0:0:
392,280,126457,2,8,B|336:240|336:240|288:280|208:240,1,175
235,251,126996,5,0,0:0:0:0:
80,160,127176,1,0,0:0:0:0:
280,172,127355,1,0,0:0:0:0:
240,248,127535,6,0,P|200:184|260:92,1,175
300,176,128074,1,0,0:0:0:0:
208,12,128254,2,0,P|152:56|176:164,1,175
144,244,128792,1,0,0:0:0:0:
232,280,128972,1,0,0:0:0:0:
328,252,129152,1,0,0:0:0:0:
344,156,129331,2,0,L|216:156,1,87.5
156,192,129691,2,0,B|192:152|192:152|116:148|116:148|196:104|196:104|104:96|104:96|220:40|220:40|120:20,1,525
256,196,135439,6,0,B|296:132|296:132|232:92|260:28,1,167.999994873047
256,48,135978,1,0,0:0:0:0:
408,232,136158,2,0,B|316:288|316:288|272:232,1,167.999994873047
44,324,136697,1,0,0:0:0:0:
100,80,136876,2,0,B|168:24|168:24|240:96,1,167.999994873047
384,272,137415,1,0,0:0:0:0:
136,288,137595,1,0,0:0:0:0:
344,132,137775,1,0,0:0:0:0:
84,132,137954,2,0,P|152:72|248:96,1,167.999994873047
84,312,138493,5,0,0:0:0:0:
332,300,138673,2,0,B|352:264|320:256|336:216,1,83.9999974365235
80,236,139032,2,0,L|80:68,1,167.999994873047
428,344,139751,2,0,L|352:272,1,83.9999974365235
172,128,140110,2,0,L|256:200,1,83.9999974365235
48,352,140469,2,0,L|128:264,1,111.999996582031
280,36,140948,1,0,0:0:0:0:
392,300,141188,6,0,B|416:256|416:252|416:252|364:152|388:132,1,154.000004699707
72,208,141727,2,0,L|72:48,1,154.000004699707
352,116,142266,2,0,B|280:196|404:196|320:284,1,154.000004699707
60,276,142804,2,0,L|240:276,1,154.000004699707
416,80,143343,1,0,0:0:0:0:
136,96,143523,1,0,0:0:0:0:
380,252,143703,1,0,0:0:0:0:
100,200,143882,1,0,0:0:0:0:
344,340,144062,6,0,L|184:340,1,154.000004699707
200,88,144601,2,0,L|360:88,1,154.000004699707
344,340,145140,2,0,L|440:192,1,154.000004699707
200,88,145679,2,0,L|112:224,1,154.000004699707
112,224,146218,1,0,0:0:0:0:
296,160,146397,5,0,0:0:0:0:
44,292,146577,1,0,0:0:0:0:
208,72,146757,1,0,0:0:0:0:
228,272,146936,6,0,P|300:300|384:260,1,154.000004699707
300,200,147475,2,0,P|228:136|152:172,1,154.000004699707
120,216,148014,2,0,P|92:136|136:68,1,154.000004699707
180,152,148553,2,0,P|208:120|188:12,1,154.000004699707
396,340,149092,5,0,0:0:0:0:
272,88,149272,1,0,0:0:0:0:
196,360,149451,1,0,0:0:0:0:
412,176,149631,1,0,0:0:0:0:
128,192,149810,2,0,B|192:160|192:160|252:204|288:184,1,154.000004699707
228,96,150349,2,0,P|316:100|368:176,1,154.000004699707
428,88,150888,2,0,P|448:136|384:228,1,154.000004699707
344,304,151427,2,0,P|304:236|320:156,1,154.000004699707
315,164,151966,1,0,0:0:0:0:
288,36,152146,5,0,0:0:0:0:
200,288,152325,1,0,0:0:0:0:
424,120,152505,1,0,0:0:0:0:
140,128,152685,2,0,L|300:128,1,154.000004699707
124,356,153224,1,0,0:0:0:0:
136,360,153403,1,0,0:0:0:0:
40,96,153583,2,0,L|40:0,1,77.0000023498536
284,160,153942,1,0,0:0:0:0:
276,164,154122,2,0,L|192:212,1,77.0000023498536
468,320,154481,2,0,L|464:212,1,77.0000023498536
180,272,154840,5,0,0:0:0:0:
432,136,155020,1,0,0:0:0:0:
144,112,155200,1,0,0:0:0:0:
420,40,155379,1,0,0:0:0:0:
276,288,155559,2,0,L|276:116,1,154.000004699707
64,324,156098,2,0,L|72:224,1,77.0000023498536
72,236,156457,1,0,0:0:0:0:
284,44,156637,2,0,B|320:108|320:108|236:156|292:184,1,154.000004699707
480,360,157176,2,0,B|400:304|508:272|432:204,1,154.000004699707
184,332,157715,1,0,0:0:0:0:
396,152,157894,5,0,0:0:0:0:
164,232,158074,1,0,0:0:0:0:
348,72,158254,1,0,0:0:0:0:
88,184,158433,2,0,P|152:144|232:176,1,154.000004699707
456,328,158972,1,0,0:0:0:0:
168,324,159152,1,0,0:0:0:0:
392,160,159331,1,0,0:0:0:0:
84,112,159511,2,0,B|164:96|168:148|272:124,1,154.000004699707
52,352,160050,2,0,L|232:352,1,154.000004699707
416,160,160589,1,0,0:0:0:0:
136,200,160769,5,0,0:0:0:0:
388,72,160948,1,0,0:0:0:0:
272,328,161128,1,0,0:0:0:0:
132,76,161307,6,0,L|220:224,1,154.000004699707
472,104,161846,2,0,L|412:32,1,77.0000023498536
148,104,162206,1,0,0:0:0:0:
408,224,162385,2,0,B|360:168|316:224|256:144,1,154.000004699707
32,312,162924,2,0,L|168:224,1,154.000004699707
448,268,163463,1,0,0:0:0:0:
204,116,163643,5,0,0:0:0:0:
484,168,163822,1,0,0:0:0:0:
240,308,164002,1,0,0:0:0:0:
388,72,164182,1,4,0:0:0:0:
256,192,164272,12,0,167056,0:0:0:0:
256,188,175679,5,0,0:0:0:0:
256,188,175858,1,0,0:0:0:0:
256,188,176038,2,0,L|356:264,1,87.5
68,272,176397,2,0,P|32:192|92:96,1,175
132,192,176936,5,0,0:0:0:0:
216,308,177116,2,0,P|268:248|252:120,1,175
392,272,177655,2,0,L|456:204,1,87.5
352,116,178014,2,0,P|284:68|188:124,1,175
72,328,178553,5,0,0:0:0:0:
356,276,178733,2,0,L|172:316,1,175
336,72,179272,1,0,0:0:0:0:
56,120,179451,2,0,B|104:192|24:196|96:312,1,175
360,240,179990,1,0,0:0:0:0:
56,120,180170,2,0,B|148:116|144:168|236:172,1,175
472,40,180709,1,0,0:0:0:0:
192,76,180888,5,0,0:0:0:0:
412,248,181068,1,0,0:0:0:0:
132,288,181248,1,0,0:0:0:0:
112,272,181337,1,0,0:0:0:0:
96,252,181427,2,0,P|60:180|100:72,1,175
345,138,181966,1,0,0:0:0:0:
188,152,182146,6,0,B|264:76|352:144,1,175
272,212,182685,1,0,0:0:0:0:
356,56,182864,6,0,P|428:96|448:192,1,175
352,160,183403,1,0,0:0:0:0:
412,344,183583,2,0,L|324:316,1,87.5
168,216,183942,2,0,L|288:200,1,87.5
352,48,184301,1,0,0:0:0:0:
168,88,184481,1,0,0:0:0:0:
340,172,184661,1,0,0:0:0:0:
248,32,184840,1,0,0:0:0:0:
140,312,185020,6,0,P|116:252|148:136,1,175
148,144,185559,1,0,0:0:0:0:
252,228,185739,2,0,B|320:296|320:296|376:248|488:224,1,262.5
492,128,186457,2,0,P|444:128|388:160,1,87.5
400,144,186816,1,0,0:0:0:0:
48,40,187176,5,0,0:0:0:0:
320,120,187355,1,0,0:0:0:0:
48,208,187535,1,0,0:0:0:0:
328,248,187715,1,0,0:0:0:0:
56,312,187894,2,0,B|200:312|200:312|200:84,1,350
440,256,188792,5,0,0:0:0:0:
180,256,188972,1,0,0:0:0:0:
364,124,189152,1,0,0:0:0:0:
84,80,189331,6,0,B|156:152|156:152|76:184|72:288,1,262.5
408,136,190050,1,0,0:0:0:0:
208,328,190230,1,0,0:0:0:0:
272,48,190409,1,0,0:0:0:0:
372,316,190589,1,0,0:0:0:0:
112,128,190769,2,0,B|212:160|212:160|276:120|276:120|352:160|352:160|440:124|440:124|440:124,1,350
220,300,191667,5,0,0:0:0:0:
356,48,191846,1,0,0:0:0:0:
84,108,192026,1,0,0:0:0:0:
352,196,192206,5,0,0:0:0:0:
144,272,192565,1,0,0:0:0:0:
236,72,192924,1,0,0:0:0:0:
296,284,193284,1,0,0:0:0:0:
392,88,193643,1,0,0:0:0:0:
216,220,194002,1,0,0:0:0:0:
36,24,194361,5,0,0:0:0:0:
68,308,194541,1,0,0:0:0:0:
312,160,194721,2,0,L|228:216,1,87.5
476,360,195080,1,0,0:0:0:0:
468,80,195260,1,0,0:0:0:0:
184,80,195439,2,0,L|288:76,1,87.5
256,192,195709,12,0,198673,0:0:0:0:
408,280,199032,5,0,0:0:0:0:
148,104,199212,1,0,0:0:0:0:
464,76,199391,2,0,L|384:124,1,70
96,192,199751,2,0,L|96:348,1,140
408,304,200289,2,0,L|256:308,1,140
24,96,200828,1,0,0:0:0:0:
336,100,201008,5,0,0:0:0:0:
88,296,201188,1,0,0:0:0:0:
180,0,201367,1,0,0:0:0:0:
296,296,201547,2,0,L|232:144,1,140
16,380,202086,1,0,0:0:0:0:
64,40,202266,2,0,B|132:52|132:52|100:148,2,140
368,132,203164,2,0,L|232:88,1,140
32,328,203703,1,0,0:0:0:0:
344,300,203882,5,0,0:0:0:0:
40,208,204062,1,0,0:0:0:0:
352,188,204242,1,0,0:0:0:0:
44,112,204421,2,0,L|200:144,1,140
188,144,204960,1,0,0:0:0:0:
444,320,205140,1,0,0:0:0:0:
128,316,205319,1,0,0:0:0:0:
128,316,205499,2,0,L|40:204,1,140
41,205,206038,1,0,0:0:0:0:
41,205,206218,2,0,L|176:156,1,140
456,304,206757,5,0,0:0:0:0:
140,328,206936,1,0,0:0:0:0:
440,216,207116,1,0,0:0:0:0:
128,200,207295,2,0,B|160:96|160:96|224:92,1,140
196,96,207834,1,0,0:0:0:0:
420,324,208014,1,0,0:0:0:0:
104,296,208194,1,0,0:0:0:0:
100,288,208373,2,0,L|232:216,1,140
472,16,208912,2,0,L|472:176,1,140
156,120,209451,6,0,L|252:128,1,70
464,320,209810,2,0,L|376:288,1,70
88,256,210170,1,0,0:0:0:0:
