osu file format v14

[General]
AudioFilename: fnedge.mp3
AudioLeadIn: 1500
PreviewTime: 41921
Countdown: 0
SampleSet: Normal
StackLeniency: 0.7
Mode: 3
LetterboxInBreaks: 0
SpecialStyle: 0
WidescreenStoryboard: 1

[Editor]
Bookmarks: 69563
DistanceSpacing: 1
BeatDivisor: 4
GridSize: 16
TimelineZoom: 1

[Metadata]
Title:FNDEGE.GURP
TitleUnicode:FNDEGE.GURP
Artist:Beardyman
ArtistUnicode:Beardyman
Creator:Agka
Version:bt5kSV
Source:
Tags:
BeatmapID:1881532
BeatmapSetID:901011

[Difficulty]
HPDrainRate:8.6
CircleSize:4
OverallDifficulty:8
ApproachRate:9
SliderMultiplier:1.4
SliderTickRate:1

[Events]
//Background and Video events
0,0,"939x0w.jpg",0,0
//Break Periods
//Storyboard Layer 0 (Background)
//Storyboard Layer 1 (Fail)
//Storyboard Layer 2 (Pass)
//Storyboard Layer 3 (Foreground)
//Storyboard Sound Samples

[TimingPoints]
0,262.0087,4,1,0,15,1,0
0,-100,4,1,0,15,0,0
23056,-10,4,2,0,15,0,0
23092,-1000,4,2,0,15,0,0
23449,-10,4,2,0,15,0,0
23473,-1000,4,2,0,15,0,0
23711,-10,4,2,0,15,0,0
23723,-1000,4,2,0,15,0,0
23842,-10,4,2,0,15,0,0
23854,-1000,4,2,0,15,0,0
23973,-10,4,2,0,15,0,0
23985,-1000,4,2,0,15,0,0
24104,-10,4,2,0,15,0,0
24116,-1000,4,2,0,15,0,0
24235,-10,4,2,0,15,0,0
24247,-1000,4,2,0,15,0,0
24366,-10,4,2,0,15,0,0
24378,-1000,4,2,0,15,0,0
24497,-10,4,2,0,15,0,0
24509,-1000,4,2,0,15,0,0
24628,-10,4,2,0,15,0,0
24640,-1000,4,2,0,15,0,0
24759,-10,4,2,0,15,0,0
24771,-1000,4,2,0,15,0,0
24890,-10,4,2,0,15,0,0
24902,-1000,4,2,0,15,0,0
25021,-10,4,2,0,15,0,0
25033,-1000,4,2,0,15,0,0
25152,-10,4,2,0,15,0,0
25164,-1000,4,2,0,15,0,0
25283,-10,4,2,0,15,0,0
25307,-1000,4,2,0,15,0,0
25545,-10,4,2,0,15,0,0
25557,-1000,4,2,0,15,0,0
25677,-10,4,2,0,15,0,0
25701,-1000,4,2,0,15,0,0
25939,-10,4,2,0,15,0,0
25963,-1000,4,2,0,15,0,0
26201,-10,4,2,0,15,0,0
26213,-1000,4,2,0,15,0,0
26332,-10,4,2,0,15,0,0
26344,-1000,4,2,0,15,0,0
26463,-10,4,2,0,15,0,0
26475,-1000,4,2,0,15,0,0
26594,-10,4,2,0,15,0,0
26606,-1000,4,2,0,15,0,0
26725,-10,4,2,0,15,0,0
26737,-1000,4,2,0,15,0,0
26856,-10,4,2,0,15,0,0
26868,-1000,4,2,0,15,0,0
26987,-10,4,2,0,15,0,0
26999,-1000,4,2,0,15,0,0
27118,-10,4,2,0,15,0,0
27130,-1000,4,2,0,15,0,0
27249,-10,4,2,0,15,0,0
27261,-1000,4,2,0,15,0,0
27380,-10,4,2,0,15,0,0
27392,-1000,4,2,0,15,0,0
27511,-10,4,2,0,15,0,0
27523,-1000,4,2,0,15,0,0
27642,-10,4,2,0,15,0,0
27666,-1000,4,2,0,15,0,0
27903,-10,4,2,0,15,0,0
27915,-1000,4,2,0,15,0,0
28034,-10,4,2,0,15,0,0
28034,-1000,4,2,0,15,0,0
28035,-10,4,2,0,15,0,0
28059,-1000,4,2,0,15,0,0
28296,-10,4,2,0,15,0,0
28296,-1000,4,2,0,15,0,0
28297,-10,4,2,0,15,0,0
28309,-1000,4,2,0,15,0,0
28427,-10,4,2,0,15,0,0
28451,-1000,4,2,0,15,0,0
28689,-1000,4,2,0,15,0,0
28689,-10,4,2,0,15,0,0
28690,-10,4,2,0,15,0,0
28714,-1000,4,2,0,15,0,0
28951,-10,4,2,0,15,0,0
28963,-1000,4,2,0,15,0,0
29082,-10,4,2,0,15,0,0
29094,-1000,4,2,0,15,0,0
29213,-10,4,2,0,15,0,0
29225,-1000,4,2,0,15,0,0
29344,-10,4,2,0,15,0,0
29344,-1000,4,2,0,15,0,0
29345,-10,4,2,0,15,0,0
29357,-1000,4,2,0,15,0,0
29475,-10,4,2,0,15,0,0
29487,-1000,4,2,0,15,0,0
29606,-10,4,2,0,15,0,0
29618,-1000,4,2,0,15,0,0
29737,-1000,4,2,0,15,0,0
29737,-10,4,2,0,15,0,0
29738,-10,4,2,0,15,0,0
29750,-1000,4,2,0,15,0,0
29868,-10,4,2,0,15,0,0
29880,-1000,4,2,0,15,0,0
29999,-10,4,2,0,15,0,0
30011,-1000,4,2,0,15,0,0
30131,-10,4,2,0,15,0,0
30143,-1000,4,2,0,15,0,0
30262,-10,4,2,0,15,0,0
30274,-1000,4,2,0,15,0,0
30393,-10,4,2,0,15,0,0
30405,-1000,4,2,0,15,0,0
30524,-10,4,2,0,15,0,0
30536,-1000,4,2,0,15,0,0
30655,-10,4,2,0,15,0,0
30667,-1000,4,2,0,15,0,0
30786,-10,4,2,0,15,0,0
30798,-1000,4,2,0,15,0,0
30917,-10,4,2,0,15,0,0
30929,-1000,4,2,0,15,0,0
31048,-10,4,2,0,15,0,0
31060,-1000,4,2,0,15,0,0
31179,-10,4,2,0,15,0,0
31191,-1000,4,2,0,15,0,0
31310,-10,4,2,0,15,0,0
31322,-1000,4,2,0,15,0,0
31441,-10,4,2,0,15,0,0
31477,-1000,4,2,0,15,0,0
31834,-10,4,2,0,15,0,0
31858,-1000,4,2,0,15,0,0
32096,-10,4,2,0,15,0,0
32108,-1000,4,2,0,15,0,0
32227,-10,4,2,0,15,0,0
32239,-1000,4,2,0,15,0,0
32358,-10,4,2,0,15,0,0
32370,-1000,4,2,0,15,0,0
32489,-10,4,2,0,15,0,0
32501,-1000,4,2,0,15,0,0
32620,-10,4,2,0,15,0,0
32632,-1000,4,2,0,15,0,0
32751,-10,4,2,0,15,0,0
32763,-1000,4,2,0,15,0,0
32882,-10,4,2,0,15,0,0
32894,-1000,4,2,0,15,0,0
33013,-10,4,2,0,15,0,0
33025,-1000,4,2,0,15,0,0
33144,-10,4,2,0,15,0,0
33156,-1000,4,2,0,15,0,0
33275,-10,4,2,0,15,0,0
33287,-1000,4,2,0,15,0,0
33406,-10,4,2,0,15,0,0
33418,-1000,4,2,0,15,0,0
33537,-10,4,2,0,15,0,0
33549,-1000,4,2,0,15,0,0
33668,-10,4,2,0,15,0,0
33680,-1000,4,2,0,15,0,0
33799,-10,4,2,0,15,0,0
33811,-1000,4,2,0,15,0,0
33930,-10,4,2,0,15,0,0
33942,-1000,4,2,0,15,0,0
34061,-10,4,2,0,15,0,0
34073,-1000,4,2,0,15,0,0
34192,-10,4,2,0,15,0,0
34204,-1000,4,2,0,15,0,0
34323,-10,4,2,0,15,0,0
34335,-1000,4,2,0,15,0,0
34454,-10,4,2,0,15,0,0
34466,-1000,4,2,0,15,0,0
34585,-10,4,2,0,15,0,0
34597,-1000,4,2,0,15,0,0
34716,-10,4,2,0,15,0,0
34728,-1000,4,2,0,15,0,0
34847,-10,4,2,0,15,0,0
34859,-1000,4,2,0,15,0,0
34978,-10,4,2,0,15,0,0
34990,-1000,4,2,0,15,0,0
35109,-10,4,2,0,15,0,0
35121,-1000,4,2,0,15,0,0
35240,-10,4,2,0,15,0,0
35252,-1000,4,2,0,15,0,0
35371,-10,4,2,0,15,0,0
35383,-1000,4,2,0,15,0,0
35502,-10,4,2,0,15,0,0
35514,-1000,4,2,0,15,0,0
35633,-10,4,2,0,15,0,0
35645,-1000,4,2,0,15,0,0
35764,-10,4,2,0,15,0,0
35776,-1000,4,2,0,15,0,0
35895,-10,4,2,0,15,0,0
35907,-1000,4,2,0,15,0,0
36026,-10,4,2,0,15,0,0
36050,-1000,4,2,0,15,0,0
36288,-10,4,2,0,15,0,0
36300,-1000,4,2,0,15,0,0
36419,-10,4,2,0,15,0,0
36431,-1000,4,2,0,15,0,0
36550,-10,4,2,0,15,0,0
36562,-1000,4,2,0,15,0,0
36681,-10,4,2,0,15,0,0
36693,-1000,4,2,0,15,0,0
36812,-10,4,2,0,15,0,0
36824,-1000,4,2,0,15,0,0
36943,-10,4,2,0,15,0,0
36955,-1000,4,2,0,15,0,0
37074,-10,4,2,0,15,0,0
37086,-1000,4,2,0,15,0,0
37205,-10,4,2,0,15,0,0
37217,-1000,4,2,0,15,0,0
37336,-10,4,2,0,15,0,0
37348,-1000,4,2,0,15,0,0
37467,-10,4,2,0,15,0,0
37479,-1000,4,2,0,15,0,0
37598,-10,4,2,0,15,0,0
37610,-1000,4,2,0,15,0,0
37729,-10,4,2,0,15,0,0
37741,-1000,4,2,0,15,0,0
37860,-10,4,2,0,15,0,0
37872,-1000,4,2,0,15,0,0
37991,-10,4,2,0,15,0,0
38003,-1000,4,2,0,15,0,0
38122,-10,4,2,0,15,0,0
38134,-1000,4,2,0,15,0,0
38253,-10,4,2,0,15,0,0
38265,-1000,4,2,0,15,0,0
38384,-10,4,2,0,15,0,0
38396,-1000,4,2,0,15,0,0
38515,-10,4,2,0,15,0,0
38527,-1000,4,2,0,15,0,0
38777,262.008733624454,4,2,0,15,1,0
38777,-100,4,2,0,15,0,0
38843,262.008733624454,4,2,0,15,1,0
38843,-99.9467118010019,4,2,0,15,0,0
38908,262.008733624454,4,2,0,15,1,0
38908,-99.6503562619914,4,2,0,15,0,0
38974,262.008733624454,4,2,0,15,1,0
38974,-98.9546808396565,4,2,0,15,0,0
39039,262.008733624454,4,2,0,15,1,0
39039,-97.7430743066431,4,2,0,15,0,0
39105,262.008733624454,4,2,0,15,1,0
39105,-95.9370062406291,4,2,0,15,0,0
39170,262.008733624454,4,2,0,15,1,0
39170,-93.5000673133958,4,2,0,15,0,0
39236,262.008733624454,4,2,0,15,1,0
39236,-90.4404013697083,4,2,0,15,0,0
39301,262.008733624454,4,2,0,15,1,0
39301,-86.808929705778,4,2,0,15,0,0
39367,262.008733624454,4,2,0,15,1,0
39367,-82.6926849780023,4,2,0,15,0,0
39432,262.008733624454,4,2,0,15,1,0
39432,-78.2041362647923,4,2,0,15,0,0
39498,262.008733624454,4,2,0,15,1,0
39498,-73.4684679985049,4,2,0,15,0,0
39563,262.008733624454,4,2,0,15,1,0
39563,-68.6111204148519,4,2,0,15,0,0
39629,262.008733624454,4,2,0,15,1,0
39629,-63.7475159229722,4,2,0,15,0,0
39694,262.008733624454,4,2,0,15,1,0
39694,-58.9760638224292,4,2,0,15,0,0
39760,262.008733624454,4,2,0,15,1,0
39760,-54.3746331237707,4,2,0,15,0,0
39825,262.008733624454,4,2,0,15,1,0
39825,-133.333333333333,4,2,0,15,0,0
39891,262.008733624454,4,2,0,15,1,0
39956,262.008733624454,4,2,0,15,1,0
40022,262.008733624454,4,2,0,15,1,0
40087,262.008733624454,4,2,0,15,1,0
40153,262.008733624454,4,2,0,15,1,0
40218,262.008733624454,4,2,0,15,1,0
40284,262.008733624454,4,2,0,15,1,0
40349,262.008733624454,4,2,0,15,1,0
40349,-50,4,2,0,15,0,0
40415,262.008733624454,4,2,0,15,1,0
40415,-50.0133327068886,4,2,0,15,0,0
40480,262.008733624454,4,2,0,15,1,0
40480,-50.0878717918286,4,2,0,15,0,0
40546,262.008733624454,4,2,0,15,1,0
40546,-50.2654926585292,4,2,0,15,0,0
40611,262.008733624454,4,2,0,15,1,0
40611,-50.5840021657314,4,2,0,15,0,0
40677,262.008733624454,4,2,0,15,1,0
40677,-51.0816707632547,4,2,0,15,0,0
40742,262.008733624454,4,2,0,15,1,0
40742,-51.8005333558458,4,2,0,15,0,0
40808,262.008733624454,4,2,0,15,1,0
40808,-52.7899636475245,4,2,0,15,0,0
40873,262.008733624454,4,2,0,15,1,0
40873,-54.1112430058593,4,2,0,15,0,0
40939,262.008733624454,4,2,0,15,1,0
40939,-55.843983779268,4,2,0,15,0,0
41004,262.008733624454,4,2,0,15,1,0
41004,-58.095785496455,4,2,0,15,0,0
41070,262.008733624454,4,2,0,15,1,0
41070,-61.017583563975,4,2,0,15,0,0
41135,262.008733624454,4,2,0,15,1,0
41135,-64.8293880190651,4,2,0,15,0,0
41201,262.008733624454,4,2,0,15,1,0
41201,-69.8659972586703,4,2,0,15,0,0
41266,262.008733624454,4,2,0,15,1,0
41266,-76.6637856649831,4,2,0,15,0,0
41332,262.008733624454,4,2,0,15,1,0
41332,-86.1395345745741,4,2,0,15,0,0
41397,262.008733624454,4,2,0,15,1,0
41397,-10,4,2,0,15,0,0
41405,-1000,4,2,0,15,0,0
41463,262.008733624454,4,2,0,15,1,0
41484,-10,4,2,0,15,0,0
41492,-1000,4,2,0,15,0,0
41528,262.008733624454,4,2,0,15,1,0
41572,-10,4,2,0,15,0,0
41580,-1000,4,2,0,15,0,0
41594,262.008733624454,4,2,0,15,1,0
41659,262.008733624454,4,2,0,15,1,0
41659,-10,4,2,0,15,0,0
41667,-1000,4,2,0,15,0,0
41725,262.008733624454,4,2,0,15,1,0
41746,-10,4,2,0,15,0,0
41754,-1000,4,2,0,15,0,0
41790,262.008733624454,4,2,0,15,1,0
41834,-10,4,2,0,15,0,0
41842,-1000,4,2,0,15,0,0
41856,262.008733624454,4,2,0,15,1,0
41921,-100,4,2,0,15,0,0
42052,-10,4,2,0,15,0,0
42064,-1000,4,2,0,15,0,0
42183,-10,4,2,0,15,0,0
42195,-1000,4,2,0,15,0,0
42314,-10,4,2,0,15,0,0
42326,-1000,4,2,0,15,0,0
42445,-10,4,2,0,15,0,0
42457,-1000,4,2,0,15,0,0
42576,-10,4,2,0,15,0,0
42588,-1000,4,2,0,15,0,0
42707,-10,4,2,0,15,0,0
42719,-1000,4,2,0,15,0,0
42838,-10,4,2,0,15,0,0
42850,-1000,4,2,0,15,0,0
42969,262.008733624454,4,2,0,15,1,0
42969,-10,4,2,0,15,0,0
42981,-1000,4,2,0,15,0,0
43100,-10,4,2,0,15,0,0
43112,-1000,4,2,0,15,0,0
43231,-10,4,2,0,15,0,0
43243,-1000,4,2,0,15,0,0
43362,-10,4,2,0,15,0,0
43374,-1000,4,2,0,15,0,0
43493,-10,4,2,0,15,0,0
43505,-1000,4,2,0,15,0,0
43624,-10,4,2,0,15,0,0
43636,-1000,4,2,0,15,0,0
43755,-10,4,2,0,15,0,0
43767,-1000,4,2,0,15,0,0
43886,-10,4,2,0,15,0,0
43898,-1000,4,2,0,15,0,0
44017,-10,4,2,0,15,0,0
44029,-1000,4,2,0,15,0,0
44148,-10,4,2,0,15,0,0
44160,-1000,4,2,0,15,0,0
44279,-10,4,2,0,15,0,0
44291,-1000,4,2,0,15,0,0
44410,-10,4,2,0,15,0,0
44434,-1000,4,2,0,15,0,0
44672,-10,4,2,0,15,0,0
44684,-1000,4,2,0,15,0,0
44803,-10,4,2,0,15,0,0
44815,-1000,4,2,0,15,0,0
44934,-10,4,2,0,15,0,0
44958,-1000,4,2,0,15,0,0
45197,-10,4,2,0,15,0,0
45221,-1000,4,2,0,15,0,0
45459,-10,4,2,0,15,0,0
45471,-1000,4,2,0,15,0,0
45590,-10,4,2,0,15,0,0
45602,-1000,4,2,0,15,0,0
45721,-10,4,2,0,15,0,0
45733,-1000,4,2,0,15,0,0
45852,-10,4,2,0,15,0,0
45864,-1000,4,2,0,15,0,0
45983,-10,4,2,0,15,0,0
45995,-1000,4,2,0,15,0,0
46114,-10,4,2,0,15,0,0
46126,-1000,4,2,0,15,0,0
46245,-10,4,2,0,15,0,0
46257,-1000,4,2,0,15,0,0
46376,-10,4,2,0,15,0,0
46388,-1000,4,2,0,15,0,0
46507,-10,4,2,0,15,0,0
46519,-1000,4,2,0,15,0,0
46638,-10,4,2,0,15,0,0
46662,-1000,4,2,0,15,0,0
46900,-10,4,2,0,15,0,0
46912,-1000,4,2,0,15,0,0
47031,-10,4,2,0,15,0,0
47043,-1000,4,2,0,15,0,0
47162,-10,4,2,0,15,0,0
47174,-1000,4,2,0,15,0,0
47293,-10,4,2,0,15,0,0
47305,-1000,4,2,0,15,0,0
47424,-10,4,2,0,15,0,0
47436,-1000,4,2,0,15,0,0
47555,-10,4,2,0,15,0,0
47567,-1000,4,2,0,15,0,0
47686,-10,4,2,0,15,0,0
47698,-1000,4,2,0,15,0,0
47817,-10,4,2,0,15,0,0
47841,-1000,4,2,0,15,0,0
48079,-10,4,2,0,15,0,0
48091,-1000,4,2,0,15,0,0
48210,-10,4,2,0,15,0,0
48222,-1000,4,2,0,15,0,0
48341,-10,4,2,0,15,0,0
48377,-1000,4,2,0,15,0,0
48734,-10,4,2,0,15,0,0
48746,-1000,4,2,0,15,0,0
48865,-10,4,2,0,15,0,0
48877,-1000,4,2,0,15,0,0
48996,-10,4,2,0,15,0,0
49008,-1000,4,2,0,15,0,0
49127,-10,4,2,0,15,0,0
49151,-1000,4,2,0,15,0,0
49389,-10,4,2,0,15,0,0
49413,-1000,4,2,0,15,0,0
49651,-10,4,2,0,15,0,0
49663,-1000,4,2,0,15,0,0
49782,-10,4,2,0,15,0,0
49794,-1000,4,2,0,15,0,0
49913,-10,4,2,0,15,0,0
49925,-1000,4,2,0,15,0,0
50044,-10,4,2,0,15,0,0
50056,-1000,4,2,0,15,0,0
50175,-10,4,2,0,15,0,0
50187,-1000,4,2,0,15,0,0
50306,-10,4,2,0,15,0,0
50318,-1000,4,2,0,15,0,0
50437,-10,4,2,0,15,0,0
50461,-1000,4,2,0,15,0,0
50699,-10,4,2,0,15,0,0
50711,-1000,4,2,0,15,0,0
50830,-10,4,2,0,15,0,0
50842,-1000,4,2,0,15,0,0
50961,-10,4,2,0,15,0,0
50973,-1000,4,2,0,15,0,0
51092,-10,4,2,0,15,0,0
51104,-1000,4,2,0,15,0,0
51223,-10,4,2,0,15,0,0
51247,-1000,4,2,0,15,0,0
51485,-10,4,2,0,15,0,0
51497,-1000,4,2,0,15,0,0
51616,-10,4,2,0,15,0,0
51628,-1000,4,2,0,15,0,0
51747,-10,4,2,0,15,0,0
51759,-1000,4,2,0,15,0,0
51878,-10,4,2,0,15,0,0
51890,-1000,4,2,0,15,0,0
52008,-100,4,2,0,15,0,0
52402,-10,4,2,0,15,0,0
52414,-1000,4,2,0,15,0,0
52533,-10,4,2,0,15,0,0
52545,-1000,4,2,0,15,0,0
52664,-10,4,2,0,15,0,0
52676,-1000,4,2,0,15,0,0
52795,-10,4,2,0,15,0,0
52819,-1000,4,2,0,15,0,0
53057,-10,4,2,0,15,0,0
53069,-1000,4,2,0,15,0,0
53188,-10,4,2,0,15,0,0
53200,-1000,4,2,0,15,0,0
53319,-10,4,2,0,15,0,0
53331,-1000,4,2,0,15,0,0
53450,-10,4,2,0,15,0,0
53462,-1000,4,2,0,15,0,0
53581,-10,4,2,0,15,0,0
53593,-1000,4,2,0,15,0,0
53712,-10,4,2,0,15,0,0
53724,-1000,4,2,0,15,0,0
53843,-10,4,2,0,15,0,0
53855,-1000,4,2,0,15,0,0
53974,-10,4,2,0,15,0,0
53986,-1000,4,2,0,15,0,0
54105,-10,4,2,0,15,0,0
54117,-1000,4,2,0,15,0,0
54236,-10,4,2,0,15,0,0
54248,-1000,4,2,0,15,0,0
54367,-10,4,2,0,15,0,0
54379,-1000,4,2,0,15,0,0
54498,-10,4,2,0,15,0,0
54510,-1000,4,2,0,15,0,0
54629,-10,4,2,0,15,0,0
54641,-1000,4,2,0,15,0,0
54760,-10,4,2,0,15,0,0
54772,-1000,4,2,0,15,0,0
54891,-10,4,2,0,15,0,0
54903,-1000,4,2,0,15,0,0
55022,-10,4,2,0,15,0,0
55034,-1000,4,2,0,15,0,0
55153,-10,4,2,0,15,0,0
55165,-1000,4,2,0,15,0,0
55284,-10,4,2,0,15,0,0
55296,-1000,4,2,0,15,0,0
55415,-10,4,2,0,15,0,0
55427,-1000,4,2,0,15,0,0
55546,-10,4,2,0,15,0,0
55558,-1000,4,2,0,15,0,0
55677,-10,4,2,0,15,0,0
55689,-1000,4,2,0,15,0,0
55808,-10,4,2,0,15,0,0
55820,-1000,4,2,0,15,0,0
55939,-10,4,2,0,15,0,0
55951,-1000,4,2,0,15,0,0
56070,-10,4,2,0,15,0,0
56082,-1000,4,2,0,15,0,0
56200,-100,4,2,0,15,0,0
56594,-10,4,2,0,15,0,0
56606,-1000,4,2,0,15,0,0
56725,-10,4,2,0,15,0,0
56737,-1000,4,2,0,15,0,0
56856,-10,4,2,0,15,0,0
56868,-1000,4,2,0,15,0,0
56987,-10,4,2,0,15,0,0
56999,-1000,4,2,0,15,0,0
57118,-10,4,2,0,15,0,0
57130,-1000,4,2,0,15,0,0
57249,-10,4,2,0,15,0,0
57261,-1000,4,2,0,15,0,0
57380,-10,4,2,0,15,0,0
57392,-1000,4,2,0,15,0,0
57511,-10,4,2,0,15,0,0
57523,-1000,4,2,0,15,0,0
57642,-10,4,2,0,15,0,0
57654,-1000,4,2,0,15,0,0
57773,-10,4,2,0,15,0,0
57785,-1000,4,2,0,15,0,0
57904,-10,4,2,0,15,0,0
57916,-1000,4,2,0,15,0,0
58035,-10,4,2,0,15,0,0
58047,-1000,4,2,0,15,0,0
58166,-10,4,2,0,15,0,0
58178,-1000,4,2,0,15,0,0
58297,-10,4,2,0,15,0,0
58309,-1000,4,2,0,15,0,0
58428,-10,4,2,0,15,0,0
58440,-1000,4,2,0,15,0,0
58559,-10,4,2,0,15,0,0
58571,-1000,4,2,0,15,0,0
58690,-10,4,2,0,15,0,0
58702,-1000,4,2,0,15,0,0
58821,-10,4,2,0,15,0,0
58833,-1000,4,2,0,15,0,0
58952,-10,4,2,0,15,0,0
58964,-1000,4,2,0,15,0,0
59083,-10,4,2,0,15,0,0
59095,-1000,4,2,0,15,0,0
59214,-10,4,2,0,15,0,0
59226,-1000,4,2,0,15,0,0
59345,-10,4,2,0,15,0,0
59357,-1000,4,2,0,15,0,0
59476,-10,4,2,0,15,0,0
59476,-10,4,2,0,15,0,0
59482,-1000,4,2,0,15,0,0
59482,-1000,4,2,0,15,0,0
59541,-10,4,2,0,15,0,0
59547,-1000,4,2,0,15,0,0
59607,-10,4,2,0,15,0,0
59613,-1000,4,2,0,15,0,0
59672,-10,4,2,0,15,0,0
59678,-1000,4,2,0,15,0,0
59738,-10,4,2,0,15,0,0
59744,-1000,4,2,0,15,0,0
59803,-10,4,2,0,15,0,0
59809,-1000,4,2,0,15,0,0
59869,-10,4,2,0,15,0,0
59873,-1000,4,2,0,15,0,0
59913,-10,4,2,0,15,0,0
59917,-1000,4,2,0,15,0,0
59956,-10,4,2,0,15,0,0
59960,-1000,4,2,0,15,0,0
60000,-10,4,2,0,15,0,0
60004,-1000,4,2,0,15,0,0
60044,-10,4,2,0,15,0,0
60048,-1000,4,2,0,15,0,0
60087,-10,4,2,0,15,0,0
60091,-1000,4,2,0,15,0,0
60131,-10,4,2,0,15,0,0
60135,-1000,4,2,0,15,0,0
60175,-10,4,2,0,15,0,0
60179,-1000,4,2,0,15,0,0
60218,-10,4,2,0,15,0,0
60222,-1000,4,2,0,15,0,0
60262,-10,4,2,0,15,0,0
60268,-1000,4,2,0,15,0,0
60328,-10,4,2,0,15,0,0
60334,-1000,4,2,0,15,0,0
60393,-10,4,2,0,15,0,0
60399,-1000,4,2,0,15,0,0
60459,-10,4,2,0,15,0,0
60465,-1000,4,2,0,15,0,0
60524,-10,4,2,0,15,0,0
60528,-1000,4,2,0,15,0,0
60568,-10,4,2,0,15,0,0
60572,-1000,4,2,0,15,0,0
60611,-10,4,2,0,15,0,0
60615,-1000,4,2,0,15,0,0
60655,-10,4,2,0,15,0,0
60659,-1000,4,2,0,15,0,0
60699,-10,4,2,0,15,0,0
60707,-1000,4,2,0,15,0,0
60786,-10,4,2,0,15,0,0
60798,-1000,4,2,0,15,0,0
60917,-10,4,2,0,15,0,0
60929,-1000,4,2,0,15,0,0
61048,-10,4,2,0,15,0,0
61060,-1000,4,2,0,15,0,0
61179,-10,4,2,0,15,0,0
61191,-1000,4,2,0,15,0,0
61310,-10,4,2,0,15,0,0
61322,-1000,4,2,0,15,0,0
61441,-10,4,2,0,15,0,0
61453,-1000,4,2,0,15,0,0
61572,-10,4,2,0,15,0,0
61584,-1000,4,2,0,15,0,0
61703,-10,4,2,0,15,0,0
61715,-1000,4,2,0,15,0,0
61834,-10,4,2,0,15,0,0
61846,-1000,4,2,0,15,0,0
61965,-10,4,2,0,15,0,0
61977,-1000,4,2,0,15,0,0
62096,-10,4,2,0,15,0,0
62108,-1000,4,2,0,15,0,0
62227,-10,4,2,0,15,0,0
62239,-1000,4,2,0,15,0,0
62358,-10,4,2,0,15,0,0
62370,-1000,4,2,0,15,0,0
62489,-10,4,2,0,15,0,0
62501,-1000,4,2,0,15,0,0
62620,-10,4,2,0,15,0,0
62632,-1000,4,2,0,15,0,0
62751,-10,4,2,0,15,0,0
62763,-1000,4,2,0,15,0,0
62882,-10,4,2,0,15,0,0
62894,-1000,4,2,0,15,0,0
63013,-10,4,2,0,15,0,0
63025,-1000,4,2,0,15,0,0
63144,-10,4,2,0,15,0,0
63156,-1000,4,2,0,15,0,0
63275,-10,4,2,0,15,0,0
63287,-1000,4,2,0,15,0,0
63406,-10,4,2,0,15,0,0
63418,-1000,4,2,0,15,0,0
63537,-10,4,2,0,15,0,0
63549,-1000,4,2,0,15,0,0
63668,-10,4,2,0,15,0,0
63674,-1000,4,2,0,15,0,0
63734,-10,4,2,0,15,0,0
63740,-1000,4,2,0,15,0,0
63799,-10,4,2,0,15,0,0
63805,-1000,4,2,0,15,0,0
63865,-10,4,2,0,15,0,0
63871,-1000,4,2,0,15,0,0
63930,-10,4,2,0,15,0,0
63936,-1000,4,2,0,15,0,0
63996,-10,4,2,0,15,0,0
64002,-1000,4,2,0,15,0,0
64061,-10,4,2,0,15,0,0
64065,-1000,4,2,0,15,0,0
64105,-10,4,2,0,15,0,0
64109,-1000,4,2,0,15,0,0
64148,-10,4,2,0,15,0,0
64152,-1000,4,2,0,15,0,0
64192,-10,4,2,0,15,0,0
64196,-1000,4,2,0,15,0,0
64236,-10,4,2,0,15,0,0
64240,-1000,4,2,0,15,0,0
64279,-10,4,2,0,15,0,0
64283,-1000,4,2,0,15,0,0
64323,-10,4,2,0,15,0,0
64327,-1000,4,2,0,15,0,0
64367,-10,4,2,0,15,0,0
64371,-1000,4,2,0,15,0,0
64410,-10,4,2,0,15,0,0
64414,-1000,4,2,0,15,0,0
64454,-10,4,2,0,15,0,0
64460,-1000,4,2,0,15,0,0
64520,-10,4,2,0,15,0,0
64526,-1000,4,2,0,15,0,0
64585,-10,4,2,0,15,0,0
64591,-1000,4,2,0,15,0,0
64651,-10,4,2,0,15,0,0
64657,-1000,4,2,0,15,0,0
64716,-10,4,2,0,15,0,0
64720,-1000,4,2,0,15,0,0
64760,-10,4,2,0,15,0,0
64764,-1000,4,2,0,15,0,0
64803,-10,4,2,0,15,0,0
64807,-1000,4,2,0,15,0,0
64847,-10,4,2,0,15,0,0
64851,-1000,4,2,0,15,0,0
64891,-10,4,2,0,15,0,0
64899,-1000,4,2,0,15,0,0
64978,-10,4,2,0,15,0,0
64990,-1000,4,2,0,15,0,0
65109,-10,4,2,0,15,0,0
65121,-1000,4,2,0,15,0,0
65240,-10,4,2,0,15,0,0
65252,-1000,4,2,0,15,0,0
65371,-10,4,2,0,15,0,0
65383,-1000,4,2,0,15,0,0
65502,-10,4,2,0,15,0,0
65514,-1000,4,2,0,15,0,0
65633,-10,4,2,0,15,0,0
65645,-1000,4,2,0,15,0,0
65764,-10,4,2,0,15,0,0
65776,-1000,4,2,0,15,0,0
65895,-10,4,2,0,15,0,0
65907,-1000,4,2,0,15,0,0
66026,-10,4,2,0,15,0,0
66038,-1000,4,2,0,15,0,0
66157,-10,4,2,0,15,0,0
66169,-1000,4,2,0,15,0,0
66288,-10,4,2,0,15,0,0
66300,-1000,4,2,0,15,0,0
66419,-10,4,2,0,15,0,0
66431,-1000,4,2,0,15,0,0
66550,-10,4,2,0,15,0,0
66562,-1000,4,2,0,15,0,0
66681,-10,4,2,0,15,0,0
66693,-1000,4,2,0,15,0,0
66812,-10,4,2,0,15,0,0
66824,-1000,4,2,0,15,0,0
66943,-10,4,2,0,15,0,0
66955,-1000,4,2,0,15,0,0
67074,-10,4,2,0,15,0,0
67086,-1000,4,2,0,15,0,0
67205,-10,4,2,0,15,0,0
67217,-1000,4,2,0,15,0,0
67336,-10,4,2,0,15,0,0
67348,-1000,4,2,0,15,0,0
67467,-10,4,2,0,15,0,0
67479,-1000,4,2,0,15,0,0
67598,-10,4,2,0,15,0,0
67610,-1000,4,2,0,15,0,0
67729,-10,4,2,0,15,0,0
67741,-1000,4,2,0,15,0,0
67860,-10,4,2,0,15,0,0
67866,-1000,4,2,0,15,0,0
67926,-10,4,2,0,15,0,0
67932,-1000,4,2,0,15,0,0
67991,-10,4,2,0,15,0,0
67997,-1000,4,2,0,15,0,0
68057,-10,4,2,0,15,0,0
68063,-1000,4,2,0,15,0,0
68122,-10,4,2,0,15,0,0
68128,-1000,4,2,0,15,0,0
68188,-10,4,2,0,15,0,0
68194,-1000,4,2,0,15,0,0
68253,-10,4,2,0,15,0,0
68257,-1000,4,2,0,15,0,0
68297,-10,4,2,0,15,0,0
68301,-1000,4,2,0,15,0,0
68341,-10,4,2,0,15,0,0
68345,-1000,4,2,0,15,0,0
68384,-10,4,2,0,15,0,0
68388,-1000,4,2,0,15,0,0
68428,-10,4,2,0,15,0,0
68432,-1000,4,2,0,15,0,0
68472,-10,4,2,0,15,0,0
68476,-1000,4,2,0,15,0,0
68515,-10,4,2,0,15,0,0
68519,-1000,4,2,0,15,0,0
68559,-10,4,2,0,15,0,0
68563,-1000,4,2,0,15,0,0
68603,-10,4,2,0,15,0,0
68607,-1000,4,2,0,15,0,0
68646,-10,4,2,0,15,0,0
68652,-1000,4,2,0,15,0,0
68712,-10,4,2,0,15,0,0
68718,-1000,4,2,0,15,0,0
68777,-10,4,2,0,15,0,0
68783,-1000,4,2,0,15,0,0
68843,-10,4,2,0,15,0,0
68849,-1000,4,2,0,15,0,0
68908,-10,4,2,0,15,0,0
68912,-1000,4,2,0,15,0,0
68952,-10,4,2,0,15,0,0
68956,-1000,4,2,0,15,0,0
68996,-10,4,2,0,15,0,0
69000,-1000,4,2,0,15,0,0
69039,-10,4,2,0,15,0,0
69043,-1000,4,2,0,15,0,0
69083,-10,4,2,0,15,0,0
69091,-1000,4,2,0,15,0,0
69170,-10,4,2,0,15,0,0
69182,-1000,4,2,0,15,0,0
69301,-10,4,2,0,15,0,0
69313,-1000,4,2,0,15,0,0
69432,-10,4,2,0,15,0,0
69444,-1000,4,2,0,15,0,0
69563,-10,4,2,0,15,0,0
69575,-1000,4,2,0,15,0,0
69694,-10,4,2,0,15,0,0
69700,-1000,4,2,0,15,0,0
69760,-10,4,2,0,15,0,0
69766,-1000,4,2,0,15,0,0
69825,-10,4,2,0,15,0,0
69831,-1000,4,2,0,15,0,0
69891,-10,4,2,0,15,0,0
69897,-1000,4,2,0,15,0,0
69956,-10,4,2,0,15,0,0
69960,-1000,4,2,0,15,0,0
70000,-10,4,2,0,15,0,0
70004,-1000,4,2,0,15,0,0
70044,-10,4,2,0,15,0,0
70048,-1000,4,2,0,15,0,0
70087,-10,4,2,0,15,0,0
70091,-1000,4,2,0,15,0,0
70131,-10,4,2,0,15,0,0
70135,-1000,4,2,0,15,0,0
70175,-10,4,2,0,15,0,0
70179,-1000,4,2,0,15,0,0
70218,-10,4,2,0,15,0,0
70230,-1000,4,2,0,15,0,0
70349,-10,4,2,0,15,0,0
70361,-1000,4,2,0,15,0,0
70480,-10,4,2,0,15,0,0
70492,-1000,4,2,0,15,0,0
70611,-10,4,2,0,15,0,0
70623,-1000,4,2,0,15,0,0
70742,-10,4,2,0,15,0,0
70790,-1000,4,2,0,15,0,0
71266,-10,4,2,0,15,0,0
71278,-1000,4,2,0,15,0,0
71397,-10,4,2,0,15,0,0
71409,-1000,4,2,0,15,0,0
71528,-10,4,2,0,15,0,0
71540,-1000,4,2,0,15,0,0
71659,-10,4,2,0,15,0,0
71671,-1000,4,2,0,15,0,0
71790,-10,4,2,0,15,0,0
71802,-1000,4,2,0,15,0,0
71921,-10,4,2,0,15,0,0
71933,-1000,4,2,0,15,0,0
72052,-10,4,2,0,15,0,0
72058,-1000,4,2,0,15,0,0
72118,-10,4,2,0,15,0,0
72124,-1000,4,2,0,15,0,0
72183,-10,4,2,0,15,0,0
72189,-1000,4,2,0,15,0,0
72249,-10,4,2,0,15,0,0
72255,-1000,4,2,0,15,0,0
72314,-10,4,2,0,15,0,0
72320,-1000,4,2,0,15,0,0
72380,-10,4,2,0,15,0,0
72386,-1000,4,2,0,15,0,0
72445,-10,4,2,0,15,0,0
72451,-1000,4,2,0,15,0,0
72511,-10,4,2,0,15,0,0
72517,-1000,4,2,0,15,0,0
72576,-10,4,2,0,15,0,0
72580,-1000,4,2,0,15,0,0
72620,-10,4,2,0,15,0,0
72624,-1000,4,2,0,15,0,0
72664,-10,4,2,0,15,0,0
72668,-1000,4,2,0,15,0,0
72707,-10,4,2,0,15,0,0
72711,-1000,4,2,0,15,0,0
72751,-10,4,2,0,15,0,0
72755,-1000,4,2,0,15,0,0
72795,-10,4,2,0,15,0,0
72799,-1000,4,2,0,15,0,0
72838,-10,4,2,0,15,0,0
72842,-1000,4,2,0,15,0,0
72882,-10,4,2,0,15,0,0
72887,-1000,4,2,0,15,0,0
72937,-10,4,2,0,15,0,0
72940,-1000,4,2,0,15,0,0
72969,-10,4,2,0,15,0,0
72972,-1000,4,2,0,15,0,0
73002,-10,4,2,0,15,0,0
73005,-1000,4,2,0,15,0,0
73035,-10,4,2,0,15,0,0
73038,-1000,4,2,0,15,0,0
73068,-10,4,2,0,15,0,0
73071,-1000,4,2,0,15,0,0
73100,-10,4,2,0,15,0,0
73106,-1000,4,2,0,15,0,0
73166,-10,4,2,0,15,0,0
73172,-1000,4,2,0,15,0,0
73231,-10,4,2,0,15,0,0
73237,-1000,4,2,0,15,0,0
73297,-10,4,2,0,15,0,0
73303,-1000,4,2,0,15,0,0
73362,-10,4,2,0,15,0,0
73374,-1000,4,2,0,15,0,0
73493,-10,4,2,0,15,0,0
73505,-1000,4,2,0,15,0,0
73624,-10,4,2,0,15,0,0
73636,-1000,4,2,0,15,0,0
73755,-10,4,2,0,15,0,0
73767,-1000,4,2,0,15,0,0
73886,-10,4,2,0,15,0,0
73892,-1000,4,2,0,15,0,0
73952,-10,4,2,0,15,0,0
73958,-1000,4,2,0,15,0,0
74017,-10,4,2,0,15,0,0
74023,-1000,4,2,0,15,0,0
74083,-10,4,2,0,15,0,0
74089,-1000,4,2,0,15,0,0
74148,-10,4,2,0,15,0,0
74152,-1000,4,2,0,15,0,0
74192,-10,4,2,0,15,0,0
74196,-1000,4,2,0,15,0,0
74236,-10,4,2,0,15,0,0
74240,-1000,4,2,0,15,0,0
74279,-10,4,2,0,15,0,0
74283,-1000,4,2,0,15,0,0
74323,-10,4,2,0,15,0,0
74327,-1000,4,2,0,15,0,0
74367,-10,4,2,0,15,0,0
74371,-1000,4,2,0,15,0,0
74410,-10,4,2,0,15,0,0
74422,-1000,4,2,0,15,0,0
74541,-10,4,2,0,15,0,0
74553,-1000,4,2,0,15,0,0
74672,-10,4,2,0,15,0,0
74684,-1000,4,2,0,15,0,0
74804,-10,4,2,0,15,0,0
74816,-1000,4,2,0,15,0,0
74935,-10,4,2,0,15,0,0
74947,-1000,4,2,0,15,0,0
75066,-10,4,2,0,15,0,0
75078,-1000,4,2,0,15,0,0
75197,-10,4,2,0,15,0,0
75209,-1000,4,2,0,15,0,0
75328,-10,4,2,0,15,0,0
75340,-1000,4,2,0,15,0,0
75459,-10,4,2,0,15,0,0
75471,-1000,4,2,0,15,0,0
75590,-10,4,2,0,15,0,0
75602,-1000,4,2,0,15,0,0
75721,-10,4,2,0,15,0,0
75733,-1000,4,2,0,15,0,0
75852,-10,4,2,0,15,0,0
75864,-1000,4,2,0,15,0,0
75983,-10,4,2,0,15,0,0
75995,-1000,4,2,0,15,0,0
76114,-10,4,2,0,15,0,0
76126,-1000,4,2,0,15,0,0
76245,-10,4,2,0,15,0,0
76251,-1000,4,2,0,15,0,0
76310,-10,4,2,0,15,0,0
76316,-1000,4,2,0,15,0,0
76376,-10,4,2,0,15,0,0
76382,-1000,4,2,0,15,0,0
76441,-10,4,2,0,15,0,0
76447,-1000,4,2,0,15,0,0
76507,-10,4,2,0,15,0,0
76513,-1000,4,2,0,15,0,0
76572,-10,4,2,0,15,0,0
76578,-1000,4,2,0,15,0,0
76638,-10,4,2,0,15,0,0
76644,-1000,4,2,0,15,0,0
76703,-10,4,2,0,15,0,0
76709,-1000,4,2,0,15,0,0
76769,-10,4,2,0,15,0,0
76773,-1000,4,2,0,15,0,0
76812,-10,4,2,0,15,0,0
76816,-1000,4,2,0,15,0,0
76856,-10,4,2,0,15,0,0
76860,-1000,4,2,0,15,0,0
76900,-10,4,2,0,15,0,0
76904,-1000,4,2,0,15,0,0
76943,-10,4,2,0,15,0,0
76947,-1000,4,2,0,15,0,0
76987,-10,4,2,0,15,0,0
76991,-1000,4,2,0,15,0,0
77031,-10,4,2,0,15,0,0
77037,-1000,4,2,0,15,0,0
77096,-10,4,2,0,15,0,0
77102,-1000,4,2,0,15,0,0
77162,-10,4,2,0,15,0,0
77168,-1000,4,2,0,15,0,0
77227,-10,4,2,0,15,0,0
77233,-1000,4,2,0,15,0,0
77293,-10,4,2,0,15,0,0
77297,-1000,4,2,0,15,0,0
77336,-10,4,2,0,15,0,0
77340,-1000,4,2,0,15,0,0
77380,-10,4,2,0,15,0,0
77384,-1000,4,2,0,15,0,0
77424,-10,4,2,0,15,0,0
77428,-1000,4,2,0,15,0,0
77467,-10,4,2,0,15,0,0
77471,-1000,4,2,0,15,0,0
77511,-10,4,2,0,15,0,0
77515,-1000,4,2,0,15,0,0
77555,-10,4,2,0,15,0,0
77567,-1000,4,2,0,15,0,0
77686,-10,4,2,0,15,0,0
77698,-1000,4,2,0,15,0,0
77817,-10,4,2,0,15,0,0
77829,-1000,4,2,0,15,0,0
77948,-10,4,2,0,15,0,0
77960,-1000,4,2,0,15,0,0
78079,-10,4,2,0,15,0,0
78085,-1000,4,2,0,15,0,0
78144,-10,4,2,0,15,0,0
78150,-1000,4,2,0,15,0,0
78210,-10,4,2,0,15,0,0
78216,-1000,4,2,0,15,0,0
78275,-10,4,2,0,15,0,0
78281,-1000,4,2,0,15,0,0
78341,-10,4,2,0,15,0,0
78345,-1000,4,2,0,15,0,0
78384,-10,4,2,0,15,0,0
78388,-1000,4,2,0,15,0,0
78428,-10,4,2,0,15,0,0
78432,-1000,4,2,0,15,0,0
78472,-10,4,2,0,15,0,0
78476,-1000,4,2,0,15,0,0
78515,-10,4,2,0,15,0,0
78519,-1000,4,2,0,15,0,0
78559,-10,4,2,0,15,0,0
78563,-1000,4,2,0,15,0,0
78603,-10,4,2,0,15,0,0
78615,-1000,4,2,0,15,0,0
78734,-10,4,2,0,15,0,0
78746,-1000,4,2,0,15,0,0
78865,-10,4,2,0,15,0,0
78877,-1000,4,2,0,15,0,0
78996,-10,4,2,0,15,0,0
79008,-1000,4,2,0,15,0,0
79127,-10,4,2,0,15,0,0
79139,-1000,4,2,0,15,0,0
79258,-10,4,2,0,15,0,0
79270,-1000,4,2,0,15,0,0
79389,-10,4,2,0,15,0,0
79401,-1000,4,2,0,15,0,0
79520,-10,4,2,0,15,0,0
79532,-1000,4,2,0,15,0,0
79651,-10,4,2,0,15,0,0
79675,-1000,4,2,0,15,0,0
79913,-10,4,2,0,15,0,0
79937,-1000,4,2,0,15,0,0
80175,-10,4,2,0,15,0,0
80187,-1000,4,2,0,15,0,0
80306,-10,4,2,0,15,0,0
80318,-1000,4,2,0,15,0,0
80437,-10,4,2,0,15,0,0
80449,-1000,4,2,0,15,0,0
80568,-10,4,2,0,15,0,0
80580,-1000,4,2,0,15,0,0
80699,-10,4,2,0,15,0,0
80711,-1000,4,2,0,15,0,0
80830,-10,4,2,0,15,0,0
80842,-1000,4,2,0,15,0,0
80961,-10,4,2,0,15,0,0
80973,-1000,4,2,0,15,0,0
81092,-10,4,2,0,15,0,0
81104,-1000,4,2,0,15,0,0
81223,-10,4,2,0,15,0,0
81229,-1000,4,2,0,15,0,0
81288,-10,4,2,0,15,0,0
81294,-1000,4,2,0,15,0,0
81354,-10,4,2,0,15,0,0
81360,-1000,4,2,0,15,0,0
81419,-10,4,2,0,15,0,0
81425,-1000,4,2,0,15,0,0
81485,-10,4,2,0,15,0,0
81489,-1000,4,2,0,15,0,0
81528,-10,4,2,0,15,0,0
81532,-1000,4,2,0,15,0,0
81572,-10,4,2,0,15,0,0
81576,-1000,4,2,0,15,0,0
81616,-10,4,2,0,15,0,0
81620,-1000,4,2,0,15,0,0
81659,-10,4,2,0,15,0,0
81663,-1000,4,2,0,15,0,0
81703,-10,4,2,0,15,0,0
81707,-1000,4,2,0,15,0,0
81747,-10,4,2,0,15,0,0
81759,-1000,4,2,0,15,0,0
81878,-10,4,2,0,15,0,0
81890,-1000,4,2,0,15,0,0
82008,-100,4,2,0,15,0,0
82140,-10,4,2,0,15,0,0
82146,-1000,4,2,0,15,0,0
82205,-10,4,2,0,15,0,0
82211,-1000,4,2,0,15,0,0
82271,-10,4,2,0,15,0,0
82277,-1000,4,2,0,15,0,0
82336,-10,4,2,0,15,0,0
82342,-1000,4,2,0,15,0,0
82402,-10,4,2,0,15,0,0
82408,-1000,4,2,0,15,0,0
82467,-10,4,2,0,15,0,0
82473,-1000,4,2,0,15,0,0
82533,-10,4,2,0,15,0,0
82537,-1000,4,2,0,15,0,0
82576,-10,4,2,0,15,0,0
82580,-1000,4,2,0,15,0,0
82620,-10,4,2,0,15,0,0
82624,-1000,4,2,0,15,0,0
82664,-10,4,2,0,15,0,0
82668,-1000,4,2,0,15,0,0
82707,-10,4,2,0,15,0,0
82711,-1000,4,2,0,15,0,0
82751,-10,4,2,0,15,0,0
82755,-1000,4,2,0,15,0,0
82795,-10,4,2,0,15,0,0
82807,-1000,4,2,0,15,0,0
82926,-10,4,2,0,15,0,0
82938,-1000,4,2,0,15,0,0
83057,-10,4,2,0,15,0,0
83069,-1000,4,2,0,15,0,0
83188,-10,4,2,0,15,0,0
83200,-1000,4,2,0,15,0,0
83319,-10,4,2,0,15,0,0
83331,-1000,4,2,0,15,0,0
83450,-10,4,2,0,15,0,0
83462,-1000,4,2,0,15,0,0
83581,-10,4,2,0,15,0,0
83593,-1000,4,2,0,15,0,0
83712,-10,4,2,0,15,0,0
83724,-1000,4,2,0,15,0,0
83843,-10,4,2,0,15,0,0
83855,-1000,4,2,0,15,0,0
83974,-10,4,2,0,15,0,0
83986,-1000,4,2,0,15,0,0
84105,-10,4,2,0,15,0,0
84117,-1000,4,2,0,15,0,0
84236,-10,4,2,0,15,0,0
84248,-1000,4,2,0,15,0,0
84367,-10,4,2,0,15,0,0
84379,-1000,4,2,0,15,0,0
84498,-10,4,2,0,15,0,0
84510,-1000,4,2,0,15,0,0
84629,-10,4,2,0,15,0,0
84635,-1000,4,2,0,15,0,0
84694,-10,4,2,0,15,0,0
84700,-1000,4,2,0,15,0,0
84760,-10,4,2,0,15,0,0
84766,-1000,4,2,0,15,0,0
84825,-10,4,2,0,15,0,0
84831,-1000,4,2,0,15,0,0
84891,-10,4,2,0,15,0,0
84897,-1000,4,2,0,15,0,0
84956,-10,4,2,0,15,0,0
84962,-1000,4,2,0,15,0,0
85022,-10,4,2,0,15,0,0
85028,-1000,4,2,0,15,0,0
85087,-10,4,2,0,15,0,0
85093,-1000,4,2,0,15,0,0
85153,-10,4,2,0,15,0,0
85157,-1000,4,2,0,15,0,0
85197,-10,4,2,0,15,0,0
85201,-1000,4,2,0,15,0,0
85240,-10,4,2,0,15,0,0
85244,-1000,4,2,0,15,0,0
85284,-10,4,2,0,15,0,0
85288,-1000,4,2,0,15,0,0
85328,-10,4,2,0,15,0,0
85332,-1000,4,2,0,15,0,0
85371,-10,4,2,0,15,0,0
85375,-1000,4,2,0,15,0,0
85415,-10,4,2,0,15,0,0
85421,-1000,4,2,0,15,0,0
85480,-10,4,2,0,15,0,0
85486,-1000,4,2,0,15,0,0
85546,-10,4,2,0,15,0,0
85552,-1000,4,2,0,15,0,0
85611,-10,4,2,0,15,0,0
85617,-1000,4,2,0,15,0,0
85677,-10,4,2,0,15,0,0
85681,-1000,4,2,0,15,0,0
85721,-10,4,2,0,15,0,0
85725,-1000,4,2,0,15,0,0
85764,-10,4,2,0,15,0,0
85768,-1000,4,2,0,15,0,0
85808,-10,4,2,0,15,0,0
85812,-1000,4,2,0,15,0,0
85852,-10,4,2,0,15,0,0
85856,-1000,4,2,0,15,0,0
85895,-10,4,2,0,15,0,0
85899,-1000,4,2,0,15,0,0
85939,-10,4,2,0,15,0,0
85951,-1000,4,2,0,15,0,0
86070,-10,4,2,0,15,0,0
86082,-1000,4,2,0,15,0,0
86201,-10,4,2,0,15,0,0
86213,-1000,4,2,0,15,0,0
86332,-10,4,2,0,15,0,0
86338,-1000,4,2,0,15,0,0
86397,-10,4,2,0,15,0,0
86403,-1000,4,2,0,15,0,0
86463,-10,4,2,0,15,0,0
86469,-1000,4,2,0,15,0,0
86528,-10,4,2,0,15,0,0
86534,-1000,4,2,0,15,0,0
86594,-10,4,2,0,15,0,0
86600,-1000,4,2,0,15,0,0
86659,-10,4,2,0,15,0,0
86665,-1000,4,2,0,15,0,0
86725,-10,4,2,0,15,0,0
86729,-1000,4,2,0,15,0,0
86769,-10,4,2,0,15,0,0
86773,-1000,4,2,0,15,0,0
86812,-10,4,2,0,15,0,0
86816,-1000,4,2,0,15,0,0
86856,-10,4,2,0,15,0,0
86860,-1000,4,2,0,15,0,0
86900,-10,4,2,0,15,0,0
86904,-1000,4,2,0,15,0,0
86943,-10,4,2,0,15,0,0
86947,-1000,4,2,0,15,0,0
86987,-10,4,2,0,15,0,0
86991,-1000,4,2,0,15,0,0
87031,-10,4,2,0,15,0,0
87035,-1000,4,2,0,15,0,0
87074,-10,4,2,0,15,0,0
87078,-1000,4,2,0,15,0,0
87118,-10,4,2,0,15,0,0
87126,-1000,4,2,0,15,0,0
87205,-10,4,2,0,15,0,0
87209,-1000,4,2,0,15,0,0
87249,-10,4,2,0,15,0,0
87261,-1000,4,2,0,15,0,0
87380,-10,4,2,0,15,0,0
87392,-1000,4,2,0,15,0,0
87511,-10,4,2,0,15,0,0
87523,-1000,4,2,0,15,0,0
87642,-10,4,2,0,15,0,0
87654,-1000,4,2,0,15,0,0
87773,-10,4,2,0,15,0,0
87785,-1000,4,2,0,15,0,0
87904,-10,4,2,0,15,0,0
87916,-1000,4,2,0,15,0,0
88035,-10,4,2,0,15,0,0
88047,-1000,4,2,0,15,0,0
88166,-10,4,2,0,15,0,0
88178,-1000,4,2,0,15,0,0
88297,-10,4,2,0,15,0,0
88309,-1000,4,2,0,15,0,0
88428,-10,4,2,0,15,0,0
88440,-1000,4,2,0,15,0,0
88559,-10,4,2,0,15,0,0
88571,-1000,4,2,0,15,0,0
88690,-10,4,2,0,15,0,0
88702,-1000,4,2,0,15,0,0
88821,-10,4,2,0,15,0,0
88827,-1000,4,2,0,15,0,0
88886,-10,4,2,0,15,0,0
88892,-1000,4,2,0,15,0,0
88952,-10,4,2,0,15,0,0
88958,-1000,4,2,0,15,0,0
89017,-10,4,2,0,15,0,0
89023,-1000,4,2,0,15,0,0
89083,-10,4,2,0,15,0,0
89089,-1000,4,2,0,15,0,0
89148,-10,4,2,0,15,0,0
89154,-1000,4,2,0,15,0,0
89214,-10,4,2,0,15,0,0
89220,-1000,4,2,0,15,0,0
89279,-10,4,2,0,15,0,0
89285,-1000,4,2,0,15,0,0
89345,-10,4,2,0,15,0,0
89349,-1000,4,2,0,15,0,0
89389,-10,4,2,0,15,0,0
89393,-1000,4,2,0,15,0,0
89432,-10,4,2,0,15,0,0
89436,-1000,4,2,0,15,0,0
89476,-10,4,2,0,15,0,0
89484,-1000,4,2,0,15,0,0
89563,-10,4,2,0,15,0,0
89567,-1000,4,2,0,15,0,0
89607,-10,4,2,0,15,0,0
89613,-1000,4,2,0,15,0,0
89672,-10,4,2,0,15,0,0
89678,-1000,4,2,0,15,0,0
89738,-10,4,2,0,15,0,0
89744,-1000,4,2,0,15,0,0
89804,-10,4,2,0,15,0,0
89810,-1000,4,2,0,15,0,0
89869,-10,4,2,0,15,0,0
89873,-1000,4,2,0,15,0,0
89913,-10,4,2,0,15,0,0
89917,-1000,4,2,0,15,0,0
89956,-10,4,2,0,15,0,0
89960,-1000,4,2,0,15,0,0
90000,-10,4,2,0,15,0,0
90004,-1000,4,2,0,15,0,0
90044,-10,4,2,0,15,0,0
90048,-1000,4,2,0,15,0,0
90087,-10,4,2,0,15,0,0
90091,-1000,4,2,0,15,0,0
90131,-10,4,2,0,15,0,0
90143,-1000,4,2,0,15,0,0
90262,-10,4,2,0,15,0,0
90274,-1000,4,2,0,15,0,0
90393,-10,4,2,0,15,0,0
90405,-1000,4,2,0,15,0,0
90524,-10,4,2,0,15,0,0
90530,-1000,4,2,0,15,0,0
90590,-10,4,2,0,15,0,0
90596,-1000,4,2,0,15,0,0
90655,-10,4,2,0,15,0,0
90661,-1000,4,2,0,15,0,0
90721,-10,4,2,0,15,0,0
90727,-1000,4,2,0,15,0,0
90786,-10,4,2,0,15,0,0
90792,-1000,4,2,0,15,0,0
90852,-10,4,2,0,15,0,0
90858,-1000,4,2,0,15,0,0
90917,-10,4,2,0,15,0,0
90925,-1000,4,2,0,15,0,0
91004,-10,4,2,0,15,0,0
91008,-1000,4,2,0,15,0,0
91048,-10,4,2,0,15,0,0
91052,-1000,4,2,0,15,0,0
91092,-10,4,2,0,15,0,0
91096,-1000,4,2,0,15,0,0
91135,-10,4,2,0,15,0,0
91139,-1000,4,2,0,15,0,0
91179,-10,4,2,0,15,0,0
91191,-1000,4,2,0,15,0,0
91310,-10,4,2,0,15,0,0
91322,-1000,4,2,0,15,0,0
91441,-10,4,2,0,15,0,0
91453,-1000,4,2,0,15,0,0
91572,-10,4,2,0,15,0,0
91584,-1000,4,2,0,15,0,0
91703,-10,4,2,0,15,0,0
91715,-1000,4,2,0,15,0,0
91834,-10,4,2,0,15,0,0
91846,-1000,4,2,0,15,0,0
91965,-10,4,2,0,15,0,0
91977,-1000,4,2,0,15,0,0
92096,-10,4,2,0,15,0,0
92108,-1000,4,2,0,15,0,0
92227,-10,4,2,0,15,0,0
92239,-1000,4,2,0,15,0,0
92358,-10,4,2,0,15,0,0
92370,-1000,4,2,0,15,0,0
92489,-10,4,2,0,15,0,0
92501,-1000,4,2,0,15,0,0
92620,-10,4,2,0,15,0,0
92632,-1000,4,2,0,15,0,0
92751,-10,4,2,0,15,0,0
92763,-1000,4,2,0,15,0,0
92882,-10,4,2,0,15,0,0
92894,-1000,4,2,0,15,0,0
93013,-10,4,2,0,15,0,0
93019,-1000,4,2,0,15,0,0
93079,-10,4,2,0,15,0,0
93085,-1000,4,2,0,15,0,0
93144,-10,4,2,0,15,0,0
93150,-1000,4,2,0,15,0,0
93210,-10,4,2,0,15,0,0
93216,-1000,4,2,0,15,0,0
93275,-10,4,2,0,15,0,0
93281,-1000,4,2,0,15,0,0
93341,-10,4,2,0,15,0,0
93347,-1000,4,2,0,15,0,0
93406,-10,4,2,0,15,0,0
93410,-1000,4,2,0,15,0,0
93450,-10,4,2,0,15,0,0
93454,-1000,4,2,0,15,0,0
93493,-10,4,2,0,15,0,0
93497,-1000,4,2,0,15,0,0
93537,-10,4,2,0,15,0,0
93541,-1000,4,2,0,15,0,0
93581,-10,4,2,0,15,0,0
93585,-1000,4,2,0,15,0,0
93624,-10,4,2,0,15,0,0
93628,-1000,4,2,0,15,0,0
93668,-10,4,2,0,15,0,0
93672,-1000,4,2,0,15,0,0
93712,-10,4,2,0,15,0,0
93716,-1000,4,2,0,15,0,0
93755,-10,4,2,0,15,0,0
93759,-1000,4,2,0,15,0,0
93799,-10,4,2,0,15,0,0
93805,-1000,4,2,0,15,0,0
93865,-10,4,2,0,15,0,0
93871,-1000,4,2,0,15,0,0
93930,-10,4,2,0,15,0,0
93936,-1000,4,2,0,15,0,0
93996,-10,4,2,0,15,0,0
94002,-1000,4,2,0,15,0,0
94061,-10,4,2,0,15,0,0
94073,-1000,4,2,0,15,0,0
94192,-10,4,2,0,15,0,0
94204,-1000,4,2,0,15,0,0
94323,-10,4,2,0,15,0,0
94335,-1000,4,2,0,15,0,0
94454,-10,4,2,0,15,0,0
94466,-1000,4,2,0,15,0,0
94585,-10,4,2,0,15,0,0
94597,-1000,4,2,0,15,0,0
94716,-10,4,2,0,15,0,0
94722,-1000,4,2,0,15,0,0
94782,-10,4,2,0,15,0,0
94788,-1000,4,2,0,15,0,0
94847,-10,4,2,0,15,0,0
94853,-1000,4,2,0,15,0,0
94913,-10,4,2,0,15,0,0
94919,-1000,4,2,0,15,0,0
94978,-10,4,2,0,15,0,0
94984,-1000,4,2,0,15,0,0
95044,-10,4,2,0,15,0,0
95050,-1000,4,2,0,15,0,0
95109,-10,4,2,0,15,0,0
95113,-1000,4,2,0,15,0,0
95153,-10,4,2,0,15,0,0
95157,-1000,4,2,0,15,0,0
95197,-10,4,2,0,15,0,0
95201,-1000,4,2,0,15,0,0
95240,-10,4,2,0,15,0,0
95244,-1000,4,2,0,15,0,0
95284,-10,4,2,0,15,0,0
95288,-1000,4,2,0,15,0,0
95328,-10,4,2,0,15,0,0
95332,-1000,4,2,0,15,0,0
95371,-10,4,2,0,15,0,0
95374,-1000,4,2,0,15,0,0
95404,-10,4,2,0,15,0,0
95407,-1000,4,2,0,15,0,0
95437,-10,4,2,0,15,0,0
95443,-1000,4,2,0,15,0,0
95502,-10,4,2,0,15,0,0
95505,-1000,4,2,0,15,0,0
95535,-10,4,2,0,15,0,0
95538,-1000,4,2,0,15,0,0
95568,-10,4,2,0,15,0,0
95574,-1000,4,2,0,15,0,0
95633,-10,4,2,0,15,0,0
95645,-1000,4,2,0,15,0,0
95764,-10,4,2,0,15,0,0
95776,-1000,4,2,0,15,0,0
95895,-10,4,2,0,15,0,0
95899,-1000,4,2,0,15,0,0
95939,-10,4,2,0,15,0,0
95943,-1000,4,2,0,15,0,0
95983,-10,4,2,0,15,0,0
95987,-1000,4,2,0,15,0,0
96026,-10,4,2,0,15,0,0
96030,-1000,4,2,0,15,0,0
96070,-10,4,2,0,15,0,0
96074,-1000,4,2,0,15,0,0
96114,-10,4,2,0,15,0,0
96118,-1000,4,2,0,15,0,0
96157,-10,4,2,0,15,0,0
96169,-1000,4,2,0,15,0,0
96419,-133.333333333333,4,2,0,15,0,0
97270,-10,4,2,0,15,0,0
97288,-1000,4,2,0,15,0,0
97467,-10,4,2,0,15,0,0
97479,-1000,4,2,0,15,0,0
97598,-10,4,2,0,15,0,0
97610,-1000,4,2,0,15,0,0
97729,-10,4,2,0,15,0,0
97745,-1000,4,2,0,15,0,0
97904,-10,4,2,0,15,0,0
97928,-1000,4,2,0,15,0,0
98166,-10,4,2,0,15,0,0
98198,-1000,4,2,0,15,0,0
98515,-10,4,2,0,15,0,0
98527,-1000,4,2,0,15,0,0
98646,-10,4,2,0,15,0,0
98658,-1000,4,2,0,15,0,0
98777,-10,4,2,0,15,0,0
98789,-1000,4,2,0,15,0,0
98908,-10,4,2,0,15,0,0
98920,-1000,4,2,0,15,0,0
99039,-10,4,2,0,15,0,0
99051,-1000,4,2,0,15,0,0
99170,-10,4,2,0,15,0,0
99182,-1000,4,2,0,15,0,0
99301,-10,4,2,0,15,0,0
99313,-1000,4,2,0,15,0,0
99432,-10,4,2,0,15,0,0
99444,-1000,4,2,0,15,0,0
99563,-10,4,2,0,15,0,0
99575,-1000,4,2,0,15,0,0
99694,-10,4,2,0,15,0,0
99706,-1000,4,2,0,15,0,0
99825,-10,4,2,0,15,0,0
99837,-1000,4,2,0,15,0,0
99956,-10,4,2,0,15,0,0
99968,-1000,4,2,0,15,0,0
100087,-10,4,2,0,15,0,0
100099,-1000,4,2,0,15,0,0
100218,-10,4,2,0,15,0,0
100230,-1000,4,2,0,15,0,0
100349,-10,4,2,0,15,0,0
100361,-1000,4,2,0,15,0,0
100480,-10,4,2,0,15,0,0
100492,-1000,4,2,0,15,0,0
100611,-10,4,2,0,15,0,0
100623,-1000,4,2,0,15,0,0
100742,-10,4,2,0,15,0,0
100754,-1000,4,2,0,15,0,0
100873,-10,4,2,0,15,0,0
100885,-1000,4,2,0,15,0,0
101004,-10,4,2,0,15,0,0
101028,-1000,4,2,0,15,0,0
101266,-10,4,2,0,15,0,0
101278,-1000,4,2,0,15,0,0
101397,-10,4,2,0,15,0,0
101409,-1000,4,2,0,15,0,0
101528,-10,4,2,0,15,0,0
101540,-1000,4,2,0,15,0,0
101659,-10,4,2,0,15,0,0
101671,-1000,4,2,0,15,0,0
101790,-10,4,2,0,15,0,0
101802,-1000,4,2,0,15,0,0
101921,-10,4,2,0,15,0,0
101933,-1000,4,2,0,15,0,0
102052,-10,4,2,0,15,0,0
102064,-1000,4,2,0,15,0,0
102183,-1000,4,2,0,15,0,0
102248,-999.729191843256,4,2,0,15,0,0
102312,-998.22053179332,4,2,0,15,0,0
102377,-994.661677707833,4,2,0,15,0,0
102442,-988.404675877575,4,2,0,15,0,0
102506,-978.936461371517,4,2,0,15,0,0
102571,-965.88546909693,4,2,0,15,0,0
102636,-949.034530706928,4,2,0,15,0,0
102700,-928.330390718002,4,2,0,15,0,0
102765,-903.884709944411,4,2,0,15,0,0
102830,-875.964074612103,4,2,0,15,0,0
102895,-844.968877081258,4,2,0,15,0,0
102959,-811.403011539599,4,2,0,15,0,0
103024,-775.837842011841,4,2,0,15,0,0
103089,-738.874600425274,4,2,0,15,0,0
103153,-701.109207616869,4,2,0,15,0,0
103218,-663.102647760332,4,2,0,15,0,0
103283,-625.358777804936,4,2,0,15,0,0
103347,-588.31015591565,4,2,0,15,0,0
103412,-552.311390937498,4,2,0,15,0,0
103477,-517.638789703869,4,2,0,15,0,0
103541,-484.494731309216,4,2,0,15,0,0
103606,-453.015164012905,4,2,0,15,0,0
103671,-423.278799626447,4,2,0,15,0,0
103735,-395.3168694382,4,2,0,15,0,0
103800,-369.122623179618,4,2,0,15,0,0
103865,-344.660044730188,4,2,0,15,0,0
103929,-321.871497738553,4,2,0,15,0,0
103994,-300.684193027205,4,2,0,15,0,0
104059,-281.01549146306,4,2,0,15,0,0
104124,-262.777130714661,4,2,0,15,0,0
104188,-245.87850345709,4,2,0,15,0,0
104253,-230.229128853182,4,2,0,15,0,0
104318,-215.740457389445,4,2,0,15,0,0
104382,-202.327138083713,4,2,0,15,0,0
104447,-189.907861438976,4,2,0,15,0,0
104512,-178.405874410162,4,2,0,15,0,0
104576,-167.749246978314,4,2,0,15,0,0
104641,-157.870954731488,4,2,0,15,0,0
104706,-148.70882860416,4,2,0,15,0,0
104770,-140.205411739581,4,2,0,15,0,0
104835,-132.307754218324,4,2,0,15,0,0
104900,-124.967168940953,4,2,0,15,0,0
104964,-118.138966020844,4,2,0,15,0,0
105029,-111.782178388335,4,2,0,15,0,0
105094,-105.859287699938,4,2,0,15,0,0
105158,-100.335956883401,4,2,0,15,0,0
105223,-95.1807735580056,4,2,0,15,0,0
105288,-90.3650070056844,4,2,0,15,0,0
105352,-85.8623802151078,4,2,0,15,0,0
105417,-81.6488576835265,4,2,0,15,0,0
105482,-77.7024490650959,4,2,0,15,0,0
105547,-74.0030283408866,4,2,0,15,0,0
105611,-70.5321679090564,4,2,0,15,0,0
105676,-67.2729868183634,4,2,0,15,0,0
105741,-64.210012267232,4,2,0,15,0,0
105805,-61.3290534432801,4,2,0,15,0,0
105870,-58.6170867689588,4,2,0,15,0,0
105935,-56.0621516360253,4,2,0,15,0,0
105999,-53.6532557462158,4,2,0,15,0,0
106064,-51.3802892212901,4,2,0,15,0,0
106129,-49.2339466978628,4,2,0,15,0,0
106193,-47.2056566777537,4,2,0,15,0,0
106258,-45.2875174605815,4,2,0,15,0,0
106323,-43.4722390403504,4,2,0,15,0,0
106387,-41.7530904007322,4,2,0,15,0,0
106452,-40.1238516939383,4,2,0,15,0,0
106517,-38.5787708350965,4,2,0,15,0,0
106581,-37.112524087715,4,2,0,15,0,0
106646,-35.7201802560771,4,2,0,15,0,0
106711,-34.3971681373345,4,2,0,15,0,0
106776,-33.1392469197716,4,2,0,15,0,0
106840,-31.9424792443788,4,2,0,15,0,0
106905,-30.8032066746851,4,2,0,15,0,0
106970,-29.7180273449704,4,2,0,15,0,0
107034,-28.6837755797157,4,2,0,15,0,0
107099,-27.6975032976555,4,2,0,15,0,0
107164,-26.7564630322726,4,2,0,15,0,0
107228,-25.8580924172059,4,2,0,15,0,0

[HitObjects]
64,192,1310,5,0,0:0:0:0:
192,192,1441,1,0,0:0:0:0:
448,192,1834,1,0,0:0:0:0:
192,192,1965,1,0,0:0:0:0:
192,192,3668,1,0,0:0:0:0:
64,192,3799,1,0,0:0:0:0:
320,192,3930,1,0,0:0:0:0:
192,192,4061,1,0,0:0:0:0:
64,192,4192,1,0,0:0:0:0:
448,192,4192,1,0,0:0:0:0:
448,192,4323,1,0,0:0:0:0:
448,192,4520,1,0,0:0:0:0:
448,192,4716,1,0,0:0:0:0:
448,192,4912,1,0,0:0:0:0:
448,192,5109,1,0,0:0:0:0:
192,192,5240,1,0,0:0:0:0:
320,192,5306,1,0,0:0:0:0:
64,192,5371,1,0,0:0:0:0:
320,192,5502,1,0,0:0:0:0:
192,192,5633,1,0,0:0:0:0:
64,192,5764,1,0,0:0:0:0:
320,192,6026,1,0,0:0:0:0:
448,192,6026,1,0,0:0:0:0:
64,192,6157,1,0,0:0:0:0:
192,192,7860,1,0,0:0:0:0:
64,192,7991,1,0,0:0:0:0:
320,192,8122,1,0,0:0:0:0:
192,192,8253,1,0,0:0:0:0:
64,192,8384,1,0,0:0:0:0:
448,192,8384,1,0,0:0:0:0:
448,192,8515,1,0,0:0:0:0:
448,192,8712,1,0,0:0:0:0:
448,192,8908,1,0,0:0:0:0:
448,192,9083,1,0,0:0:0:0:
448,192,9301,1,0,0:0:0:0:
192,192,9432,1,0,0:0:0:0:
320,192,9498,1,0,0:0:0:0:
64,192,9563,1,0,0:0:0:0:
320,192,9694,1,0,0:0:0:0:
192,192,9825,1,0,0:0:0:0:
64,192,9956,1,0,0:0:0:0:
320,192,10218,1,0,0:0:0:0:
448,192,10218,1,0,0:0:0:0:
64,192,10349,1,0,0:0:0:0:
320,192,11397,1,0,0:0:0:0:
448,192,11397,1,0,0:0:0:0:
192,192,11659,1,0,0:0:0:0:
192,192,12052,1,0,0:0:0:0:
64,192,12183,1,0,0:0:0:0:
320,192,12314,1,0,0:0:0:0:
192,192,12445,1,0,0:0:0:0:
64,192,12576,1,0,0:0:0:0:
448,192,12576,1,0,0:0:0:0:
448,192,12707,1,0,0:0:0:0:
448,192,12904,1,0,0:0:0:0:
448,192,13100,1,0,0:0:0:0:
448,192,13275,1,0,0:0:0:0:
448,192,13493,1,0,0:0:0:0:
192,192,13624,1,0,0:0:0:0:
320,192,13690,1,0,0:0:0:0:
64,192,13755,1,0,0:0:0:0:
320,192,13886,1,0,0:0:0:0:
192,192,14017,1,0,0:0:0:0:
64,192,14148,1,0,0:0:0:0:
320,192,14410,1,0,0:0:0:0:
448,192,14410,1,0,0:0:0:0:
64,192,14541,1,0,0:0:0:0:
192,192,16245,1,0,0:0:0:0:
64,192,16376,1,0,0:0:0:0:
320,192,16507,1,0,0:0:0:0:
192,192,16638,1,0,0:0:0:0:
448,192,16768,1,0,0:0:0:0:
64,192,16769,1,0,0:0:0:0:
448,192,16900,1,0,0:0:0:0:
448,192,17096,1,0,0:0:0:0:
448,192,17293,1,0,0:0:0:0:
448,192,17467,1,0,0:0:0:0:
448,192,17686,1,0,0:0:0:0:
192,192,17817,1,0,0:0:0:0:
320,192,17882,1,0,0:0:0:0:
64,192,17948,1,0,0:0:0:0:
320,192,18079,1,0,0:0:0:0:
192,192,18210,1,0,0:0:0:0:
64,192,18341,1,0,0:0:0:0:
320,192,18603,1,0,0:0:0:0:
448,192,18603,1,0,0:0:0:0:
64,192,18734,1,0,0:0:0:0:
192,192,20437,1,0,0:0:0:0:
64,192,20568,1,0,0:0:0:0:
320,192,20699,1,0,0:0:0:0:
192,192,20830,1,0,0:0:0:0:
448,192,20960,1,0,0:0:0:0:
64,192,20961,1,0,0:0:0:0:
448,192,21092,1,0,0:0:0:0:
448,192,21288,1,0,0:0:0:0:
448,192,21485,1,0,0:0:0:0:
448,192,21659,1,0,0:0:0:0:
448,192,21878,1,0,0:0:0:0:
320,0,22009,128,0,22140:0:0:0:0:
192,0,22140,128,0,22271:0:0:0:0:
448,192,22271,1,0,0:0:0:0:
320,192,22402,1,0,0:0:0:0:
448,192,22533,1,0,0:0:0:0:
64,192,22664,1,0,0:0:0:0:
192,192,22664,1,0,0:0:0:0:
64,192,22795,1,0,0:0:0:0:
192,192,22795,1,0,0:0:0:0:
320,192,22926,1,0,0:0:0:0:
64,192,23057,1,0,0:0:0:0:
192,192,23057,1,0,0:0:0:0:
448,192,23057,1,0,0:0:0:0:
64,192,23450,1,0,0:0:0:0:
192,192,23450,1,0,0:0:0:0:
320,192,23712,1,0,0:0:0:0:
448,192,23712,1,0,0:0:0:0:
64,192,23843,1,0,0:0:0:0:
192,0,23843,128,0,24105:0:0:0:0:
64,192,23974,1,0,0:0:0:0:
320,192,24105,1,0,0:0:0:0:
448,192,24105,1,0,0:0:0:0:
64,192,24236,1,0,0:0:0:0:
192,192,24236,1,0,0:0:0:0:
320,192,24236,1,0,0:0:0:0:
64,192,24367,1,0,0:0:0:0:
192,192,24498,1,0,0:0:0:0:
320,192,24498,1,0,0:0:0:0:
448,192,24498,1,0,0:0:0:0:
64,192,24629,1,0,0:0:0:0:
320,192,24629,1,0,0:0:0:0:
64,192,24760,1,0,0:0:0:0:
192,192,24760,1,0,0:0:0:0:
192,192,24891,1,0,0:0:0:0:
320,192,24891,1,0,0:0:0:0:
192,192,25022,1,0,0:0:0:0:
448,192,25022,1,0,0:0:0:0:
64,192,25153,1,0,0:0:0:0:
320,192,25153,1,0,0:0:0:0:
448,192,25153,1,0,0:0:0:0:
192,192,25284,1,0,0:0:0:0:
320,192,25284,1,0,0:0:0:0:
64,192,25546,1,0,0:0:0:0:
192,192,25546,1,0,0:0:0:0:
192,192,25677,1,0,0:0:0:0:
448,192,25677,1,0,0:0:0:0:
192,192,25939,1,0,0:0:0:0:
448,192,25939,1,0,0:0:0:0:
192,192,26201,1,0,0:0:0:0:
320,192,26201,1,0,0:0:0:0:
448,192,26201,1,0,0:0:0:0:
320,192,26332,1,0,0:0:0:0:
64,192,26463,1,0,0:0:0:0:
192,192,26463,1,0,0:0:0:0:
192,192,26594,1,0,0:0:0:0:
448,192,26594,1,0,0:0:0:0:
320,192,26725,1,0,0:0:0:0:
448,192,26725,1,0,0:0:0:0:
64,192,26856,1,0,0:0:0:0:
192,192,26856,1,0,0:0:0:0:
64,192,26987,1,0,0:0:0:0:
320,192,26987,1,0,0:0:0:0:
64,192,27118,1,0,0:0:0:0:
448,192,27118,1,0,0:0:0:0:
192,192,27249,1,0,0:0:0:0:
320,192,27249,1,0,0:0:0:0:
448,192,27249,1,0,0:0:0:0:
64,192,27380,1,0,0:0:0:0:
320,192,27380,1,0,0:0:0:0:
192,192,27511,1,0,0:0:0:0:
448,192,27511,1,0,0:0:0:0:
64,192,27642,1,0,0:0:0:0:
192,192,27903,1,0,0:0:0:0:
64,192,28034,1,0,0:0:0:0:
448,192,28035,1,0,0:0:0:0:
320,0,28035,128,0,28297:0:0:0:0:
192,192,28296,1,0,0:0:0:0:
448,192,28297,1,0,0:0:0:0:
320,192,28427,1,0,0:0:0:0:
448,192,28689,1,0,0:0:0:0:
64,192,28690,1,0,0:0:0:0:
320,0,28690,128,0,28952:0:0:0:0:
192,192,28951,1,0,0:0:0:0:
64,192,29082,1,0,0:0:0:0:
320,192,29213,1,0,0:0:0:0:
320,192,29344,1,0,0:0:0:0:
192,192,29345,1,0,0:0:0:0:
448,192,29345,1,0,0:0:0:0:
64,192,29475,1,0,0:0:0:0:
320,192,29606,1,0,0:0:0:0:
320,192,29737,1,0,0:0:0:0:
192,192,29738,1,0,0:0:0:0:
320,0,29868,128,0,30131:0:0:0:0:
192,192,29999,1,0,0:0:0:0:
64,192,30131,1,0,0:0:0:0:
192,192,30131,1,0,0:0:0:0:
448,0,30131,128,0,30262:0:0:0:0:
320,192,30262,1,0,0:0:0:0:
64,192,30393,1,0,0:0:0:0:
192,192,30393,1,0,0:0:0:0:
448,0,30393,128,0,30524:0:0:0:0:
320,192,30524,1,0,0:0:0:0:
192,192,30655,1,0,0:0:0:0:
320,192,30655,1,0,0:0:0:0:
64,192,30786,1,0,0:0:0:0:
320,192,30917,1,0,0:0:0:0:
448,192,30917,1,0,0:0:0:0:
64,192,31048,1,0,0:0:0:0:
320,192,31048,1,0,0:0:0:0:
192,192,31179,1,0,0:0:0:0:
192,192,31310,1,0,0:0:0:0:
64,192,31441,1,0,0:0:0:0:
192,192,31441,1,0,0:0:0:0:
320,192,31441,1,0,0:0:0:0:
192,192,31834,1,0,0:0:0:0:
320,192,32096,1,0,0:0:0:0:
192,192,32227,1,0,0:0:0:0:
320,192,32227,1,0,0:0:0:0:
448,192,32227,1,0,0:0:0:0:
448,192,32358,1,0,0:0:0:0:
64,192,32489,1,0,0:0:0:0:
192,192,32489,1,0,0:0:0:0:
320,192,32489,1,0,0:0:0:0:
64,192,32620,1,0,0:0:0:0:
320,192,32620,1,0,0:0:0:0:
192,192,32751,1,0,0:0:0:0:
320,192,32882,1,0,0:0:0:0:
448,192,32882,1,0,0:0:0:0:
192,192,33013,1,0,0:0:0:0:
320,192,33013,1,0,0:0:0:0:
64,192,33144,1,0,0:0:0:0:
320,192,33144,1,0,0:0:0:0:
64,192,33275,1,0,0:0:0:0:
192,192,33275,1,0,0:0:0:0:
192,192,33406,1,0,0:0:0:0:
448,192,33406,1,0,0:0:0:0:
192,192,33537,1,0,0:0:0:0:
320,192,33537,1,0,0:0:0:0:
448,192,33537,1,0,0:0:0:0:
320,192,33668,1,0,0:0:0:0:
64,192,33799,1,0,0:0:0:0:
448,192,33799,1,0,0:0:0:0:
320,192,33930,1,0,0:0:0:0:
64,192,34061,1,0,0:0:0:0:
192,192,34061,1,0,0:0:0:0:
448,192,34061,1,0,0:0:0:0:
448,192,34192,1,0,0:0:0:0:
64,192,34323,1,0,0:0:0:0:
192,192,34323,1,0,0:0:0:0:
320,192,34323,1,0,0:0:0:0:
64,192,34454,1,0,0:0:0:0:
320,192,34585,1,0,0:0:0:0:
448,192,34585,1,0,0:0:0:0:
192,192,34716,1,0,0:0:0:0:
448,192,34847,1,0,0:0:0:0:
64,192,34978,1,0,0:0:0:0:
320,192,34978,1,0,0:0:0:0:
192,192,35109,1,0,0:0:0:0:
448,192,35109,1,0,0:0:0:0:
192,192,35240,1,0,0:0:0:0:
320,192,35240,1,0,0:0:0:0:
64,192,35371,1,0,0:0:0:0:
320,192,35371,1,0,0:0:0:0:
448,192,35371,1,0,0:0:0:0:
192,192,35502,1,0,0:0:0:0:
448,192,35502,1,0,0:0:0:0:
64,192,35633,1,0,0:0:0:0:
192,192,35633,1,0,0:0:0:0:
320,192,35633,1,0,0:0:0:0:
448,192,35633,1,0,0:0:0:0:
320,192,35764,1,0,0:0:0:0:
192,192,35895,1,0,0:0:0:0:
448,192,35895,1,0,0:0:0:0:
64,192,36026,1,0,0:0:0:0:
320,192,36026,1,0,0:0:0:0:
64,192,36288,1,0,0:0:0:0:
192,192,36288,1,0,0:0:0:0:
64,192,36419,1,0,0:0:0:0:
448,192,36419,1,0,0:0:0:0:
320,0,36419,128,0,36681:0:0:0:0:
64,192,36550,1,0,0:0:0:0:
192,192,36681,1,0,0:0:0:0:
192,192,36812,1,0,0:0:0:0:
320,0,36812,128,0,36943:0:0:0:0:
64,192,36943,1,0,0:0:0:0:
64,192,37074,1,0,0:0:0:0:
320,0,37074,128,0,37205:0:0:0:0:
192,192,37205,1,0,0:0:0:0:
448,192,37205,1,0,0:0:0:0:
320,192,37336,1,0,0:0:0:0:
448,192,37336,1,0,0:0:0:0:
64,192,37467,1,0,0:0:0:0:
320,192,37467,1,0,0:0:0:0:
64,192,37598,1,0,0:0:0:0:
192,192,37598,1,0,0:0:0:0:
64,192,37729,1,0,0:0:0:0:
192,192,37729,1,0,0:0:0:0:
320,192,37729,1,0,0:0:0:0:
448,192,37729,1,0,0:0:0:0:
320,192,37860,1,0,0:0:0:0:
64,192,37991,1,0,0:0:0:0:
192,192,37991,1,0,0:0:0:0:
192,192,38122,1,0,0:0:0:0:
320,192,38253,1,0,0:0:0:0:
448,0,38253,128,0,38515:0:0:0:0:
64,192,38384,1,0,0:0:0:0:
192,192,38515,1,0,0:0:0:0:
320,192,38515,1,0,0:0:0:0:
448,192,38646,1,0,0:0:0:0:
192,192,38777,1,0,0:0:0:0:
320,0,38777,128,0,39825:0:0:0:0:
192,192,39825,1,0,0:0:0:0:
64,0,39825,128,0,41921:0:0:0:0:
448,0,39825,128,0,41921:0:0:0:0:
192,192,41921,1,0,0:0:0:0:
320,192,41921,1,0,0:0:0:0:
320,192,42052,1,0,0:0:0:0:
64,192,42183,1,0,0:0:0:0:
192,192,42183,1,0,0:0:0:0:
448,192,42183,1,0,0:0:0:0:
192,192,42314,1,0,0:0:0:0:
320,192,42314,1,0,0:0:0:0:
320,192,42445,1,0,0:0:0:0:
448,192,42445,1,0,0:0:0:0:
64,192,42576,1,0,0:0:0:0:
320,192,42707,1,0,0:0:0:0:
448,192,42707,1,0,0:0:0:0:
64,192,42838,1,0,0:0:0:0:
64,192,42969,1,0,0:0:0:0:
192,192,42969,1,0,0:0:0:0:
320,192,42969,1,0,0:0:0:0:
448,192,42969,1,0,0:0:0:0:
192,192,43100,1,0,0:0:0:0:
448,192,43100,1,0,0:0:0:0:
64,192,43231,1,0,0:0:0:0:
320,192,43231,1,0,0:0:0:0:
64,192,43362,1,0,0:0:0:0:
320,192,43493,1,0,0:0:0:0:
448,192,43493,1,0,0:0:0:0:
64,192,43624,1,0,0:0:0:0:
192,192,43755,1,0,0:0:0:0:
320,192,43755,1,0,0:0:0:0:
64,192,43886,1,0,0:0:0:0:
320,192,43886,1,0,0:0:0:0:
64,192,44017,1,0,0:0:0:0:
192,192,44017,1,0,0:0:0:0:
448,192,44017,1,0,0:0:0:0:
320,192,44148,1,0,0:0:0:0:
448,192,44148,1,0,0:0:0:0:
64,192,44279,1,0,0:0:0:0:
320,192,44279,1,0,0:0:0:0:
64,192,44410,1,0,0:0:0:0:
192,192,44410,1,0,0:0:0:0:
320,192,44672,1,0,0:0:0:0:
448,192,44672,1,0,0:0:0:0:
64,192,44803,1,0,0:0:0:0:
448,192,44803,1,0,0:0:0:0:
192,0,44803,128,0,45066:0:0:0:0:
64,192,44934,1,0,0:0:0:0:
320,0,45197,128,0,45459:0:0:0:0:
64,192,45459,1,0,0:0:0:0:
448,192,45459,1,0,0:0:0:0:
64,192,45590,1,0,0:0:0:0:
192,192,45590,1,0,0:0:0:0:
320,192,45721,1,0,0:0:0:0:
448,192,45721,1,0,0:0:0:0:
64,192,45852,1,0,0:0:0:0:
320,192,45852,1,0,0:0:0:0:
192,192,45983,1,0,0:0:0:0:
448,192,45983,1,0,0:0:0:0:
64,192,46114,1,0,0:0:0:0:
192,192,46114,1,0,0:0:0:0:
320,192,46114,1,0,0:0:0:0:
320,192,46245,1,0,0:0:0:0:
192,192,46376,1,0,0:0:0:0:
448,192,46376,1,0,0:0:0:0:
320,192,46507,1,0,0:0:0:0:
448,192,46507,1,0,0:0:0:0:
64,192,46638,1,0,0:0:0:0:
448,192,46638,1,0,0:0:0:0:
192,0,46638,128,0,46900:0:0:0:0:
64,192,46900,1,0,0:0:0:0:
320,192,46900,1,0,0:0:0:0:
448,192,46900,1,0,0:0:0:0:
320,192,47031,1,0,0:0:0:0:
64,192,47162,1,0,0:0:0:0:
192,192,47162,1,0,0:0:0:0:
448,192,47162,1,0,0:0:0:0:
192,192,47293,1,0,0:0:0:0:
448,192,47293,1,0,0:0:0:0:
320,192,47424,1,0,0:0:0:0:
192,192,47555,1,0,0:0:0:0:
320,192,47555,1,0,0:0:0:0:
448,192,47555,1,0,0:0:0:0:
64,192,47686,1,0,0:0:0:0:
192,192,47686,1,0,0:0:0:0:
448,192,47686,1,0,0:0:0:0:
320,192,47817,1,0,0:0:0:0:
448,192,48079,1,0,0:0:0:0:
64,192,48210,1,0,0:0:0:0:
192,192,48210,1,0,0:0:0:0:
320,192,48210,1,0,0:0:0:0:
320,192,48341,1,0,0:0:0:0:
448,0,48734,128,0,48865:0:0:0:0:
64,192,48865,1,0,0:0:0:0:
320,192,48865,1,0,0:0:0:0:
192,192,48996,1,0,0:0:0:0:
320,192,48996,1,0,0:0:0:0:
448,192,48996,1,0,0:0:0:0:
192,192,49127,1,0,0:0:0:0:
320,192,49389,1,0,0:0:0:0:
448,192,49389,1,0,0:0:0:0:
64,192,49651,1,0,0:0:0:0:
192,192,49651,1,0,0:0:0:0:
320,192,49782,1,0,0:0:0:0:
448,192,49782,1,0,0:0:0:0:
320,192,49913,1,0,0:0:0:0:
448,192,49913,1,0,0:0:0:0:
192,192,50044,1,0,0:0:0:0:
64,192,50175,1,0,0:0:0:0:
192,192,50306,1,0,0:0:0:0:
320,192,50306,1,0,0:0:0:0:
448,192,50306,1,0,0:0:0:0:
64,192,50437,1,0,0:0:0:0:
320,192,50437,1,0,0:0:0:0:
64,192,50699,1,0,0:0:0:0:
448,192,50699,1,0,0:0:0:0:
320,192,50830,1,0,0:0:0:0:
192,192,50961,1,0,0:0:0:0:
448,192,50961,1,0,0:0:0:0:
192,192,51092,1,0,0:0:0:0:
320,192,51092,1,0,0:0:0:0:
448,192,51092,1,0,0:0:0:0:
64,192,51223,1,0,0:0:0:0:
192,192,51485,1,0,0:0:0:0:
320,192,51485,1,0,0:0:0:0:
192,192,51616,1,0,0:0:0:0:
64,192,51747,1,0,0:0:0:0:
320,192,51747,1,0,0:0:0:0:
192,192,51878,1,0,0:0:0:0:
320,192,51878,1,0,0:0:0:0:
448,192,51878,1,0,0:0:0:0:
448,192,52009,1,0,0:0:0:0:
320,192,52074,1,0,0:0:0:0:
192,192,52140,1,0,0:0:0:0:
64,192,52205,1,0,0:0:0:0:
448,192,52271,1,0,0:0:0:0:
320,192,52336,1,0,0:0:0:0:
64,192,52402,1,0,0:0:0:0:
192,192,52402,1,0,0:0:0:0:
448,192,52402,1,0,0:0:0:0:
192,192,52533,1,0,0:0:0:0:
320,192,52533,1,0,0:0:0:0:
320,192,52664,1,0,0:0:0:0:
448,192,52664,1,0,0:0:0:0:
64,192,52795,1,0,0:0:0:0:
192,192,52795,1,0,0:0:0:0:
192,192,53057,1,0,0:0:0:0:
448,192,53057,1,0,0:0:0:0:
64,192,53188,1,0,0:0:0:0:
192,192,53188,1,0,0:0:0:0:
320,0,53188,128,0,53450:0:0:0:0:
64,192,53319,1,0,0:0:0:0:
192,192,53450,1,0,0:0:0:0:
192,192,53581,1,0,0:0:0:0:
448,0,53581,128,0,53843:0:0:0:0:
64,192,53712,1,0,0:0:0:0:
320,192,53712,1,0,0:0:0:0:
192,192,53843,1,0,0:0:0:0:
64,0,53843,128,0,53974:0:0:0:0:
192,192,53974,1,0,0:0:0:0:
320,192,53974,1,0,0:0:0:0:
448,192,53974,1,0,0:0:0:0:
64,192,54105,1,0,0:0:0:0:
320,192,54105,1,0,0:0:0:0:
64,192,54236,1,0,0:0:0:0:
192,192,54236,1,0,0:0:0:0:
320,192,54367,1,0,0:0:0:0:
448,192,54367,1,0,0:0:0:0:
192,192,54498,1,0,0:0:0:0:
320,192,54498,1,0,0:0:0:0:
448,192,54498,1,0,0:0:0:0:
64,192,54629,1,0,0:0:0:0:
320,192,54629,1,0,0:0:0:0:
192,192,54760,1,0,0:0:0:0:
448,192,54760,1,0,0:0:0:0:
320,192,54891,1,0,0:0:0:0:
448,192,54891,1,0,0:0:0:0:
64,192,55022,1,0,0:0:0:0:
320,192,55022,1,0,0:0:0:0:
192,192,55153,1,0,0:0:0:0:
448,192,55153,1,0,0:0:0:0:
320,192,55284,1,0,0:0:0:0:
448,192,55284,1,0,0:0:0:0:
64,192,55415,1,0,0:0:0:0:
320,192,55415,1,0,0:0:0:0:
192,192,55546,1,0,0:0:0:0:
320,192,55677,1,0,0:0:0:0:
448,192,55677,1,0,0:0:0:0:
64,192,55808,1,0,0:0:0:0:
320,192,55939,1,0,0:0:0:0:
448,192,55939,1,0,0:0:0:0:
64,192,56070,1,0,0:0:0:0:
192,192,56070,1,0,0:0:0:0:
320,192,56201,1,0,0:0:0:0:
448,192,56201,1,0,0:0:0:0:
64,192,56332,1,0,0:0:0:0:
192,192,56376,1,0,0:0:0:0:
320,192,56419,1,0,0:0:0:0:
448,192,56463,1,0,0:0:0:0:
64,192,56507,1,0,0:0:0:0:
192,192,56550,1,0,0:0:0:0:
320,192,56594,1,0,0:0:0:0:
448,192,56594,1,0,0:0:0:0:
64,192,56725,1,0,0:0:0:0:
192,192,56725,1,0,0:0:0:0:
192,192,56856,1,0,0:0:0:0:
320,192,56856,1,0,0:0:0:0:
448,192,56856,1,0,0:0:0:0:
64,192,56987,1,0,0:0:0:0:
64,192,57118,1,0,0:0:0:0:
192,192,57118,1,0,0:0:0:0:
320,192,57118,1,0,0:0:0:0:
448,192,57118,1,0,0:0:0:0:
320,192,57249,1,0,0:0:0:0:
448,192,57249,1,0,0:0:0:0:
64,192,57380,1,0,0:0:0:0:
192,192,57380,1,0,0:0:0:0:
320,192,57380,1,0,0:0:0:0:
448,192,57380,1,0,0:0:0:0:
320,192,57511,1,0,0:0:0:0:
448,192,57511,1,0,0:0:0:0:
64,192,57642,1,0,0:0:0:0:
192,192,57642,1,0,0:0:0:0:
320,192,57642,1,0,0:0:0:0:
448,192,57642,1,0,0:0:0:0:
192,192,57773,1,0,0:0:0:0:
320,192,57773,1,0,0:0:0:0:
448,192,57773,1,0,0:0:0:0:
64,192,57904,1,0,0:0:0:0:
320,192,57904,1,0,0:0:0:0:
448,192,57904,1,0,0:0:0:0:
192,192,58035,1,0,0:0:0:0:
320,192,58035,1,0,0:0:0:0:
448,192,58035,1,0,0:0:0:0:
64,192,58166,1,0,0:0:0:0:
192,192,58166,1,0,0:0:0:0:
320,192,58166,1,0,0:0:0:0:
448,192,58166,1,0,0:0:0:0:
64,192,58297,1,0,0:0:0:0:
320,192,58297,1,0,0:0:0:0:
448,192,58297,1,0,0:0:0:0:
64,192,58428,1,0,0:0:0:0:
320,192,58428,1,0,0:0:0:0:
448,192,58428,1,0,0:0:0:0:
192,192,58559,1,0,0:0:0:0:
320,192,58559,1,0,0:0:0:0:
448,192,58559,1,0,0:0:0:0:
64,192,58690,1,0,0:0:0:0:
192,192,58690,1,0,0:0:0:0:
320,192,58690,1,0,0:0:0:0:
448,192,58690,1,0,0:0:0:0:
192,192,58821,1,0,0:0:0:0:
320,192,58821,1,0,0:0:0:0:
448,192,58821,1,0,0:0:0:0:
192,192,58952,1,0,0:0:0:0:
320,192,58952,1,0,0:0:0:0:
448,192,58952,1,0,0:0:0:0:
64,192,59083,1,0,0:0:0:0:
320,192,59083,1,0,0:0:0:0:
448,192,59083,1,0,0:0:0:0:
192,192,59214,1,0,0:0:0:0:
320,192,59214,1,0,0:0:0:0:
448,192,59214,1,0,0:0:0:0:
64,192,59345,1,0,0:0:0:0:
320,192,59345,1,0,0:0:0:0:
448,192,59345,1,0,0:0:0:0:
64,192,59476,1,0,0:0:0:0:
192,192,59541,1,0,0:0:0:0:
320,192,59607,1,0,0:0:0:0:
64,192,59672,1,0,0:0:0:0:
448,192,59672,1,0,0:0:0:0:
192,192,59738,1,0,0:0:0:0:
320,192,59803,1,0,0:0:0:0:
448,192,59869,1,0,0:0:0:0:
64,192,59913,1,0,0:0:0:0:
192,192,59956,1,0,0:0:0:0:
320,192,60000,1,0,0:0:0:0:
448,192,60044,1,0,0:0:0:0:
64,192,60087,1,0,0:0:0:0:
192,192,60131,1,0,0:0:0:0:
320,192,60175,1,0,0:0:0:0:
448,192,60218,1,0,0:0:0:0:
64,192,60262,1,0,0:0:0:0:
192,192,60328,1,0,0:0:0:0:
320,192,60393,1,0,0:0:0:0:
448,192,60459,1,0,0:0:0:0:
64,192,60524,1,0,0:0:0:0:
192,192,60568,1,0,0:0:0:0:
320,192,60611,1,0,0:0:0:0:
448,192,60655,1,0,0:0:0:0:
64,192,60699,1,0,0:0:0:0:
320,192,60786,1,0,0:0:0:0:
448,192,60786,1,0,0:0:0:0:
64,192,60917,1,0,0:0:0:0:
192,192,60917,1,0,0:0:0:0:
192,192,61048,1,0,0:0:0:0:
320,192,61048,1,0,0:0:0:0:
448,192,61048,1,0,0:0:0:0:
64,192,61179,1,0,0:0:0:0:
64,192,61310,1,0,0:0:0:0:
192,192,61310,1,0,0:0:0:0:
320,192,61310,1,0,0:0:0:0:
448,192,61310,1,0,0:0:0:0:
320,192,61441,1,0,0:0:0:0:
448,192,61441,1,0,0:0:0:0:
64,192,61572,1,0,0:0:0:0:
192,192,61572,1,0,0:0:0:0:
320,192,61572,1,0,0:0:0:0:
448,192,61572,1,0,0:0:0:0:
320,192,61703,1,0,0:0:0:0:
448,192,61703,1,0,0:0:0:0:
64,192,61834,1,0,0:0:0:0:
192,192,61834,1,0,0:0:0:0:
320,192,61834,1,0,0:0:0:0:
448,192,61834,1,0,0:0:0:0:
192,192,61965,1,0,0:0:0:0:
320,192,61965,1,0,0:0:0:0:
448,192,61965,1,0,0:0:0:0:
64,192,62096,1,0,0:0:0:0:
320,192,62096,1,0,0:0:0:0:
448,192,62096,1,0,0:0:0:0:
192,192,62227,1,0,0:0:0:0:
320,192,62227,1,0,0:0:0:0:
448,192,62227,1,0,0:0:0:0:
64,192,62358,1,0,0:0:0:0:
192,192,62358,1,0,0:0:0:0:
320,192,62358,1,0,0:0:0:0:
448,192,62358,1,0,0:0:0:0:
64,192,62489,1,0,0:0:0:0:
320,192,62489,1,0,0:0:0:0:
448,192,62489,1,0,0:0:0:0:
64,192,62620,1,0,0:0:0:0:
320,192,62620,1,0,0:0:0:0:
448,192,62620,1,0,0:0:0:0:
192,192,62751,1,0,0:0:0:0:
320,192,62751,1,0,0:0:0:0:
448,192,62751,1,0,0:0:0:0:
64,192,62882,1,0,0:0:0:0:
192,192,62882,1,0,0:0:0:0:
320,192,62882,1,0,0:0:0:0:
448,192,62882,1,0,0:0:0:0:
192,192,63013,1,0,0:0:0:0:
320,192,63013,1,0,0:0:0:0:
448,192,63013,1,0,0:0:0:0:
192,192,63144,1,0,0:0:0:0:
320,192,63144,1,0,0:0:0:0:
448,192,63144,1,0,0:0:0:0:
64,192,63275,1,0,0:0:0:0:
320,192,63275,1,0,0:0:0:0:
448,192,63275,1,0,0:0:0:0:
192,192,63406,1,0,0:0:0:0:
320,192,63406,1,0,0:0:0:0:
448,192,63406,1,0,0:0:0:0:
64,192,63537,1,0,0:0:0:0:
320,192,63537,1,0,0:0:0:0:
448,192,63537,1,0,0:0:0:0:
64,192,63668,1,0,0:0:0:0:
192,192,63734,1,0,0:0:0:0:
320,192,63799,1,0,0:0:0:0:
64,192,63865,1,0,0:0:0:0:
448,192,63865,1,0,0:0:0:0:
192,192,63930,1,0,0:0:0:0:
320,192,63996,1,0,0:0:0:0:
448,192,64061,1,0,0:0:0:0:
64,192,64105,1,0,0:0:0:0:
192,192,64148,1,0,0:0:0:0:
320,192,64192,1,0,0:0:0:0:
448,192,64236,1,0,0:0:0:0:
64,192,64279,1,0,0:0:0:0:
192,192,64323,1,0,0:0:0:0:
320,192,64367,1,0,0:0:0:0:
448,192,64410,1,0,0:0:0:0:
64,192,64454,1,0,0:0:0:0:
192,192,64520,1,0,0:0:0:0:
320,192,64585,1,0,0:0:0:0:
448,192,64651,1,0,0:0:0:0:
64,192,64716,1,0,0:0:0:0:
192,192,64760,1,0,0:0:0:0:
320,192,64803,1,0,0:0:0:0:
448,192,64847,1,0,0:0:0:0:
64,192,64891,1,0,0:0:0:0:
320,192,64978,1,0,0:0:0:0:
448,192,64978,1,0,0:0:0:0:
64,192,65109,1,0,0:0:0:0:
192,192,65109,1,0,0:0:0:0:
192,192,65240,1,0,0:0:0:0:
320,192,65240,1,0,0:0:0:0:
448,192,65240,1,0,0:0:0:0:
64,192,65371,1,0,0:0:0:0:
64,192,65502,1,0,0:0:0:0:
192,192,65502,1,0,0:0:0:0:
320,192,65502,1,0,0:0:0:0:
448,192,65502,1,0,0:0:0:0:
320,192,65633,1,0,0:0:0:0:
448,192,65633,1,0,0:0:0:0:
64,192,65764,1,0,0:0:0:0:
192,192,65764,1,0,0:0:0:0:
320,192,65764,1,0,0:0:0:0:
448,192,65764,1,0,0:0:0:0:
320,192,65895,1,0,0:0:0:0:
448,192,65895,1,0,0:0:0:0:
64,192,66026,1,0,0:0:0:0:
192,192,66026,1,0,0:0:0:0:
320,192,66026,1,0,0:0:0:0:
448,192,66026,1,0,0:0:0:0:
192,192,66157,1,0,0:0:0:0:
320,192,66157,1,0,0:0:0:0:
448,192,66157,1,0,0:0:0:0:
64,192,66288,1,0,0:0:0:0:
320,192,66288,1,0,0:0:0:0:
448,192,66288,1,0,0:0:0:0:
192,192,66419,1,0,0:0:0:0:
320,192,66419,1,0,0:0:0:0:
448,192,66419,1,0,0:0:0:0:
64,192,66550,1,0,0:0:0:0:
192,192,66550,1,0,0:0:0:0:
320,192,66550,1,0,0:0:0:0:
448,192,66550,1,0,0:0:0:0:
64,192,66681,1,0,0:0:0:0:
320,192,66681,1,0,0:0:0:0:
448,192,66681,1,0,0:0:0:0:
64,192,66812,1,0,0:0:0:0:
320,192,66812,1,0,0:0:0:0:
448,192,66812,1,0,0:0:0:0:
192,192,66943,1,0,0:0:0:0:
320,192,66943,1,0,0:0:0:0:
448,192,66943,1,0,0:0:0:0:
64,192,67074,1,0,0:0:0:0:
192,192,67074,1,0,0:0:0:0:
320,192,67074,1,0,0:0:0:0:
448,192,67074,1,0,0:0:0:0:
192,192,67205,1,0,0:0:0:0:
320,192,67205,1,0,0:0:0:0:
448,192,67205,1,0,0:0:0:0:
192,192,67336,1,0,0:0:0:0:
320,192,67336,1,0,0:0:0:0:
448,192,67336,1,0,0:0:0:0:
64,192,67467,1,0,0:0:0:0:
320,192,67467,1,0,0:0:0:0:
448,192,67467,1,0,0:0:0:0:
192,192,67598,1,0,0:0:0:0:
320,192,67598,1,0,0:0:0:0:
448,192,67598,1,0,0:0:0:0:
64,192,67729,1,0,0:0:0:0:
320,192,67729,1,0,0:0:0:0:
448,192,67729,1,0,0:0:0:0:
64,192,67860,1,0,0:0:0:0:
192,192,67926,1,0,0:0:0:0:
320,192,67991,1,0,0:0:0:0:
64,192,68057,1,0,0:0:0:0:
448,192,68057,1,0,0:0:0:0:
192,192,68122,1,0,0:0:0:0:
320,192,68188,1,0,0:0:0:0:
448,192,68253,1,0,0:0:0:0:
64,192,68297,1,0,0:0:0:0:
192,192,68341,1,0,0:0:0:0:
320,192,68384,1,0,0:0:0:0:
448,192,68428,1,0,0:0:0:0:
64,192,68472,1,0,0:0:0:0:
192,192,68515,1,0,0:0:0:0:
320,192,68559,1,0,0:0:0:0:
448,192,68603,1,0,0:0:0:0:
64,192,68646,1,0,0:0:0:0:
192,192,68712,1,0,0:0:0:0:
320,192,68777,1,0,0:0:0:0:
448,192,68843,1,0,0:0:0:0:
64,192,68908,1,0,0:0:0:0:
192,192,68952,1,0,0:0:0:0:
320,192,68996,1,0,0:0:0:0:
448,192,69039,1,0,0:0:0:0:
64,192,69083,1,0,0:0:0:0:
192,192,69170,1,0,0:0:0:0:
320,192,69170,1,0,0:0:0:0:
448,192,69170,1,0,0:0:0:0:
64,192,69301,1,0,0:0:0:0:
448,192,69301,1,0,0:0:0:0:
320,192,69432,1,0,0:0:0:0:
64,192,69563,1,0,0:0:0:0:
192,192,69563,1,0,0:0:0:0:
448,192,69694,1,0,0:0:0:0:
320,192,69760,1,0,0:0:0:0:
192,192,69825,1,0,0:0:0:0:
64,192,69891,1,0,0:0:0:0:
448,192,69956,1,0,0:0:0:0:
320,192,70000,1,0,0:0:0:0:
192,192,70044,1,0,0:0:0:0:
64,192,70087,1,0,0:0:0:0:
448,192,70131,1,0,0:0:0:0:
320,192,70175,1,0,0:0:0:0:
64,192,70218,1,0,0:0:0:0:
192,192,70218,1,0,0:0:0:0:
320,192,70349,1,0,0:0:0:0:
448,192,70349,1,0,0:0:0:0:
64,192,70480,1,0,0:0:0:0:
320,192,70480,1,0,0:0:0:0:
64,192,70611,1,0,0:0:0:0:
192,192,70611,1,0,0:0:0:0:
448,0,70742,128,0,71266:0:0:0:0:
64,192,71266,1,0,0:0:0:0:
192,192,71266,1,0,0:0:0:0:
320,192,71266,1,0,0:0:0:0:
192,192,71397,1,0,0:0:0:0:
320,192,71397,1,0,0:0:0:0:
192,192,71528,1,0,0:0:0:0:
320,192,71528,1,0,0:0:0:0:
192,192,71659,1,0,0:0:0:0:
320,192,71659,1,0,0:0:0:0:
192,192,71790,1,0,0:0:0:0:
320,192,71790,1,0,0:0:0:0:
192,192,71921,1,0,0:0:0:0:
320,192,71921,1,0,0:0:0:0:
64,192,72052,1,0,0:0:0:0:
192,192,72118,1,0,0:0:0:0:
320,192,72183,1,0,0:0:0:0:
448,192,72249,1,0,0:0:0:0:
64,192,72314,1,0,0:0:0:0:
192,192,72380,1,0,0:0:0:0:
320,192,72445,1,0,0:0:0:0:
448,192,72511,1,0,0:0:0:0:
64,192,72576,1,0,0:0:0:0:
192,192,72620,1,0,0:0:0:0:
320,192,72664,1,0,0:0:0:0:
448,192,72707,1,0,0:0:0:0:
64,192,72751,1,0,0:0:0:0:
192,192,72795,1,0,0:0:0:0:
320,192,72838,1,0,0:0:0:0:
448,192,72882,1,0,0:0:0:0:
64,192,72937,1,0,0:0:0:0:
192,192,72969,1,0,0:0:0:0:
320,192,73002,1,0,0:0:0:0:
448,192,73035,1,0,0:0:0:0:
64,192,73068,1,0,0:0:0:0:
192,192,73100,1,0,0:0:0:0:
448,192,73166,1,0,0:0:0:0:
320,192,73231,1,0,0:0:0:0:
192,192,73297,1,0,0:0:0:0:
64,192,73362,1,0,0:0:0:0:
320,192,73362,1,0,0:0:0:0:
448,192,73362,1,0,0:0:0:0:
192,192,73493,1,0,0:0:0:0:
448,192,73493,1,0,0:0:0:0:
320,192,73624,1,0,0:0:0:0:
64,192,73755,1,0,0:0:0:0:
192,192,73755,1,0,0:0:0:0:
320,192,73755,1,0,0:0:0:0:
448,192,73886,1,0,0:0:0:0:
320,192,73952,1,0,0:0:0:0:
192,192,74017,1,0,0:0:0:0:
64,192,74083,1,0,0:0:0:0:
448,192,74148,1,0,0:0:0:0:
320,192,74192,1,0,0:0:0:0:
192,192,74236,1,0,0:0:0:0:
64,192,74279,1,0,0:0:0:0:
448,192,74323,1,0,0:0:0:0:
320,192,74367,1,0,0:0:0:0:
64,192,74410,1,0,0:0:0:0:
192,192,74410,1,0,0:0:0:0:
192,192,74541,1,0,0:0:0:0:
448,192,74541,1,0,0:0:0:0:
320,192,74672,1,0,0:0:0:0:
64,192,74804,1,0,0:0:0:0:
192,192,74804,1,0,0:0:0:0:
320,192,74935,1,0,0:0:0:0:
448,192,74935,1,0,0:0:0:0:
448,192,75066,1,0,0:0:0:0:
64,192,75197,1,0,0:0:0:0:
192,192,75197,1,0,0:0:0:0:
192,192,75328,1,0,0:0:0:0:
64,192,75459,1,0,0:0:0:0:
192,192,75459,1,0,0:0:0:0:
320,192,75459,1,0,0:0:0:0:
192,192,75590,1,0,0:0:0:0:
320,192,75590,1,0,0:0:0:0:
192,192,75721,1,0,0:0:0:0:
320,192,75721,1,0,0:0:0:0:
448,192,75721,1,0,0:0:0:0:
64,192,75852,1,0,0:0:0:0:
192,192,75852,1,0,0:0:0:0:
320,192,75852,1,0,0:0:0:0:
192,192,75983,1,0,0:0:0:0:
320,192,75983,1,0,0:0:0:0:
192,192,76114,1,0,0:0:0:0:
320,192,76114,1,0,0:0:0:0:
64,192,76245,1,0,0:0:0:0:
448,192,76245,1,0,0:0:0:0:
192,192,76310,1,0,0:0:0:0:
320,192,76376,1,0,0:0:0:0:
448,192,76441,1,0,0:0:0:0:
64,192,76507,1,0,0:0:0:0:
192,192,76572,1,0,0:0:0:0:
320,192,76638,1,0,0:0:0:0:
448,192,76703,1,0,0:0:0:0:
64,192,76769,1,0,0:0:0:0:
192,192,76812,1,0,0:0:0:0:
320,192,76856,1,0,0:0:0:0:
448,192,76900,1,0,0:0:0:0:
64,192,76943,1,0,0:0:0:0:
192,192,76987,1,0,0:0:0:0:
320,192,77031,1,0,0:0:0:0:
448,192,77096,1,0,0:0:0:0:
320,192,77162,1,0,0:0:0:0:
192,192,77227,1,0,0:0:0:0:
64,192,77293,1,0,0:0:0:0:
448,192,77336,1,0,0:0:0:0:
320,192,77380,1,0,0:0:0:0:
192,192,77424,1,0,0:0:0:0:
64,192,77467,1,0,0:0:0:0:
448,192,77511,1,0,0:0:0:0:
64,192,77555,1,0,0:0:0:0:
192,192,77555,1,0,0:0:0:0:
320,192,77555,1,0,0:0:0:0:
320,192,77686,1,0,0:0:0:0:
448,192,77686,1,0,0:0:0:0:
448,192,77817,1,0,0:0:0:0:
64,192,77948,1,0,0:0:0:0:
64,192,78079,1,0,0:0:0:0:
192,192,78144,1,0,0:0:0:0:
320,192,78210,1,0,0:0:0:0:
448,192,78275,1,0,0:0:0:0:
64,192,78341,1,0,0:0:0:0:
192,192,78384,1,0,0:0:0:0:
320,192,78428,1,0,0:0:0:0:
448,192,78472,1,0,0:0:0:0:
64,192,78515,1,0,0:0:0:0:
192,192,78559,1,0,0:0:0:0:
320,192,78603,1,0,0:0:0:0:
448,192,78603,1,0,0:0:0:0:
192,192,78734,1,0,0:0:0:0:
448,192,78734,1,0,0:0:0:0:
64,192,78865,1,0,0:0:0:0:
320,192,78865,1,0,0:0:0:0:
64,192,78996,1,0,0:0:0:0:
192,192,78996,1,0,0:0:0:0:
320,192,79127,1,0,0:0:0:0:
448,192,79127,1,0,0:0:0:0:
192,192,79258,1,0,0:0:0:0:
64,192,79389,1,0,0:0:0:0:
448,192,79520,1,0,0:0:0:0:
64,192,79651,1,0,0:0:0:0:
192,192,79651,1,0,0:0:0:0:
320,192,79651,1,0,0:0:0:0:
64,192,79913,1,0,0:0:0:0:
320,192,79913,1,0,0:0:0:0:
192,192,80175,1,0,0:0:0:0:
320,192,80175,1,0,0:0:0:0:
448,192,80175,1,0,0:0:0:0:
192,192,80306,1,0,0:0:0:0:
448,192,80306,1,0,0:0:0:0:
192,192,80437,1,0,0:0:0:0:
448,192,80437,1,0,0:0:0:0:
192,192,80568,1,0,0:0:0:0:
448,192,80568,1,0,0:0:0:0:
64,192,80699,1,0,0:0:0:0:
192,192,80699,1,0,0:0:0:0:
320,192,80699,1,0,0:0:0:0:
320,192,80830,1,0,0:0:0:0:
448,192,80830,1,0,0:0:0:0:
192,192,80961,1,0,0:0:0:0:
448,192,80961,1,0,0:0:0:0:
192,192,81092,1,0,0:0:0:0:
320,192,81092,1,0,0:0:0:0:
64,192,81223,1,0,0:0:0:0:
320,192,81223,1,0,0:0:0:0:
192,192,81288,1,0,0:0:0:0:
320,192,81354,1,0,0:0:0:0:
448,192,81419,1,0,0:0:0:0:
64,192,81485,1,0,0:0:0:0:
192,192,81528,1,0,0:0:0:0:
320,192,81572,1,0,0:0:0:0:
448,192,81616,1,0,0:0:0:0:
64,192,81659,1,0,0:0:0:0:
192,192,81703,1,0,0:0:0:0:
320,192,81747,1,0,0:0:0:0:
448,192,81747,1,0,0:0:0:0:
64,192,81878,1,0,0:0:0:0:
320,192,81878,1,0,0:0:0:0:
448,192,82009,1,0,0:0:0:0:
64,192,82140,1,0,0:0:0:0:
192,192,82140,1,0,0:0:0:0:
320,192,82205,1,0,0:0:0:0:
448,192,82271,1,0,0:0:0:0:
64,192,82336,1,0,0:0:0:0:
192,192,82402,1,0,0:0:0:0:
320,192,82467,1,0,0:0:0:0:
448,192,82533,1,0,0:0:0:0:
320,192,82576,1,0,0:0:0:0:
192,192,82620,1,0,0:0:0:0:
64,192,82664,1,0,0:0:0:0:
448,192,82707,1,0,0:0:0:0:
320,192,82751,1,0,0:0:0:0:
64,192,82795,1,0,0:0:0:0:
192,192,82795,1,0,0:0:0:0:
320,192,82926,1,0,0:0:0:0:
448,192,82926,1,0,0:0:0:0:
64,192,83057,1,0,0:0:0:0:
320,192,83057,1,0,0:0:0:0:
64,192,83188,1,0,0:0:0:0:
192,192,83188,1,0,0:0:0:0:
320,192,83319,1,0,0:0:0:0:
448,192,83319,1,0,0:0:0:0:
448,192,83450,1,0,0:0:0:0:
192,192,83581,1,0,0:0:0:0:
320,192,83581,1,0,0:0:0:0:
64,192,83712,1,0,0:0:0:0:
320,192,83712,1,0,0:0:0:0:
64,192,83843,1,0,0:0:0:0:
192,192,83843,1,0,0:0:0:0:
320,192,83843,1,0,0:0:0:0:
448,192,83843,1,0,0:0:0:0:
192,192,83974,1,0,0:0:0:0:
448,192,83974,1,0,0:0:0:0:
192,192,84105,1,0,0:0:0:0:
320,192,84105,1,0,0:0:0:0:
448,192,84105,1,0,0:0:0:0:
64,192,84236,1,0,0:0:0:0:
192,192,84236,1,0,0:0:0:0:
448,192,84236,1,0,0:0:0:0:
192,192,84367,1,0,0:0:0:0:
448,192,84367,1,0,0:0:0:0:
192,192,84498,1,0,0:0:0:0:
448,192,84498,1,0,0:0:0:0:
448,192,84629,1,0,0:0:0:0:
320,192,84694,1,0,0:0:0:0:
192,192,84760,1,0,0:0:0:0:
64,192,84825,1,0,0:0:0:0:
448,192,84891,1,0,0:0:0:0:
320,192,84956,1,0,0:0:0:0:
192,192,85022,1,0,0:0:0:0:
64,192,85087,1,0,0:0:0:0:
448,192,85153,1,0,0:0:0:0:
320,192,85197,1,0,0:0:0:0:
192,192,85240,1,0,0:0:0:0:
64,192,85284,1,0,0:0:0:0:
448,192,85328,1,0,0:0:0:0:
320,192,85371,1,0,0:0:0:0:
192,192,85415,1,0,0:0:0:0:
64,192,85480,1,0,0:0:0:0:
192,192,85546,1,0,0:0:0:0:
320,192,85611,1,0,0:0:0:0:
448,192,85677,1,0,0:0:0:0:
64,192,85721,1,0,0:0:0:0:
192,192,85764,1,0,0:0:0:0:
320,192,85808,1,0,0:0:0:0:
64,192,85852,1,0,0:0:0:0:
448,192,85852,1,0,0:0:0:0:
192,192,85895,1,0,0:0:0:0:
320,192,85939,1,0,0:0:0:0:
448,192,85939,1,0,0:0:0:0:
64,192,86070,1,0,0:0:0:0:
320,192,86070,1,0,0:0:0:0:
448,192,86201,1,0,0:0:0:0:
320,192,86332,1,0,0:0:0:0:
64,192,86397,1,0,0:0:0:0:
192,192,86463,1,0,0:0:0:0:
320,192,86528,1,0,0:0:0:0:
448,192,86594,1,0,0:0:0:0:
64,192,86659,1,0,0:0:0:0:
192,192,86725,1,0,0:0:0:0:
448,192,86769,1,0,0:0:0:0:
320,192,86812,1,0,0:0:0:0:
192,192,86856,1,0,0:0:0:0:
64,192,86900,1,0,0:0:0:0:
448,192,86943,1,0,0:0:0:0:
192,192,86987,1,0,0:0:0:0:
320,192,86987,1,0,0:0:0:0:
64,192,87031,1,0,0:0:0:0:
448,192,87074,1,0,0:0:0:0:
320,192,87118,1,0,0:0:0:0:
192,192,87205,1,0,0:0:0:0:
64,192,87249,1,0,0:0:0:0:
448,192,87249,1,0,0:0:0:0:
192,192,87380,1,0,0:0:0:0:
320,192,87380,1,0,0:0:0:0:
320,192,87511,1,0,0:0:0:0:
448,192,87511,1,0,0:0:0:0:
64,192,87642,1,0,0:0:0:0:
192,192,87642,1,0,0:0:0:0:
192,192,87773,1,0,0:0:0:0:
448,192,87773,1,0,0:0:0:0:
320,192,87904,1,0,0:0:0:0:
448,192,87904,1,0,0:0:0:0:
64,192,88035,1,0,0:0:0:0:
192,192,88035,1,0,0:0:0:0:
320,192,88035,1,0,0:0:0:0:
192,192,88166,1,0,0:0:0:0:
320,192,88166,1,0,0:0:0:0:
192,192,88297,1,0,0:0:0:0:
320,192,88297,1,0,0:0:0:0:
192,192,88428,1,0,0:0:0:0:
320,192,88428,1,0,0:0:0:0:
192,192,88559,1,0,0:0:0:0:
320,192,88559,1,0,0:0:0:0:
192,192,88690,1,0,0:0:0:0:
320,192,88690,1,0,0:0:0:0:
64,192,88821,1,0,0:0:0:0:
192,192,88886,1,0,0:0:0:0:
320,192,88952,1,0,0:0:0:0:
448,192,89017,1,0,0:0:0:0:
64,192,89083,1,0,0:0:0:0:
192,192,89148,1,0,0:0:0:0:
320,192,89214,1,0,0:0:0:0:
448,192,89279,1,0,0:0:0:0:
64,192,89345,1,0,0:0:0:0:
192,192,89389,1,0,0:0:0:0:
320,192,89432,1,0,0:0:0:0:
448,192,89476,1,0,0:0:0:0:
192,192,89563,1,0,0:0:0:0:
64,192,89607,1,0,0:0:0:0:
320,192,89607,1,0,0:0:0:0:
448,192,89672,1,0,0:0:0:0:
320,192,89738,1,0,0:0:0:0:
192,192,89804,1,0,0:0:0:0:
64,192,89869,1,0,0:0:0:0:
320,192,89869,1,0,0:0:0:0:
448,192,89913,1,0,0:0:0:0:
192,192,89956,1,0,0:0:0:0:
320,192,90000,1,0,0:0:0:0:
448,192,90044,1,0,0:0:0:0:
64,192,90087,1,0,0:0:0:0:
192,192,90131,1,0,0:0:0:0:
320,192,90131,1,0,0:0:0:0:
448,192,90262,1,0,0:0:0:0:
320,192,90393,1,0,0:0:0:0:
64,192,90524,1,0,0:0:0:0:
320,192,90524,1,0,0:0:0:0:
192,192,90590,1,0,0:0:0:0:
320,192,90655,1,0,0:0:0:0:
448,192,90655,1,0,0:0:0:0:
64,192,90721,1,0,0:0:0:0:
320,192,90786,1,0,0:0:0:0:
192,192,90852,1,0,0:0:0:0:
320,192,90917,1,0,0:0:0:0:
448,192,90917,1,0,0:0:0:0:
192,192,91004,1,0,0:0:0:0:
320,192,91048,1,0,0:0:0:0:
448,192,91092,1,0,0:0:0:0:
64,192,91135,1,0,0:0:0:0:
192,192,91179,1,0,0:0:0:0:
320,192,91179,1,0,0:0:0:0:
64,192,91310,1,0,0:0:0:0:
448,192,91310,1,0,0:0:0:0:
192,192,91441,1,0,0:0:0:0:
448,192,91441,1,0,0:0:0:0:
64,192,91572,1,0,0:0:0:0:
320,192,91572,1,0,0:0:0:0:
320,192,91703,1,0,0:0:0:0:
448,192,91703,1,0,0:0:0:0:
64,192,91834,1,0,0:0:0:0:
192,192,91834,1,0,0:0:0:0:
192,192,91965,1,0,0:0:0:0:
448,192,91965,1,0,0:0:0:0:
320,192,92096,1,0,0:0:0:0:
448,192,92096,1,0,0:0:0:0:
64,192,92227,1,0,0:0:0:0:
192,192,92227,1,0,0:0:0:0:
320,192,92227,1,0,0:0:0:0:
192,192,92358,1,0,0:0:0:0:
320,192,92358,1,0,0:0:0:0:
448,192,92358,1,0,0:0:0:0:
64,192,92489,1,0,0:0:0:0:
192,192,92489,1,0,0:0:0:0:
448,192,92489,1,0,0:0:0:0:
192,192,92620,1,0,0:0:0:0:
320,192,92620,1,0,0:0:0:0:
448,192,92620,1,0,0:0:0:0:
192,192,92751,1,0,0:0:0:0:
448,192,92751,1,0,0:0:0:0:
64,192,92882,1,0,0:0:0:0:
192,192,92882,1,0,0:0:0:0:
448,192,92882,1,0,0:0:0:0:
320,192,93013,1,0,0:0:0:0:
448,192,93013,1,0,0:0:0:0:
192,192,93079,1,0,0:0:0:0:
64,192,93144,1,0,0:0:0:0:
320,192,93210,1,0,0:0:0:0:
448,192,93275,1,0,0:0:0:0:
192,192,93341,1,0,0:0:0:0:
64,192,93406,1,0,0:0:0:0:
320,192,93406,1,0,0:0:0:0:
448,192,93450,1,0,0:0:0:0:
192,192,93493,1,0,0:0:0:0:
64,192,93537,1,0,0:0:0:0:
448,192,93581,1,0,0:0:0:0:
320,192,93624,1,0,0:0:0:0:
192,192,93668,1,0,0:0:0:0:
64,192,93712,1,0,0:0:0:0:
448,192,93755,1,0,0:0:0:0:
192,192,93799,1,0,0:0:0:0:
320,192,93799,1,0,0:0:0:0:
64,192,93865,1,0,0:0:0:0:
448,192,93865,1,0,0:0:0:0:
192,192,93930,1,0,0:0:0:0:
320,192,93930,1,0,0:0:0:0:
64,192,93996,1,0,0:0:0:0:
448,192,93996,1,0,0:0:0:0:
192,192,94061,1,0,0:0:0:0:
320,192,94061,1,0,0:0:0:0:
320,192,94192,1,0,0:0:0:0:
448,192,94192,1,0,0:0:0:0:
64,192,94323,1,0,0:0:0:0:
192,192,94323,1,0,0:0:0:0:
320,192,94323,1,0,0:0:0:0:
192,192,94454,1,0,0:0:0:0:
448,192,94454,1,0,0:0:0:0:
320,192,94585,1,0,0:0:0:0:
448,192,94585,1,0,0:0:0:0:
64,192,94716,1,0,0:0:0:0:
192,192,94716,1,0,0:0:0:0:
448,192,94782,1,0,0:0:0:0:
64,192,94847,1,0,0:0:0:0:
320,192,94847,1,0,0:0:0:0:
192,192,94913,1,0,0:0:0:0:
448,192,94978,1,0,0:0:0:0:
320,192,95044,1,0,0:0:0:0:
64,192,95109,1,0,0:0:0:0:
192,192,95109,1,0,0:0:0:0:
320,192,95153,1,0,0:0:0:0:
448,192,95197,1,0,0:0:0:0:
64,192,95240,1,0,0:0:0:0:
192,192,95284,1,0,0:0:0:0:
320,192,95328,1,0,0:0:0:0:
64,192,95371,1,0,0:0:0:0:
448,192,95371,1,0,0:0:0:0:
320,192,95404,1,0,0:0:0:0:
192,192,95437,1,0,0:0:0:0:
448,192,95502,1,0,0:0:0:0:
320,192,95535,1,0,0:0:0:0:
192,192,95568,1,0,0:0:0:0:
64,192,95633,1,0,0:0:0:0:
64,192,95764,1,0,0:0:0:0:
448,192,95764,1,0,0:0:0:0:
320,192,95895,1,0,0:0:0:0:
448,192,95895,1,0,0:0:0:0:
192,192,95939,1,0,0:0:0:0:
64,192,95983,1,0,0:0:0:0:
448,192,96026,1,0,0:0:0:0:
320,192,96070,1,0,0:0:0:0:
192,192,96114,1,0,0:0:0:0:
64,192,96157,1,0,0:0:0:0:
448,192,96157,1,0,0:0:0:0:
448,192,96288,1,0,0:0:0:0:
192,192,96419,1,0,0:0:0:0:
64,0,96419,128,0,97205:0:0:0:0:
448,0,96419,128,0,97205:0:0:0:0:
320,192,97074,1,0,0:0:0:0:
320,192,97270,1,0,0:0:0:0:
320,192,97467,1,0,0:0:0:0:
192,192,97598,1,0,0:0:0:0:
320,192,97598,1,0,0:0:0:0:
64,192,97729,1,0,0:0:0:0:
320,192,97729,1,0,0:0:0:0:
448,0,97729,128,0,97991:0:0:0:0:
64,192,97904,1,0,0:0:0:0:
192,192,97904,1,0,0:0:0:0:
192,192,98166,1,0,0:0:0:0:
320,0,98166,128,0,98515:0:0:0:0:
192,192,98515,1,0,0:0:0:0:
448,192,98515,1,0,0:0:0:0:
64,0,98515,128,0,98777:0:0:0:0:
448,0,98646,128,0,98908:0:0:0:0:
192,0,98777,128,0,98908:0:0:0:0:
320,0,98908,128,0,99039:0:0:0:0:
64,0,98908,128,0,99170:0:0:0:0:
192,0,99039,128,0,99170:0:0:0:0:
448,0,99039,128,0,99170:0:0:0:0:
320,0,99170,128,0,99301:0:0:0:0:
64,192,99301,1,0,0:0:0:0:
192,192,99301,1,0,0:0:0:0:
448,0,99301,128,0,99563:0:0:0:0:
320,192,99432,1,0,0:0:0:0:
64,192,99563,1,0,0:0:0:0:
192,192,99563,1,0,0:0:0:0:
320,192,99563,1,0,0:0:0:0:
192,192,99694,1,0,0:0:0:0:
448,192,99694,1,0,0:0:0:0:
192,192,99825,1,0,0:0:0:0:
320,192,99825,1,0,0:0:0:0:
64,192,99956,1,0,0:0:0:0:
320,192,99956,1,0,0:0:0:0:
192,192,100087,1,0,0:0:0:0:
448,192,100087,1,0,0:0:0:0:
320,192,100218,1,0,0:0:0:0:
64,192,100349,1,0,0:0:0:0:
192,192,100349,1,0,0:0:0:0:
320,192,100480,1,0,0:0:0:0:
448,192,100480,1,0,0:0:0:0:
64,192,100611,1,0,0:0:0:0:
192,192,100611,1,0,0:0:0:0:
320,192,100611,1,0,0:0:0:0:
448,192,100611,1,0,0:0:0:0:
192,192,100742,1,0,0:0:0:0:
320,192,100742,1,0,0:0:0:0:
64,192,100873,1,0,0:0:0:0:
64,192,101004,1,0,0:0:0:0:
320,192,101004,1,0,0:0:0:0:
64,192,101266,1,0,0:0:0:0:
320,192,101266,1,0,0:0:0:0:
448,192,101266,1,0,0:0:0:0:
64,192,101397,1,0,0:0:0:0:
192,192,101397,1,0,0:0:0:0:
448,192,101397,1,0,0:0:0:0:
192,192,101528,1,0,0:0:0:0:
320,192,101528,1,0,0:0:0:0:
320,192,101659,1,0,0:0:0:0:
448,192,101659,1,0,0:0:0:0:
64,192,101790,1,0,0:0:0:0:
192,192,101790,1,0,0:0:0:0:
448,192,101790,1,0,0:0:0:0:
320,192,101921,1,0,0:0:0:0:
64,192,102052,1,0,0:0:0:0:
192,192,102052,1,0,0:0:0:0:
320,0,102183,128,0,107293:0:0:0:0:
448,0,102183,128,0,107293:0:0:0:0:
64,192,107293,1,0,0:0:0:0:
192,192,107293,1,0,0:0:0:0:
