osu file format v14

[General]
AudioFilename: audio.mp3
AudioLeadIn: 0
PreviewTime: 110
Countdown: 0
SampleSet: Normal
StackLeniency: 0.7
Mode: 1
LetterboxInBreaks: 0
WidescreenStoryboard: 1

[Editor]
DistanceSpacing: 0.6
BeatDivisor: 4
GridSize: 16
TimelineZoom: 2

[Metadata]
Title:Whopper Whopper (Extended Edit)
TitleUnicode:Whopper Whopper (Extended Edit)
Artist:Beacon Street Studios
ArtistUnicode:Beacon Street Studios
Creator:Molybdenum
Version:Futsuu Whopper
Source:
Tags:english novelty burger king bk okrp barkleyokrp advertisement male vocalist meme
BeatmapID:4387574
BeatmapSetID:1932964

[Difficulty]
HPDrainRate:10
CircleSize:2
OverallDifficulty:4
ApproachRate:10
SliderMultiplier:1.4
SliderTickRate:1

[Events]
//Background and Video events
0,0,"bklogoish.jpeg",0,-19
//Break Periods
//Storyboard Layer 0 (Background)
//Storyboard Layer 1 (Fail)
//Storyboard Layer 2 (Pass)
//Storyboard Layer 3 (Foreground)
//Storyboard Layer 4 (Overlay)
//Storyboard Sound Samples

[TimingPoints]
-1032,571.428571428571,4,1,0,75,1,0
110,-125,4,1,0,75,0,0
10396,-100,4,1,0,75,0,0
18396,-102.040816326531,4,1,0,75,0,0
18539,-104.166666666667,4,1,0,75,0,0
18682,-106.382978723404,4,1,0,75,0,0
18825,-108.695652173913,4,1,0,75,0,0
18967,-111.111111111111,4,1,0,75,0,0
19110,-113.636363636364,4,1,0,75,0,0
19253,-116.279069767442,4,1,0,75,0,0
19539,-121.951219512195,4,1,0,75,0,1
27539,-121.951219512195,4,1,0,75,0,0
28682,-121.951219512195,4,1,0,75,0,1
36682,-121.951219512195,4,1,0,75,0,0
37825,-121.951219512195,4,1,0,75,0,1
39253,-121.951219512195,4,1,0,75,0,0

[Colours]
Combo1 : 0,128,192
Combo2 : 255,128,64
Combo3 : 255,128,64
Combo4 : 0,128,255

[HitObjects]
256,192,253,12,0,1110,0:0:0:0:
126,127,1253,5,8,0:0:0:0:
126,127,1825,1,8,0:0:0:0:
126,127,2110,1,0,0:0:0:0:
126,127,2396,1,8,0:0:0:0:
126,127,2682,1,8,0:0:0:0:
126,127,2967,1,0,0:0:0:0:
126,127,3539,1,0,0:0:0:0:
126,127,4110,1,0,0:0:0:0:
126,127,4396,1,0,0:0:0:0:
126,127,4682,1,8,0:0:0:0:
126,127,4967,1,8,0:0:0:0:
126,127,5253,1,0,0:0:0:0:
126,127,5825,1,4,0:0:0:0:
126,127,6396,1,8,0:0:0:0:
126,127,6682,1,0,0:0:0:0:
126,127,6967,1,8,0:0:0:0:
126,127,7253,1,0,0:0:0:0:
126,127,7539,1,8,0:0:0:0:
126,127,8110,1,8,0:0:0:0:
126,127,8682,1,8,0:0:0:0:
126,127,8967,1,0,0:0:0:0:
126,127,9682,1,0,0:0:0:0:
126,127,9825,1,0,0:0:0:0:
126,127,10110,1,0,0:0:0:0:
126,127,10396,1,12,0:0:0:0:
126,127,10967,1,8,0:0:0:0:
126,127,11253,1,0,0:0:0:0:
126,127,11539,1,8,0:0:0:0:
126,127,11825,1,8,0:0:0:0:
126,127,12110,1,0,0:0:0:0:
126,127,12396,1,8,0:0:0:0:
126,127,12682,1,0,0:0:0:0:
126,127,13253,1,0,0:0:0:0:
126,127,13539,1,0,0:0:0:0:
126,127,13825,1,0,0:0:0:0:
126,127,14110,1,8,0:0:0:0:
126,127,14396,1,8,0:0:0:0:
126,127,14682,1,0,0:0:0:0:
126,127,14825,1,0,0:0:0:0:
126,127,14967,1,0,0:0:0:0:
126,127,15539,1,8,0:0:0:0:
126,127,15825,1,8,0:0:0:0:
126,127,16110,1,0,0:0:0:0:
126,127,16396,1,0,0:0:0:0:
126,127,16682,1,8,0:0:0:0:
126,127,16967,1,8,0:0:0:0:
126,127,17110,1,8,0:0:0:0:
126,127,17253,1,8,0:0:0:0:
126,127,17825,1,8,0:0:0:0:
126,127,18110,1,0,0:0:0:0:
126,127,18396,1,8,0:0:0:0:
126,127,18539,1,8,0:0:0:0:
126,127,18967,1,0,0:0:0:0:
126,127,19539,1,12,0:0:0:0:
126,127,20396,1,8,0:0:0:0:
126,127,20682,1,8,0:0:0:0:
126,127,21253,1,0,0:0:0:0:
126,127,21825,1,8,0:0:0:0:
126,127,22110,1,8,0:0:0:0:
126,127,22396,1,0,0:0:0:0:
126,127,22682,1,8,0:0:0:0:
126,127,22967,1,8,0:0:0:0:
126,127,23539,1,0,0:0:0:0:
126,127,24110,1,4,0:0:0:0:
126,127,24967,1,0,0:0:0:0:
126,127,25253,1,8,0:0:0:0:
126,127,25825,1,0,0:0:0:0:
126,127,26396,1,8,0:0:0:0:
126,127,26682,1,8,0:0:0:0:
126,127,26967,1,0,0:0:0:0:
126,127,27253,1,8,0:0:0:0:
126,127,27539,1,8,0:0:0:0:
126,127,27682,1,8,0:0:0:0:
126,127,28110,1,0,0:0:0:0:
126,127,28396,1,0,0:0:0:0:
126,127,28682,1,12,0:0:0:0:
126,127,29539,1,0,0:0:0:0:
126,127,29825,1,8,0:0:0:0:
126,127,30396,1,0,0:0:0:0:
126,127,30967,1,8,0:0:0:0:
126,127,31253,1,8,0:0:0:0:
126,127,31539,1,0,0:0:0:0:
126,127,31825,1,8,0:0:0:0:
126,127,32110,1,8,0:0:0:0:
126,127,32682,1,0,0:0:0:0:
126,127,33253,1,4,0:0:0:0:
126,127,34110,1,8,0:0:0:0:
126,127,34396,1,8,0:0:0:0:
126,127,34967,1,0,0:0:0:0:
126,127,35539,1,8,0:0:0:0:
126,127,35825,1,0,0:0:0:0:
126,127,36110,1,0,0:0:0:0:
126,127,36396,1,8,0:0:0:0:
126,127,36682,1,8,0:0:0:0:
126,127,36825,1,8,0:0:0:0:
126,127,37253,1,0,0:0:0:0:
126,127,37539,1,0,0:0:0:0:
126,127,37825,1,12,0:0:0:0:
256,192,38110,12,0,39253,0:0:0:0:
