osu file format v14

[General]
AudioFilename: audio.mp3
AudioLeadIn: 0
PreviewTime: 111596
Countdown: 0
SampleSet: Normal
StackLeniency: 0.7
Mode: 0
LetterboxInBreaks: 0
WidescreenStoryboard: 1

[Editor]
Bookmarks: 20115,31967,40856,43819,63818,75670,84559,87522,93448,99374,111226,124559,133448,136411,138818,140855
DistanceSpacing: 1.5
BeatDivisor: 4
GridSize: 32
TimelineZoom: 1.6

[Metadata]
Title:Cloud 9
TitleUnicode:Cloud 9
Artist:Beach Bunny
ArtistUnicode:Beach Bunny
Creator:Polysintek
Version:Insane
Source:
Tags:fa featured artist rock alternative indie english honeymoon pop shiny braixen nine
BeatmapID:3710866
BeatmapSetID:1795909

[Difficulty]
HPDrainRate:5
CircleSize:4
OverallDifficulty:7.5
ApproachRate:8.7
SliderMultiplier:1.4
SliderTickRate:2

[Events]
//Background and Video events
0,0,"pexels-josh-hild-2438805.jpg",0,0
//Break Periods
2,87893,91967
//Storyboard Layer 0 (Background)
//Storyboard Layer 1 (Fail)
//Storyboard Layer 2 (Pass)
//Storyboard Layer 3 (Foreground)
//Storyboard Layer 4 (Overlay)
//Storyboard Sound Samples

[TimingPoints]
116,370.37037037037,4,2,1,50,1,0
116,-111.111111111111,4,2,1,50,0,0
856,-111.111111111111,4,2,5,50,0,0
949,-111.111111111111,4,2,1,50,0,0
1041,-111.111111111111,4,2,1,50,0,0
2338,-111.111111111111,4,2,5,50,0,0
2430,-111.111111111111,4,2,1,50,0,0
3078,-111.111111111111,4,2,2,50,0,0
3819,-111.111111111111,4,2,5,50,0,0
3912,-111.111111111111,4,2,2,50,0,0
5300,-111.111111111111,4,2,5,50,0,0
5393,-111.111111111111,4,2,2,50,0,0
5671,-111.111111111111,4,2,1,50,0,0
6782,-111.111111111111,4,2,5,50,0,0
6875,-111.111111111111,4,2,1,50,0,0
6967,-111.111111111111,4,2,1,50,0,0
8264,-111.111111111111,4,2,5,50,0,0
8356,-111.111111111111,4,2,1,50,0,0
8449,-111.111111111111,4,2,1,50,0,0
9745,-111.111111111111,4,2,5,50,0,0
9838,-111.111111111111,4,2,1,50,0,0
9930,-111.111111111111,4,2,1,50,0,0
11226,-111.111111111111,4,2,5,50,0,0
11319,-111.111111111111,4,2,1,50,0,0
11412,-111.111111111111,4,2,1,50,0,0
11967,-111.111111111111,4,2,2,50,0,0
12708,-111.111111111111,4,2,5,50,0,0
12801,-111.111111111111,4,2,2,50,0,0
14190,-111.111111111111,4,2,5,50,0,0
14282,-111.111111111111,4,2,2,50,0,0
14375,-111.111111111111,4,2,2,50,0,0
14930,-111.111111111111,4,2,1,50,0,0
15671,-111.111111111111,4,2,5,50,0,0
15764,-111.111111111111,4,2,1,50,0,0
15856,-111.111111111111,4,2,1,50,0,0
17153,370.37037037037,4,2,5,55,1,0
17245,-100,4,2,2,55,0,0
19004,-100,4,2,1,55,0,0
20115,-111.111111111111,4,2,1,60,0,0
31597,-111.111111111111,4,1,1,60,0,0
31967,-80,4,1,1,80,0,1
32708,-80,4,1,5,80,0,1
32801,-80,4,1,1,80,0,1
33448,-80,4,1,5,80,0,1
33541,-80,4,1,1,80,0,1
33634,-80,4,1,1,80,0,1
34190,-80,4,1,5,80,0,1
34282,-80,4,1,1,80,0,1
35671,-80,4,1,5,80,0,1
35764,-80,4,1,1,80,0,1
36412,-80,4,1,5,80,0,1
36504,-80,4,1,1,5,0,1
36597,-80,4,1,1,80,0,1
37152,-80,4,1,5,80,0,1
37245,-80,4,1,1,80,0,1
37801,-80,4,1,1,5,0,1
37893,-80,4,1,1,80,0,1
38634,-80,4,1,5,80,0,1
38727,-80,4,1,1,80,0,1
39375,-80,4,1,5,80,0,1
39467,-80,4,1,1,80,0,1
40115,-80,4,1,5,80,0,1
40208,-80,4,1,1,80,0,1
40856,-80,4,1,2,80,0,1
41319,-80,4,1,1,80,0,1
41412,-80,4,1,1,80,0,1
41504,-80,4,1,2,80,0,1
43727,-80,4,1,2,5,0,1
43819,-111.111111111111,4,1,1,70,0,0
43912,-111.111111111111,4,2,1,50,0,0
44560,-111.111111111111,4,2,5,50,0,0
44652,-111.111111111111,4,2,1,50,0,0
46041,-111.111111111111,4,2,5,50,0,0
46134,-111.111111111111,4,2,1,50,0,0
46782,-111.111111111111,4,2,2,50,0,0
47523,-111.111111111111,4,2,5,50,0,0
47615,-111.111111111111,4,2,2,50,0,0
49004,-111.111111111111,4,2,5,50,0,0
49097,-111.111111111111,4,2,2,50,0,0
49745,-111.111111111111,4,2,1,50,0,0
50486,-111.111111111111,4,2,5,50,0,0
50578,-111.111111111111,4,2,1,50,0,0
50671,-111.111111111111,4,2,1,50,0,0
51967,-111.111111111111,4,2,5,50,0,0
52060,-111.111111111111,4,2,1,50,0,0
52152,-111.111111111111,4,2,1,50,0,0
53449,-111.111111111111,4,2,5,50,0,0
53541,-111.111111111111,4,2,1,50,0,0
53634,-111.111111111111,4,2,1,50,0,0
54930,-111.111111111111,4,2,5,50,0,0
55023,-111.111111111111,4,2,1,50,0,0
55671,-111.111111111111,4,2,2,50,0,0
56412,-111.111111111111,4,2,5,50,0,0
56504,-111.111111111111,4,2,2,50,0,0
57893,-111.111111111111,4,2,5,50,0,0
57986,-111.111111111111,4,2,2,50,0,0
58634,-111.111111111111,4,2,1,50,0,0
59375,-111.111111111111,4,2,5,50,0,0
59467,-111.111111111111,4,2,1,50,0,0
59560,-111.111111111111,4,2,1,50,0,0
60856,370.37037037037,4,2,5,55,1,0
60948,-100,4,2,2,55,0,0
62615,-100,4,2,2,5,0,0
62707,-100,4,2,1,55,0,0
63818,-86.9565217391304,4,2,1,60,0,0
75670,-74.0740740740741,4,1,1,80,0,1
76411,-74.0740740740741,4,1,5,80,0,1
76504,-74.0740740740741,4,1,1,80,0,1
77151,-74.0740740740741,4,1,5,80,0,1
77244,-74.0740740740741,4,1,1,80,0,1
77337,-74.0740740740741,4,1,1,80,0,1
77893,-74.0740740740741,4,1,5,80,0,1
77985,-74.0740740740741,4,1,1,80,0,1
78541,-74.0740740740741,4,1,1,5,0,1
78633,-74.0740740740741,4,1,1,80,0,1
79374,-74.0740740740741,4,1,5,80,0,1
79467,-74.0740740740741,4,1,1,80,0,1
80115,-74.0740740740741,4,1,5,80,0,1
80207,-74.0740740740741,4,1,1,80,0,1
80855,-74.0740740740741,4,1,5,80,0,1
80948,-74.0740740740741,4,1,1,80,0,1
81504,-74.0740740740741,4,1,1,5,0,1
81596,-74.0740740740741,4,1,1,80,0,1
82337,-74.0740740740741,4,1,5,80,0,1
82430,-74.0740740740741,4,1,1,80,0,1
83078,-74.0740740740741,4,1,5,80,0,1
83170,-74.0740740740741,4,1,1,80,0,1
83818,-74.0740740740741,4,1,5,80,0,1
83911,-74.0740740740741,4,1,1,80,0,1
84559,-74.0740740740741,4,1,2,80,0,1
85022,-74.0740740740741,4,1,1,80,0,1
85115,-74.0740740740741,4,1,1,80,0,1
85207,-74.0740740740741,4,1,2,80,0,1
87522,-74.0740740740741,4,1,1,70,0,0
87615,-74.0740740740741,4,1,2,55,0,0
88263,-74.0740740740741,4,1,5,55,0,0
88355,-74.0740740740741,4,1,2,55,0,0
89004,-74.0740740740741,4,1,5,55,0,0
89096,-74.0740740740741,4,1,2,55,0,0
89744,-74.0740740740741,4,1,5,55,0,0
89837,-74.0740740740741,4,1,2,55,0,0
90485,-74.0740740740741,4,1,5,55,0,0
90578,-74.0740740740741,4,1,2,55,0,0
91226,-74.0740740740741,4,1,5,55,0,0
91318,-74.0740740740741,4,1,2,55,0,0
91967,-74.0740740740741,4,1,5,55,0,0
92059,-74.0740740740741,4,1,2,55,0,0
92707,-74.0740740740741,4,1,5,55,0,0
92800,-74.0740740740741,4,1,2,55,0,0
93448,-74.0740740740741,4,1,5,55,0,0
93541,-74.0740740740741,4,1,2,55,0,0
93633,-74.0740740740741,4,1,2,55,0,0
94189,-74.0740740740741,4,1,5,55,0,0
94281,-74.0740740740741,4,1,2,55,0,0
94374,-74.0740740740741,4,1,2,55,0,0
94930,-74.0740740740741,4,1,5,55,0,0
95022,-74.0740740740741,4,1,2,55,0,0
95115,-74.0740740740741,4,1,2,55,0,0
95670,-74.0740740740741,4,1,5,55,0,0
95763,-74.0740740740741,4,1,2,55,0,0
95855,-74.0740740740741,4,1,2,55,0,0
96041,-111.111111111111,4,1,2,55,0,0
96411,-111.111111111111,4,1,5,55,0,0
96504,-111.111111111111,4,1,2,55,0,0
96596,-111.111111111111,4,1,2,55,0,0
97152,-111.111111111111,4,1,5,55,0,0
97244,-111.111111111111,4,1,2,55,0,0
97337,-111.111111111111,4,1,2,55,0,0
97893,-111.111111111111,4,1,5,55,0,0
97985,-111.111111111111,4,1,2,55,0,0
98078,-111.111111111111,4,1,2,55,0,0
98633,-111.111111111111,4,1,5,55,0,0
98726,-111.111111111111,4,1,2,55,0,0
98818,-111.111111111111,4,1,2,55,0,0
99004,-83.3333333333333,4,1,2,55,0,0
99559,-100,4,1,2,55,0,0
100115,-100,4,1,5,55,0,0
100207,-100,4,1,2,55,0,0
100300,-100,4,1,2,55,0,0
100855,-100,4,1,5,55,0,0
100948,-100,4,1,2,55,0,0
101041,-100,4,1,2,55,0,0
101596,-100,4,1,5,55,0,0
101689,-100,4,1,2,55,0,0
102337,-100,4,1,5,55,0,0
102430,-100,4,1,2,55,0,0
103078,-100,4,1,5,55,0,0
103170,-100,4,1,2,55,0,0
103263,-100,4,1,2,55,0,0
103818,-100,4,1,5,55,0,0
103911,-100,4,1,2,55,0,0
104004,-100,4,1,2,55,0,0
104559,-100,4,1,5,55,0,0
104652,-100,4,1,2,55,0,0
104744,-100,4,1,2,55,0,0
106041,-100,4,1,5,55,0,0
106133,-100,4,1,2,55,0,0
106226,-100,4,1,2,55,0,0
106781,-100,4,1,5,55,0,0
106874,-100,4,1,2,55,0,0
107522,-100,4,1,5,55,0,0
107615,-100,4,1,2,55,0,0
107707,-100,4,1,2,55,0,0
108263,-100,4,1,5,55,0,0
108355,-100,4,1,2,55,0,0
109004,-100,4,1,5,55,0,0
109107,-100,4,1,2,55,0,0
109189,-100,4,1,2,55,0,0
109744,-100,4,1,5,55,0,0
109837,-100,4,1,2,55,0,0
111596,-100,4,1,1,40,0,0
111874,-100,4,1,1,5,0,0
111967,-100,4,1,1,53,0,0
112244,-100,4,1,1,5,0,0
112337,-100,4,1,1,65,0,0
112615,-100,4,1,1,5,0,0
112707,-80,4,1,1,80,0,1
113448,-80,4,1,5,80,0,1
113541,-80,4,1,1,80,0,1
113633,-80,4,1,1,80,0,1
114188,-80,4,1,5,80,0,1
114281,-80,4,1,1,80,0,1
114374,-80,4,1,1,80,0,1
114930,-80,4,1,5,80,0,1
115022,-80,4,1,1,80,0,1
116411,-80,4,1,5,80,0,1
116504,-80,4,1,1,80,0,1
117151,-80,4,1,5,80,0,1
117244,-80,4,1,1,80,0,1
117337,-80,4,1,1,80,0,1
117892,-80,4,1,5,80,0,1
117985,-80,4,1,1,80,0,1
118078,-80,4,1,1,80,0,1
119374,-80,4,1,5,80,0,1
119467,-80,4,1,1,80,0,1
119559,-80,4,1,1,80,0,1
120114,-80,4,1,5,80,0,1
120207,-80,4,1,1,80,0,1
120300,-80,4,1,1,80,0,1
120855,-80,4,1,5,80,0,1
120948,-80,4,1,1,80,0,1
122337,-80,4,1,5,80,0,1
122430,-80,4,1,1,80,0,1
123078,-80,4,1,5,80,0,1
123170,-80,4,1,1,80,0,1
123263,-80,4,1,1,80,0,1
123818,-80,4,1,5,80,0,1
123911,-80,4,1,1,80,0,1
124004,-80,4,1,1,80,0,1
124189,-80,4,1,1,80,0,0
124559,-80,4,1,1,80,0,1
125300,-80,4,1,5,80,0,1
125393,-80,4,1,1,80,0,1
125485,-80,4,1,1,80,0,1
126040,-80,4,1,5,80,0,1
126133,-80,4,1,1,80,0,1
126226,-80,4,1,1,80,0,1
126781,-80,4,1,5,80,0,1
126874,-80,4,1,1,80,0,1
128263,-80,4,1,5,80,0,1
128355,-80,4,1,1,80,0,1
129004,-80,4,1,5,80,0,1
129096,-80,4,1,1,80,0,1
129744,-80,4,1,5,80,0,1
129837,-80,4,1,1,80,0,1
131226,-80,4,1,5,80,0,1
131318,-80,4,1,1,80,0,1
131411,-80,4,1,1,80,0,1
131967,-80,4,1,5,80,0,1
132059,-80,4,1,1,80,0,1
132707,-80,4,1,5,80,0,1
132800,-80,4,1,1,80,0,1
133448,-80,4,1,2,80,0,1
133911,-80,4,1,1,80,0,1
134004,-80,4,1,1,80,0,1
134096,-80,4,1,2,80,0,1
134189,-80,4,1,2,80,0,1
136411,-333.333333333333,4,1,1,70,0,0
139374,-333.333333333333,4,1,1,50,0,0
140855,-333.333333333333,4,1,1,40,0,0
142337,-333.333333333333,4,1,1,30,0,0
143818,-333.333333333333,4,1,1,20,0,0
144559,-333.333333333333,4,1,1,10,0,0

[Colours]
Combo1 : 134,214,240
Combo2 : 36,166,147
Combo3 : 31,135,165

[HitObjects]
109,42,116,6,0,P|62:81|59:145,1,126,2|8,3:1|0:1,0:0:0:0:
157,186,671,2,0,P|150:155|144:124,1,63.0000000000001,2|0,3:1|3:0,0:0:0:0:
79,233,1041,1,0,3:1:0:0:
159,284,1227,1,8,0:1:0:0:
403,110,1597,2,0,P|341:122|279:134,1,126,2|8,3:1|0:1,0:0:0:0:
322,330,2153,2,0,P|383:316|445:304,1,126,2|0,3:1|3:1,0:0:0:0:
362,219,2708,1,8,0:1:0:0:
43,374,3078,6,0,B|35:314|35:314|29:309|29:309|22:250,1,126,2|8,3:1|0:1,0:0:0:0:
128,182,3634,2,0,L|113:262,2,63.0000000000001,0|0|0,3:1|3:0|3:1,0:0:0:0:
25,130,4190,1,10,0:1:0:0:
233,11,4560,2,0,B|297:14|275:50|348:53,1,126,2|8,3:1|0:1,0:0:0:0:
408,159,5115,2,0,P|397:188|389:219,2,63.0000000000001,0|0|0,3:1|3:0|3:1,0:0:0:0:
502,91,5671,1,10,1:1:0:0:
437,352,6041,6,0,B|378:347|378:347|376:339|376:339|314:334,1,126,2|8,3:1|0:1,0:0:0:0:
202,278,6597,2,0,P|208:306|214:339,1,63.0000000000001,2|0,3:1|3:0,0:0:0:0:
292,238,6967,1,0,3:1:0:0:
206,185,7153,1,8,0:1:0:0:
88,371,7523,2,0,P|51:349|31:258,1,126,0|8,3:1|0:1,0:0:0:0:
91,201,8078,1,0,3:1:0:0:
30,134,8264,1,2,3:1:0:0:
84,58,8449,1,0,3:1:0:0:
13,122,8634,1,8,0:1:0:0:
238,38,9004,6,0,B|307:40|280:89|344:95,1,126,2|8,3:1|0:1,0:0:0:0:
449,63,9560,2,0,P|460:38|469:3,1,63.0000000000001,2|0,3:1|3:0,0:0:0:0:
330,110,9930,1,0,3:1:0:0:
419,151,10115,1,8,0:1:0:0:
265,355,10486,2,0,P|257:283|240:217,1,126,2|8,3:1|0:1,0:0:0:0:
369,283,11041,2,0,P|359:313|353:352,1,63.0000000000001,2|0,3:1|3:0,0:0:0:0:
479,376,11412,1,0,3:1:0:0:
456,291,11597,1,8,0:1:0:0:
241,377,11967,6,0,P|190:361|172:280,1,126,2|8,3:1|0:1,0:0:0:0:
46,246,12523,2,0,P|40:278|39:313,2,63.0000000000001,0|0|0,3:1|3:0|3:1,0:0:0:0:
147,182,13078,1,10,0:1:0:0:
348,40,13449,2,0,P|338:95|328:169,1,126,2|8,3:1|0:1,0:0:0:0:
380,238,14004,1,0,3:1:0:0:
471,219,14190,1,0,3:0:0:0:
471,219,14375,1,0,3:1:0:0:
483,126,14560,1,8,0:1:0:0:
351,323,14930,6,0,B|283:323|307:369|230:369,1,126,2|8,3:1|0:1,0:0:0:0:
163,304,15486,2,0,P|167:274|178:237,1,63.0000000000001,2|0,3:1|3:0,0:0:0:0:
110,167,15856,1,0,3:1:0:0:
27,215,16041,1,8,0:1:0:0:
136,16,16412,6,0,P|183:25|231:33,1,94.5000000000001,0|0,3:1|0:0,0:0:0:0:
265,19,16782,1,8,0:1:0:0:
328,91,16967,1,0,3:1:0:0:
478,11,17153,6,0,P|443:18|410:28,1,70,2|0,3:1|3:1,0:0:0:0:
414,143,17523,2,0,P|385:123|355:107,1,70,10|0,0:1|0:0,0:0:0:0:
276,191,17893,2,0,P|269:156|260:123,1,70,0|0,3:1|0:0,0:0:0:0:
144,126,18264,2,0,P|164:97|180:67,1,70,10|0,0:1|3:1,0:0:0:0:
23,104,18634,6,0,P|62:160|95:229,1,140,2|10,3:1|0:1,0:0:0:0:
24,351,19190,1,0,3:1:0:0:
24,351,19282,1,0,3:1:0:0:
24,351,19375,1,10,0:1:0:0:
100,308,19560,1,0,3:1:0:0:
200,381,19745,1,10,0:1:0:0:
200,381,20115,6,0,P|238:344|268:324,1,62.9999980773926,6|0,3:1|0:0,0:0:0:0:
350,364,20486,1,8,0:1:0:0:
444,291,20671,2,0,B|446:223|497:251|489:173,1,125.999996154785,2|0,0:1|3:1,0:0:0:0:
432,75,21227,2,0,B|380:80|380:80|362:98|362:98|312:103,1,125.999996154785,10|0,0:1|3:1,0:0:0:0:
196,58,21782,1,2,3:1:0:0:
137,139,21967,2,0,L|127:230,1,62.9999980773926,8|0,0:1|3:1,0:0:0:0:
39,292,22338,2,0,L|30:218,1,62.9999980773926,2|0,3:1|3:1,0:0:0:0:
129,342,22708,1,10,0:1:0:0:
129,342,23078,6,0,L|211:353,2,62.9999980773926,6|0|8,3:1|0:0|0:1,0:0:0:0:
212,245,23634,2,0,L|284:235,2,62.9999980773926,2|0|0,3:1|3:1|3:1,0:0:0:0:
308,332,24190,2,0,L|441:352,1,125.999996154785,10|0,0:1|3:1,0:0:0:0:
512,283,24745,1,2,3:1:0:0:
408,192,24930,2,0,P|424:244|430:265,1,62.9999980773926,8|0,0:1|3:1,0:0:0:0:
473,136,25301,1,2,3:1:0:0:
411,90,25486,1,0,3:1:0:0:
506,34,25671,1,10,0:1:0:0:
506,34,26041,6,0,L|493:111,2,62.9999980773926,6|0|8,3:1|3:1|0:1,0:0:0:0:
395,104,26597,2,0,L|408:181,2,62.9999980773926,2|0|0,0:1|3:1|3:1,0:0:0:0:
305,13,27152,2,0,L|282:162,1,125.999996154785,10|0,0:1|3:1,0:0:0:0:
218,198,27708,1,2,3:1:0:0:
137,88,27893,2,0,P|170:104|212:122,1,62.9999980773926,8|0,0:1|3:1,0:0:0:0:
67,148,28264,1,2,3:1:0:0:
2,81,28449,1,0,3:1:0:0:
106,8,28634,1,10,0:1:0:0:
106,8,29004,6,0,P|188:22|252:24,1,125.999996154785,6|8,3:1|0:1,0:0:0:0:
350,107,29560,2,0,P|386:101|419:100,2,62.9999980773926,2|0|0,3:1|3:1|3:1,0:0:0:0:
236,181,30115,2,0,B|236:241|282:226|282:294,1,125.999996154785,10|0,0:1|3:1,0:0:0:0:
235,376,30671,1,2,3:1:0:0:
144,289,30856,2,0,P|113:297|82:300,1,62.9999980773926,8|0,0:1|3:1,0:0:0:0:
10,216,31227,5,2,3:1:0:0:
75,137,31412,1,0,3:0:0:0:
33,72,31597,1,10,0:1:0:0:
33,72,31967,6,0,P|115:104|215:137,1,175,6|8,3:1|0:1,0:0:0:0:
278,79,32523,1,2,3:1:0:0:
368,181,32708,2,0,P|411:175|453:164,1,87.5,0|0,3:0|3:1,0:0:0:0:
316,355,33078,6,0,P|301:268|274:185,1,175,10|0,0:1|3:0,0:0:0:0:
197,131,33634,1,2,3:1:0:0:
87,209,33819,2,0,P|98:251|107:294,1,87.5,8|0,0:1|3:1,0:0:0:0:
104,109,34190,2,0,P|61:120|18:129,1,87.5,2|0,3:1|3:1,0:0:0:0:
132,10,34560,2,0,P|188:24|279:32,1,131.25,10|0,0:1|0:0,0:0:0:0:
292,25,34930,5,6,3:1:0:0:
351,102,35115,1,0,3:1:0:0:
447,73,35301,1,8,0:1:0:0:
356,81,35486,1,2,3:1:0:0:
315,182,35671,2,0,P|322:223|329:274,1,87.5,0|0,3:0|3:1,0:0:0:0:
448,290,36041,5,10,0:1:0:0:
291,374,36227,2,0,B|212:369|251:327|175:319,1,131.25,0|0,3:1|0:0,0:0:0:0:
148,326,36597,1,2,3:1:0:0:
29,270,36782,2,0,P|38:312|46:355,1,87.5,8|0,0:1|3:1,0:0:0:0:
113,244,37152,2,0,P|120:200|130:158,1,87.5,2|0,3:1|3:1,0:0:0:0:
22,97,37523,2,0,P|41:38|125:34,1,131.25,10|0,0:1|0:0,0:0:0:0:
125,40,37893,5,6,3:1:0:0:
221,9,38078,1,0,3:1:0:0:
257,97,38264,1,8,0:1:0:0:
350,57,38449,2,0,B|419:56|402:111|469:108|469:108|446:101|433:90,1,175,2|0,3:1|3:1,0:0:0:0:
343,139,39004,5,10,0:1:0:0:
283,251,39190,2,0,P|327:285|409:384,1,175,0|2,3:1|3:1,0:0:0:0:
470,232,39745,2,0,P|431:220|384:208,1,87.5,8|0,0:1|3:1,0:0:0:0:
193,290,40115,2,0,P|209:346|216:379,1,87.5,2|0,3:1|3:1,0:0:0:0:
132,216,40486,2,0,P|148:160|155:127,1,87.5,10|0,0:1|3:1,0:0:0:0:
13,175,40856,5,6,3:1:0:0:
2,261,41041,1,0,0:0:0:0:
68,370,41227,1,10,0:1:0:0:
163,359,41412,2,0,P|173:316|192:259,1,87.5,2|2,3:1|0:0,0:0:0:0:
205,186,41782,1,0,3:1:0:0:
44,121,41967,2,0,P|54:163|73:221,1,87.5,10|0,0:1|3:1,0:0:0:0:
208,77,42338,6,0,P|163:64|114:42,1,87.5,2|0,3:1|3:1,0:0:0:0:
90,186,42708,1,10,0:1:0:0:
179,220,42893,2,0,P|221:208|262:192,1,87.5,0|2,3:1|3:1,0:0:0:0:
304,97,43264,1,0,3:1:0:0:
399,194,43449,2,0,P|379:270|354:337,1,131.25,10|0,0:1|0:0,0:0:0:0:
316,355,43819,6,0,B|247:359|275:319|195:322,1,126,6|8,3:1|0:1,0:0:0:0:
82,364,44375,2,0,P|53:351|24:337,2,63.0000000000001,2|0|0,3:1|3:0|3:1,0:0:0:0:
101,266,44930,1,8,0:1:0:0:
172,88,45301,2,0,P|177:166|185:237,1,126,2|8,3:1|0:1,0:0:0:0:
81,179,45856,2,0,P|76:101|68:30,1,126,2|0,3:1|3:1,0:0:0:0:
150,0,46412,1,8,0:1:0:0:
291,153,46782,6,0,B|354:158|324:105|401:109,1,126,2|8,3:1|0:1,0:0:0:0:
482,57,47338,2,0,B|497:31|497:31|480:2,2,63.0000000000001,0|0|0,3:1|3:0|3:1,0:0:0:0:
395,25,47893,1,10,0:1:0:0:
269,169,48264,2,0,P|294:223|309:297,1,126,2|8,3:1|0:1,0:0:0:0:
373,355,48819,2,0,P|404:360|447:372,2,63.0000000000001,0|0|0,3:1|3:0|3:1,0:0:0:0:
400,271,49375,1,8,0:1:0:0:
190,347,49745,6,0,P|111:323|109:263,1,126,2|8,3:1|0:1,0:0:0:0:
183,221,50301,2,0,P|217:215|246:211,1,63.0000000000001,2|0,3:1|3:0,0:0:0:0:
114,154,50671,1,0,3:1:0:0:
114,154,50856,2,0,P|70:148|29:138,1,63.0000000000001,8|2,0:1|0:1,0:0:0:0:
183,50,51227,2,0,B|249:56|218:106|301:111,1,126,0|8,3:1|0:1,0:0:0:0:
362,41,51782,1,0,3:1:0:0:
426,116,51967,1,2,3:1:0:0:
481,31,52152,1,0,3:1:0:0:
442,133,52338,1,8,0:1:0:0:
369,315,52708,6,0,B|307:307|307:307|302:310|302:310|244:302,1,126,2|8,3:1|0:1,0:0:0:0:
128,201,53264,2,0,L|141:270,1,63.0000000000001,2|0,3:1|3:0,0:0:0:0:
162,356,53634,1,0,3:1:0:0:
233,285,53819,1,8,0:1:0:0:
54,139,54190,2,0,B|89:128|109:109|109:109|134:120|170:114,1,126,2|8,3:1|0:1,0:0:0:0:
339,87,54745,2,0,P|291:47|229:48,1,126,2|0,3:1|3:1,0:0:0:0:
260,134,55301,1,8,0:1:0:0:
489,20,55671,6,0,P|472:80|460:142,1,126,2|8,3:1|0:1,0:0:0:0:
376,214,56227,2,0,P|384:244|390:275,2,63.0000000000001,0|0|0,3:1|3:0|3:1,0:0:0:0:
478,246,56782,1,10,0:1:0:0:
295,366,57152,2,0,P|253:320|191:318,1,126,2|8,3:1|0:1,0:0:0:0:
67,367,57708,2,0,P|59:335|49:306,2,63.0000000000001,0|0|0,3:1|3:0|3:1,0:0:0:0:
128,263,58264,1,8,0:1:0:0:
68,67,58634,6,0,P|56:128|45:214,1,126,2|8,3:1|0:1,0:0:0:0:
170,172,59190,2,0,P|164:141|160:109,1,63.0000000000001,2|0,3:1|3:0,0:0:0:0:
239,43,59560,1,0,3:1:0:0:
239,43,59745,1,8,0:1:0:0:
385,158,60115,6,0,P|447:148|486:72,1,126,0|8,3:1|0:1,0:0:0:0:
395,67,60671,1,0,3:1:0:0:
302,110,60856,6,0,P|270:125|242:146,1,70,2|0,3:1|3:1,0:0:0:0:
385,239,61226,2,0,P|355:219|323:205,1,70,10|0,0:1|0:0,0:0:0:0:
315,376,61596,2,0,P|317:341|313:306,1,70,0|0,3:1|0:0,0:0:0:0:
161,384,61967,2,0,P|192:368|220:347,1,70,10|0,0:1|3:1,0:0:0:0:
81,236,62337,6,0,P|129:253|181:261,1,105,2|0,0:1|0:0,0:0:0:0:
206,258,62707,1,10,0:1:0:0:
263,129,62893,1,0,3:1:0:0:
263,129,62985,1,0,3:1:0:0:
263,129,63078,1,10,0:1:0:0:
176,173,63263,1,0,3:1:0:0:
300,217,63448,1,10,0:1:0:0:
300,217,63818,6,0,B|384:218|345:139|428:137,1,161,6|8,3:1|0:1,0:0:0:0:
495,88,64374,2,0,P|488:50|483:8,2,80.5,2|0|0,3:1|3:1|3:1,0:0:0:0:
396,53,64930,2,0,P|352:40|229:37,1,161,10|0,0:1|3:1,0:0:0:0:
166,106,65485,2,0,P|182:158|186:189,2,80.5,2|8|0,0:1|0:1|3:1,0:0:0:0:
103,30,66041,1,2,3:1:0:0:
23,67,66226,1,0,3:1:0:0:
55,194,66411,1,10,0:1:0:0:
55,194,66781,6,0,B|46:273|46:273|41:278|41:278|33:351,1,161,6|8,3:1|0:1,0:0:0:0:
138,246,67337,2,0,L|216:261,1,80.5,2|0,3:1|3:1,0:0:0:0:
309,298,67707,1,0,3:1:0:0:
383,222,67893,2,0,B|410:235|437:251|437:251|430:307|421:360,1,161,10|0,0:1|3:1,0:0:0:0:
337,305,68448,1,2,3:1:0:0:
228,370,68633,2,0,P|225:330|219:289,1,80.5,8|0,0:1|3:1,0:0:0:0:
161,215,69004,1,2,3:1:0:0:
209,143,69189,1,0,3:1:0:0:
110,112,69374,1,10,0:1:0:0:
110,112,69744,6,0,B|99:80|95:50|95:50|143:35|194:14,1,161,6|8,3:1|0:1,0:0:0:0:
296,49,70300,2,0,P|341:55|388:65,2,80.5,2|0|0,3:1|3:1|3:1,0:0:0:0:
220,128,70855,1,10,0:1:0:0:
220,128,71226,6,0,P|217:168|207:207,1,80.5,0|2,3:1|3:1,0:0:0:0:
369,237,71596,2,0,P|372:197|381:157,1,80.5,8|0,0:1|3:1,0:0:0:0:
295,187,71967,1,2,3:1:0:0:
355,246,72152,1,0,3:1:0:0:
265,322,72337,1,10,0:1:0:0:
265,322,72707,5,6,3:1:0:0:
195,367,72893,1,0,3:1:0:0:
149,302,73078,1,8,0:1:0:0:
79,341,73263,2,0,L|-1:356,2,80.5,2|0|0,3:1|3:1|3:1,0:0:0:0:
218,256,73818,2,0,B|223:212|232:159|232:159|211:130|190:111,1,161,10|0,0:1|3:1,0:0:0:0:
95,43,74374,1,2,3:1:0:0:
95,43,74559,2,0,P|100:84|105:141,1,80.5,8|0,0:1|3:1,0:0:0:0:
22,221,74930,5,2,3:1:0:0:
137,297,75115,1,0,3:1:0:0:
218,256,75300,1,10,0:1:0:0:
218,256,75670,6,0,P|271:202|328:102,1,189,6|8,3:1|0:1,0:0:0:0:
290,38,76226,1,2,3:1:0:0:
398,143,76411,2,0,P|453:155|503:158,1,94.5,0|0,3:0|3:1,0:0:0:0:
342,308,76781,6,0,P|325:211|294:122,1,189,10|0,0:1|3:0,0:0:0:0:
215,144,77337,1,2,3:1:0:0:
143,252,77522,2,0,P|192:238|242:226,1,94.5,8|0,0:1|3:1,0:0:0:0:
51,223,77893,2,0,P|43:272|28:327,1,94.5,2|0,3:1|3:1,0:0:0:0:
119,161,78263,2,0,P|82:101|43:14,1,141.75,10|0,0:1|0:0,0:0:0:0:
74,0,78633,5,6,3:1:0:0:
170,60,78818,1,0,3:1:0:0:
266,0,79004,1,8,0:1:0:0:
169,40,79189,1,2,3:1:0:0:
272,117,79374,2,0,P|325:128|387:134,1,94.5,0|0,3:0|3:1,0:0:0:0:
427,66,79744,5,10,0:1:0:0:
488,195,79930,2,0,B|480:295|402:254|418:364,1,189,0|2,3:1|3:1,0:0:0:0:
318,299,80485,2,0,P|336:255|364:217,1,94.5,8|0,0:1|3:1,0:0:0:0:
232,357,80855,2,0,P|175:351|130:340,1,94.5,2|0,3:1|3:1,0:0:0:0:
48,247,81226,2,0,P|55:180|119:159,1,141.75,10|0,0:1|0:0,0:0:0:0:
143,180,81596,5,6,3:1:0:0:
224,250,81781,1,0,3:1:0:0:
300,164,81967,1,8,0:1:0:0:
209,93,82152,2,0,L|190:-15,2,94.5,2|0|0,3:1|3:0|3:1,0:0:0:0:
222,167,82707,5,10,0:1:0:0:
309,63,82893,2,0,B|400:74|400:74|404:80|404:80|492:91,1,189,0|2,3:1|3:1,0:0:0:0:
384,249,83448,2,0,P|374:197|362:149,1,94.5,8|0,0:1|3:1,0:0:0:0:
478,289,83818,2,0,P|465:337|455:386,1,94.5,2|0,3:1|3:1,0:0:0:0:
261,332,84189,2,0,P|274:284|284:235,1,94.5,10|0,0:1|3:1,0:0:0:0:
145,273,84559,5,6,3:1:0:0:
109,346,84744,1,0,0:0:0:0:
42,206,84930,1,10,0:1:0:0:
102,142,85115,2,0,P|150:159|213:177,1,94.5,2|2,3:1|0:0,0:0:0:0:
263,132,85485,1,0,3:1:0:0:
356,0,85670,2,0,P|308:17|245:35,1,94.5,10|0,0:1|3:1,0:0:0:0:
416,148,86041,5,2,0:0:0:0:
452,64,86226,1,0,3:1:0:0:
352,39,86411,1,10,0:1:0:0:
319,127,86596,2,0,P|333:170|347:230,1,94.5,0|2,3:1|0:0,0:0:0:0:
458,366,86967,1,0,3:1:0:0:
320,310,87152,1,10,0:1:0:0:
443,210,87337,1,0,0:0:0:0:
409,289,87522,1,4,3:1:0:0:
55,65,93448,5,0,3:1:0:0:
55,65,93633,1,2,3:1:0:0:
161,87,94004,5,0,3:1:0:0:
161,87,94189,1,0,3:1:0:0:
161,87,94374,1,2,3:1:0:0:
267,109,94744,5,0,3:1:0:0:
267,109,94930,1,0,3:1:0:0:
267,109,95115,1,2,3:1:0:0:
373,131,95485,5,0,3:1:0:0:
454,95,95670,1,0,3:1:0:0:
386,48,95855,1,2,3:1:0:0:
373,131,96041,2,0,L|391:215,1,63.0000000000001,10|0,0:1|0:0,0:0:0:0:
452,290,96411,5,0,3:1:0:0:
452,290,96596,1,2,3:1:0:0:
354,311,96967,5,0,3:1:0:0:
354,311,97152,1,0,3:1:0:0:
354,311,97337,1,2,3:1:0:0:
256,332,97707,5,0,3:1:0:0:
256,332,97893,1,0,3:1:0:0:
256,332,98078,1,2,3:1:0:0:
158,353,98448,5,0,3:1:0:0:
98,301,98633,1,0,3:1:0:0:
130,227,98818,1,2,3:1:0:0:
62,183,99004,2,0,P|48:138|27:81,1,84,10|0,0:1|0:0,0:0:0:0:
110,14,99374,5,0,3:1:0:0:
161,71,99559,2,0,P|191:64|247:57,1,70,2|8,3:1|0:1,0:0:0:0:
293,106,99930,1,0,3:1:0:0:
349,51,100115,1,0,3:1:0:0:
409,101,100300,2,0,P|443:108|477:113,1,70,2|8,3:1|0:1,0:0:0:0:
464,199,100670,2,0,P|429:191|395:186,1,70,0|0,3:1|3:1,0:0:0:0:
331,232,101041,5,2,3:1:0:0:
369,303,101226,1,8,0:1:0:0:
299,339,101411,1,0,3:1:0:0:
260,269,101596,2,0,P|223:275|178:278,1,70,0|2,3:1|3:1,0:0:0:0:
125,238,101967,1,8,0:1:0:0:
125,238,102337,6,0,P|130:202|144:143,1,70,0|2,3:1|3:1,0:0:0:0:
202,124,102707,2,0,P|236:131|270:135,1,70,8|0,0:1|3:1,0:0:0:0:
325,79,103078,1,0,3:1:0:0:
381,135,103263,2,0,P|392:176|399:212,1,70,2|8,3:1|0:1,0:0:0:0:
478,181,103633,2,0,P|467:140|460:104,1,70,0|0,3:1|3:1,0:0:0:0:
487,38,104004,5,2,3:1:0:0:
417,0,104189,2,0,P|382:7|349:16,1,70,8|0,0:1|3:1,0:0:0:0:
305,81,104559,1,0,3:1:0:0:
235,44,104744,1,2,3:1:0:0:
202,114,104930,1,10,0:1:0:0:
202,114,105300,6,0,P|168:104|121:95,1,70,0|2,3:1|3:1,0:0:0:0:
93,163,105670,2,0,P|59:173|12:182,1,70,8|0,0:1|3:1,0:0:0:0:
0,253,106041,1,0,3:1:0:0:
65,300,106226,2,0,P|99:290|146:281,1,70,2|8,3:1|0:1,0:0:0:0:
199,328,106596,1,0,3:1:0:0:
259,275,106781,6,0,P|270:243|276:207,1,70,0|2,3:1|3:1,0:0:0:0:
360,225,107152,2,0,P|348:259|342:292,1,70,8|0,0:1|3:1,0:0:0:0:
392,356,107522,1,0,3:1:0:0:
460,313,107707,1,2,3:1:0:0:
505,379,107893,1,10,0:1:0:0:
505,379,108263,6,0,P|495:343|486:300,1,70,0|2,3:1|3:1,0:0:0:0:
429,264,108633,2,0,P|421:229|412:196,1,70,8|0,0:1|3:1,0:0:0:0:
456,129,109004,1,0,3:1:0:0:
404,71,109189,2,0,P|369:68|328:58,1,70,2|8,3:1|0:1,0:0:0:0:
276,114,109559,6,0,P|285:148|293:192,2,70,0|0|2,3:1|3:1|3:1,0:0:0:0:
205,79,110115,1,8,0:1:0:0:
89,155,110300,1,0,3:1:0:0:
89,155,110393,1,0,3:1:0:0:
89,155,110485,1,2,3:1:0:0:
98,42,110670,1,0,3:1:0:0:
200,198,110855,1,10,0:1:0:0:
481,81,111596,5,2,0:1:0:0:
409,43,111967,5,2,0:1:0:0:
304,120,112337,5,2,0:1:0:0:
163,38,112707,6,0,P|123:86|59:210,1,175,6|8,3:1|0:1,0:0:0:0:
227,261,113263,2,0,P|208:213|193:161,1,87.5,2|0,3:1|3:3,0:0:0:0:
128,249,113633,1,0,3:1:0:0:
298,339,113818,6,0,P|380:317|404:235,1,175,10|0,0:1|3:0,0:0:0:0:
353,163,114374,1,2,3:1:0:0:
459,67,114559,2,0,P|445:116|435:174,1,87.5,8|0,0:1|3:1,0:0:0:0:
313,251,114930,2,0,P|303:204|291:157,1,87.5,2|0,3:1|3:1,0:0:0:0:
249,72,115300,1,10,0:1:0:0:
152,42,115485,1,0,3:1:0:0:
62,92,115670,6,0,P|55:135|46:178,1,87.5,6|0,3:1|3:1,0:0:0:0:
138,279,116041,1,8,0:1:0:0:
218,231,116226,2,0,P|225:187|234:145,1,87.5,2|0,3:1|3:0,0:0:0:0:
132,192,116596,1,0,3:1:0:0:
217,310,116781,2,0,B|251:327|302:329|302:329|262:351|217:347,1,175,10|0,0:1|3:1,0:0:0:0:
111,212,117337,5,2,3:1:0:0:
139,328,117522,2,0,B|233:315|186:253|284:246,1,175,8|2,0:1|3:1,0:0:0:0:
375,303,118078,1,2,3:1:0:0:
466,212,118263,2,0,B|496:181|496:181|479:139,1,87.5,10|0,0:1|3:1,0:0:0:0:
336,53,118633,6,0,P|367:117|375:135,1,87.5,6|0,3:1|3:1,0:0:0:0:
438,69,119004,1,8,0:1:0:0:
314,193,119189,2,0,P|275:170|232:149,1,87.5,2|0,3:1|3:0,0:0:0:0:
161,183,119559,1,0,3:1:0:0:
218,47,119744,2,0,P|138:83|54:109,1,175,10|0,0:1|3:0,0:0:0:0:
12,41,120300,5,2,3:1:0:0:
75,190,120485,2,0,P|67:233|55:275,1,87.5,8|0,0:1|3:1,0:0:0:0:
214,185,120855,2,0,P|181:157|151:124,1,87.5,2|0,3:1|3:1,0:0:0:0:
148,308,121226,2,0,P|189:294|232:283,1,87.5,10|0,0:1|3:1,0:0:0:0:
465,256,121596,6,0,P|378:242|294:218,1,175,6|8,3:1|0:1,0:0:0:0:
279,56,122152,2,0,B|375:52|336:123|432:123,1,175,2|0,3:1|3:1,0:0:0:0:
482,60,122707,1,10,0:1:0:0:
424,205,122893,2,0,P|432:243|445:304,1,87.5,0|0,3:1|3:0,0:0:0:0:
360,362,123263,1,2,3:1:0:0:
285,286,123448,2,0,P|297:244|307:202,1,87.5,8|0,0:1|3:1,0:0:0:0:
253,125,123818,5,2,3:1:0:0:
166,171,124004,1,0,3:1:0:0:
79,66,124189,1,10,0:1:0:0:
79,66,124559,6,0,P|49:124|6:248,1,175,6|8,3:1|0:1,0:0:0:0:
128,328,125115,2,0,P|118:284|110:221,1,87.5,2|0,3:1|3:0,0:0:0:0:
175,154,125485,1,0,3:1:0:0:
246,241,125670,2,0,P|281:174|348:80,1,175,10|0,0:1|3:0,0:0:0:0:
272,28,126226,5,2,3:1:0:0:
167,120,126411,2,0,P|119:117|60:108,1,87.5,8|0,0:1|3:1,0:0:0:0:
230,213,126781,2,0,P|252:175|279:133,1,87.5,2|0,3:1|3:1,0:0:0:0:
116,221,127152,2,0,P|138:258|161:303,1,87.5,10|0,0:1|3:1,0:0:0:0:
293,378,127522,5,6,3:1:0:0:
333,293,127707,1,0,3:1:0:0:
417,338,127893,1,8,0:1:0:0:
491,227,128078,2,0,P|448:239|401:249,2,87.5,2|0|0,3:1|3:0|3:1,0:0:0:0:
512,141,128633,5,10,0:1:0:0:
405,26,128818,2,0,B|302:24|352:96|250:90,1,175,0|2,3:1|3:1,0:0:0:0:
143,22,129374,2,0,P|99:39|45:50,1,87.5,8|0,0:1|3:1,0:0:0:0:
37,173,129744,2,0,P|73:202|110:243,1,87.5,2|0,3:1|3:1,0:0:0:0:
220,199,130115,2,0,P|227:152|244:100,1,87.5,10|0,0:1|3:1,0:0:0:0:
321,52,130485,5,6,3:1:0:0:
399,134,130670,1,0,3:1:0:0:
475,35,130855,1,8,0:1:0:0:
383,155,131041,2,0,L|403:245,1,87.5,2|0,3:1|3:0,0:0:0:0:
333,376,131411,1,0,3:1:0:0:
447,312,131596,5,10,0:1:0:0:
304,245,131781,2,0,B|212:253|251:318|155:323,1,175,0|2,3:1|3:1,0:0:0:0:
57,208,132337,2,0,P|50:167|37:122,1,87.5,8|0,0:1|3:1,0:0:0:0:
215,179,132707,2,0,P|181:207|150:238,1,87.5,2|0,3:1|3:1,0:0:0:0:
111,57,133078,2,0,P|150:71|194:83,1,87.5,10|0,0:1|3:1,0:0:0:0:
345,19,133448,5,14,0:1:0:0:
367,150,133633,1,0,3:1:0:0:
448,51,133818,5,10,0:1:0:0:
377,170,134004,1,2,3:1:0:0:
512,145,134189,5,10,0:1:0:0:
386,192,134374,1,0,3:1:0:0:
508,277,134559,5,10,0:1:0:0:
380,218,134744,1,0,3:1:0:0:
280,348,134930,5,10,0:1:0:0:
415,308,135115,1,0,3:1:0:0:
188,236,135300,5,10,0:1:0:0:
335,285,135485,1,0,3:3:0:0:
335,285,135578,1,0,3:3:0:0:
335,285,135670,5,10,0:1:0:0:
141,339,135855,1,0,3:1:0:0:
203,245,136041,5,10,0:1:0:0:
120,185,136226,1,0,3:1:0:0:
201,122,136411,6,0,B|208:68|219:44|219:44|161:73|116:57|121:48|74:27|32:53,1,273,12|0,0:1|2:0,2:0:0:0:
256,192,138911,12,0,140855,2:0:0:0:
