osu file format v14

[General]
AudioFilename: audio.mp3
AudioLeadIn: 0
PreviewTime: 12774
Countdown: 0
SampleSet: Soft
StackLeniency: 0.7
Mode: 0
LetterboxInBreaks: 0
WidescreenStoryboard: 1

[Editor]
Bookmarks: 12873,38136,50768,76031,101294,126557
DistanceSpacing: 0.9
BeatDivisor: 6
GridSize: 32
TimelineZoom: 1

[Metadata]
Title:Glue Song
TitleUnicode:Glue Song
Artist:Beabadoobee
ArtistUnicode:Beabadoobee
Creator:muya-
Version:Madali
Source:
Tags:soraka english pop female vocals vocalist alternative indie bedroom love valentines philippines easy normal hard
BeatmapID:4108314
BeatmapSetID:1978820

[Difficulty]
HPDrainRate:2
CircleSize:2.6
OverallDifficulty:2
ApproachRate:2.8
SliderMultiplier:1.5
SliderTickRate:1

[Events]
//Background and Video events
0,0,"glue 2.jpg",0,0
Video,0,"glueeeeee.avi"
//Break Periods
//Storyboard Layer 0 (Background)
//Storyboard Layer 1 (Fail)
//Storyboard Layer 2 (Pass)
//Storyboard Layer 3 (Foreground)
//Storyboard Layer 4 (Overlay)
//Storyboard Sound Samples

[TimingPoints]
250,789.473684210526,4,2,14,35,1,0
12881,-100,4,2,14,50,0,0
38144,-100,4,2,15,70,0,0
38934,-100,4,2,16,70,0,0
39723,-100,4,2,14,70,0,0
40513,-100,4,2,15,70,0,0
42355,-100,4,2,14,70,0,0
43671,-100,4,2,16,70,0,0
44460,-100,4,2,15,70,0,0
45249,-100,4,2,16,70,0,0
46039,-100,4,2,14,70,0,0
46828,-100,4,2,16,70,0,0
47618,-100,4,2,15,70,0,0
48671,-100,4,2,14,70,0,0
50776,-100,4,2,17,80,0,0
51302,-100,4,2,14,80,0,0
51565,-100,4,2,18,80,0,0
51828,-100,4,2,14,80,0,0
52355,-100,4,2,19,80,0,0
52881,-100,4,2,14,80,0,0
53144,-100,4,2,18,80,0,0
53671,-100,4,2,14,80,0,0
53934,-100,4,2,15,80,0,0
54460,-100,4,2,14,80,0,0
54723,-100,4,2,18,80,0,0
54986,-100,4,2,14,80,0,0
55513,-100,4,2,19,80,0,0
56302,-100,4,2,18,80,0,0
56828,-100,4,2,14,80,0,0
57092,-100,4,2,15,80,0,0
57618,-100,4,2,14,80,0,0
57881,-100,4,2,18,80,0,0
58144,-100,4,2,14,80,0,0
58671,-100,4,2,19,80,0,0
59197,-100,4,2,14,80,0,0
59460,-100,4,2,18,80,0,0
59723,-100,4,2,14,80,0,0
60249,-100,4,2,15,80,0,0
60776,-100,4,2,14,80,0,0
61039,-100,4,2,18,80,0,0
61302,-100,4,2,14,80,0,0
61828,-100,4,2,19,80,0,0
62355,-100,4,2,14,80,0,0
62618,-100,4,2,20,80,0,0
63144,-100,4,2,14,80,0,0
63407,-100,4,2,21,80,0,0
63934,-100,4,2,14,80,0,0
64197,-100,4,2,19,80,0,0
64723,-100,4,2,14,80,0,0
64986,-100,4,2,19,80,0,0
65513,-100,4,2,14,80,0,0
65776,-100,4,2,18,80,0,0
66039,-100,4,2,14,80,0,0
66565,-100,4,2,15,80,0,0
67092,-100,4,2,14,80,0,0
67355,-100,4,2,19,80,0,0
67881,-100,4,2,14,80,0,0
68144,-100,4,2,19,80,0,0
68671,-100,4,2,14,80,0,0
68934,-100,4,2,18,80,0,0
69197,-100,4,2,14,80,0,0
69723,-100,4,2,15,80,0,0
70513,-100,4,2,18,80,0,0
70776,-100,4,2,14,80,0,0
71302,-100,4,2,19,80,0,0
71828,-100,4,2,14,80,0,0
72092,-100,4,2,18,80,0,0
72355,-100,4,2,14,80,0,0
72881,-100,4,2,15,80,0,0
73671,-100,4,2,18,80,0,0
73934,-100,4,2,14,80,0,0
74460,-100,4,2,19,80,0,0
74986,-100,4,2,14,80,0,0
75249,-100,4,2,20,80,0,0
75513,-100,4,2,14,80,0,0
76039,-100,4,2,15,80,0,0
76828,-100,4,2,19,80,0,0
77092,-100,4,2,14,80,0,0
77618,-100,4,2,19,80,0,0
78144,-100,4,2,14,80,0,0
78407,-100,4,2,18,80,0,0
78934,-100,4,2,15,80,0,0
79986,-100,4,2,18,80,0,0
80249,-100,4,2,14,80,0,0
80776,-100,4,2,19,80,0,0
81302,-100,4,2,14,80,0,0
81565,-100,4,2,19,80,0,0
82092,-100,4,2,14,80,0,0
82355,-100,4,2,22,80,0,0
82618,-100,4,2,14,80,0,0
83144,-100,4,2,19,80,0,0
83407,-100,4,2,14,80,0,0
83934,-100,4,2,19,80,0,0
84460,-100,4,2,14,80,0,0
84723,-100,4,2,19,80,0,0
85249,-100,4,2,14,80,0,0
85513,-100,4,2,15,80,0,0
86302,-100,4,2,19,80,0,0
86565,-100,4,2,14,80,0,0
87092,-100,4,2,19,80,0,0
87618,-100,4,2,14,80,0,0
87881,-100,4,2,20,80,0,0
88144,-100,4,2,14,80,0,0
88671,-100,4,2,15,80,0,0
89460,-100,4,2,19,80,0,0
89723,-100,4,2,14,80,0,0
90249,-100,4,2,19,80,0,0
90776,-100,4,2,14,80,0,0
91039,-100,4,2,19,80,0,0
91565,-100,4,2,14,80,0,0
91828,-100,4,2,15,80,0,0
92618,-100,4,2,18,80,0,0
92881,-100,4,2,14,80,0,0
93407,-100,4,2,19,80,0,0
93934,-100,4,2,14,80,0,0
94197,-100,4,2,19,80,0,0
94723,-100,4,2,14,80,0,0
94986,-100,4,2,22,80,0,0
95249,-100,4,2,14,80,0,0
95776,-100,4,2,19,80,0,0
96039,-100,4,2,14,80,0,0
96565,-100,4,2,19,80,0,0
97618,-100,4,2,14,80,0,0
98144,-100,4,2,15,80,0,0
98671,-100,4,2,14,80,0,0
98934,-100,4,2,23,80,0,0
99197,-100,4,2,14,80,0,0
99723,-100,4,2,19,80,0,0
100249,-100,4,2,14,80,0,0
100513,-100,4,2,24,80,0,0
100776,-100,4,2,14,80,0,0
101302,-100,4,2,17,80,0,0
101828,-100,4,2,14,80,0,0
102092,-100,4,2,18,80,0,0
102355,-100,4,2,14,80,0,0
102881,-100,4,2,19,80,0,0
103407,-100,4,2,14,80,0,0
103671,-100,4,2,18,80,0,0
104197,-100,4,2,15,80,0,0
104723,-100,4,2,14,80,0,0
105249,-100,4,2,18,80,0,0
105513,-100,4,2,14,80,0,0
106039,-100,4,2,19,80,0,0
106565,-100,4,2,14,80,0,0
106828,-100,4,2,19,80,0,0
107355,-100,4,2,14,80,0,0
107618,-100,4,2,22,80,0,0
108144,-100,4,2,14,80,0,0
108407,-100,4,2,18,80,0,0
108671,-100,4,2,14,80,0,0
109197,-100,4,2,19,80,0,0
109723,-100,4,2,14,80,0,0
109986,-100,4,2,19,80,0,0
110513,-100,4,2,14,80,0,0
110776,-100,4,2,15,80,0,0
111039,-100,4,2,14,80,0,0
111565,-100,4,2,18,80,0,0
111828,-100,4,2,14,80,0,0
112355,-100,4,2,19,80,0,0
112881,-100,4,2,14,80,0,0
113144,-100,4,2,24,80,0,0
113671,-100,4,2,14,80,0,0
113934,-100,4,2,21,80,0,0
114460,-100,4,2,14,80,0,0
114723,-100,4,2,18,80,0,0
114986,-100,4,2,14,80,0,0
115513,-100,4,2,19,80,0,0
116039,-100,4,2,14,80,0,0
116302,-100,4,2,18,80,0,0
116565,-100,4,2,14,80,0,0
117092,-100,4,2,15,80,0,0
117881,-100,4,2,18,80,0,0
118144,-100,4,2,14,80,0,0
118671,-100,4,2,19,80,0,0
119197,-100,4,2,14,80,0,0
119460,-100,4,2,19,80,0,0
119986,-100,4,2,14,80,0,0
120249,-100,4,2,22,80,0,0
120776,-100,4,2,14,80,0,0
121039,-100,4,2,18,80,0,0
121302,-100,4,2,14,80,0,0
121828,-100,4,2,19,80,0,0
122355,-100,4,2,14,80,0,0
122618,-100,4,2,19,80,0,0
123144,-100,4,2,14,80,0,0
123407,-100,4,2,15,80,0,0
123671,-100,4,2,14,80,0,0
124197,-100,4,2,18,80,0,0
124986,-100,4,2,19,80,0,0
125776,909.090909090909,4,2,24,80,1,0
125776,-105.263157894737,4,2,24,80,0,0
126079,-100,4,2,14,75,0,0
126382,-100,4,2,14,70,0,0
126900,909.090909090909,4,2,14,70,1,0
126988,-100,4,2,15,60,0,0

[Colours]
Combo1 : 166,133,114
Combo2 : 207,217,173
Combo3 : 242,164,119

[HitObjects]
338,334,12881,6,0,P|387:352|431:373,2,100,2|2|2,2:2|2:2|2:2,0:0:0:0:
268,277,14460,2,0,P|270:233|327:200,1,100,2|2,2:2|2:2,0:0:0:0:
346,171,15249,1,2,2:2:0:0:
420,120,15776,1,2,2:2:0:0:
374,42,16302,2,0,P|256:12|195:135,1,250,2|2,2:2|2:2,0:0:0:0:
209,238,18407,1,2,2:2:0:0:
127,348,19197,6,0,P|70:320|73:270,2,100,2|2|2,2:2|2:2|2:2,0:0:0:0:
214,326,20776,2,0,P|250:280|331:295,2,100,2|2|2,2:2|2:2|2:2,0:0:0:0:
124,350,22355,1,2,0:0:0:0:
35,193,23407,1,2,0:0:0:0:
99,127,23934,2,0,P|178:152|257:179,1,150,2|2,2:2|2:2,0:0:0:0:
373,202,25513,5,2,2:2:0:0:
331,73,26302,1,2,2:2:0:0:
241,173,27092,2,0,P|258:222|275:281,1,100,2|2,2:2|2:2,0:0:0:0:
280,357,28144,1,2,2:2:0:0:
366,371,28671,2,0,P|427:349|435:300,1,100,2|2,2:2|2:2,0:0:0:0:
467,286,29460,1,2,2:2:0:0:
406,165,30249,2,0,P|384:130|365:69,1,100,2|2,2:2|2:2,0:0:0:0:
280,44,31302,1,2,2:2:0:0:
215,107,31828,5,2,2:2:0:0:
80,117,32618,1,2,2:2:0:0:
9,231,33407,2,0,P|21:295|51:317,1,100,2|2,2:2|2:2,0:0:0:0:
124,362,34460,1,2,2:2:0:0:
186,295,34986,2,0,P|213:182|238:84,1,200,2|2,2:2|2:2,0:0:0:0:
259,14,36565,1,2,2:2:0:0:
359,104,37355,2,0,P|347:157|334:226,1,100,12|4,2:2|2:3,0:0:0:0:
302,229,38144,6,0,B|226:206|255:175|158:152,1,150,6|10,1:2|2:2,0:0:0:0:
102,211,39460,1,2,2:2:0:0:
102,211,39723,2,0,P|59:254|78:317,1,100,2|2,1:2|2:2,0:0:0:0:
85,327,40513,1,8,2:2:0:0:
214,365,41302,2,0,P|226:286|270:198,1,150,2|8,1:2|2:2,0:0:0:0:
375,163,42881,1,2,1:2:0:0:
498,218,43671,2,0,P|492:270|427:306,1,100,10|2,2:2|2:2,0:0:0:0:
421,326,44460,5,2,1:2:0:0:
295,277,45249,2,0,P|276:265|246:257,2,50,10|2|2,2:2|2:2|2:2,0:0:0:0:
336,259,46039,2,0,P|397:216|399:161,1,100,2|2,1:2|2:2,0:0:0:0:
416,152,46828,1,10,2:2:0:0:
347,35,47618,2,0,P|280:56|174:78,1,150,2|8,1:2|2:2,0:0:0:0:
67,71,49197,2,0,P|23:122|51:187,1,100,2|10,1:2|2:3,0:0:0:0:
37,194,49986,1,14,2:2:0:0:
165,234,50776,6,0,P|219:213|275:201,2,100,6|2|2,1:2|2:2|2:2,0:0:0:0:
99,295,52355,1,2,1:2:0:0:
175,347,52881,2,0,P|240:334|324:295,1,150,2|2,2:2|2:2,0:0:0:0:
341,262,53934,1,2,1:2:0:0:
420,219,54460,2,0,P|447:193|474:184,2,50,2|10|2,2:2|2:2|2:2,0:0:0:0:
341,262,55513,2,0,B|269:234|296:205|203:178,1,150,2|10,1:2|2:2,0:0:0:0:
151,122,56828,5,2,1:2:0:0:
151,122,57092,2,0,P|175:68|220:45,2,100,2|2|2,1:2|2:2|2:2,0:0:0:0:
86,179,58671,2,0,P|60:220|-17:230,2,100,2|2|2,1:2|2:2|2:2,0:0:0:0:
172,204,60249,2,0,P|216:238|219:301,1,100,2|2,1:2|2:2,0:0:0:0:
210,322,61039,1,10,2:2:0:0:
334,375,61828,2,0,P|352:297|376:215,1,150,2|14,1:2|2:2,0:0:0:0:
461,129,63407,6,0,P|501:101|507:34,1,100,6|2,1:2|2:2,0:0:0:0:
482,19,64197,1,10,2:2:0:0:
398,5,64723,1,2,2:2:0:0:
398,5,64986,1,2,1:2:0:0:
311,31,65513,2,0,P|266:48|209:69,1,100,2|2,2:2|2:2,0:0:0:0:
131,40,66565,2,0,P|44:79|66:153,1,150,2|10,1:2|2:2,0:0:0:0:
114,236,68144,1,2,1:2:0:0:
195,197,68671,2,0,P|225:165|286:155,1,100,2|2,1:2|2:2,0:0:0:0:
327,153,69460,1,2,2:2:0:0:
327,153,69723,6,0,P|303:255|282:360,1,200,2|2,1:2|2:2,0:0:0:0:
373,356,71302,2,0,P|428:368|492:380,2,100,2|2|2,1:2|2:2|2:2,0:0:0:0:
284,348,72881,1,2,1:2:0:0:
160,292,73671,2,0,P|128:279|94:268,2,50,10|2|2,2:2|2:2|2:2,0:0:0:0:
203,281,74460,2,0,P|254:261|260:191,2,100,2|10|2,1:2|2:3|2:2,0:0:0:0:
160,292,75776,1,4,2:3:0:0:
160,292,76039,6,0,P|85:203|315:91,1,450,6|10,1:2|2:2,0:0:0:0:
430,90,79197,2,0,P|410:149|383:267,1,150,2|10,1:2|2:2,0:0:0:0:
389,279,80249,1,2,2:2:0:0:
324,342,80776,2,0,P|265:314|261:266,1,100,2|2,1:2|2:2,0:0:0:0:
252,240,81565,1,14,2:2:0:0:
378,198,82355,6,0,B|578:185|580:-46|394:-63|338:47|400:107,1,450,6|10,1:2|2:2,0:0:0:0:
493,190,85513,1,2,1:2:0:0:
430,309,86302,2,0,P|385:289|321:269,1,100,10|2,2:2|2:2,0:0:0:0:
293,285,87092,2,0,P|238:304|213:352,2,100,2|10|2,1:2|2:3|2:2,0:0:0:0:
336,273,88407,1,4,2:3:0:0:
336,273,88671,6,0,P|345:167|62:94,1,450,6|10,1:2|2:2,0:0:0:0:
10,202,91828,2,0,P|36:277|57:360,1,150,2|10,1:2|2:2,0:0:0:0:
85,377,92881,1,2,2:2:0:0:
162,331,93407,2,0,P|148:287|134:235,1,100,2|10,1:2|2:3,0:0:0:0:
131,190,94196,1,14,2:2:0:0:
243,115,94986,6,0,P|432:110|329:270,1,450,6|10,1:2|2:2,0:0:0:0:
216,225,98144,1,2,1:2:0:0:
140,271,98671,1,8,2:3:0:0:
140,271,98934,2,0,P|81:254|61:210,1,100,14|2,2:2|2:2,0:0:0:0:
24,200,99723,2,0,P|18:152|68:95,1,100,2|6,1:2|2:3,0:0:0:0:
81,84,100513,1,14,2:2:0:0:
208,101,101302,6,0,P|263:118|309:134,2,100,6|2|2,1:2|2:2|2:2,0:0:0:0:
130,147,102881,2,0,P|156:229|177:300,1,150,2|10,1:2|2:2,0:0:0:0:
282,370,104460,2,0,P|342:327|339:272,1,100,2|2,1:2|2:2,0:0:0:0:
366,265,105249,1,10,2:2:0:0:
469,178,106039,2,0,P|437:111|382:104,1,100,2|2,1:2|2:2,0:0:0:0:
383,72,106828,1,14,2:2:0:0:
248,65,107618,6,0,P|195:84|130:104,2,100,6|2|2,1:2|2:2|2:2,0:0:0:0:
312,127,109197,2,0,P|300:171|283:244,1,100,2|2,1:2|2:2,0:0:0:0:
284,268,109986,1,10,2:2:0:0:
335,341,110513,1,2,2:2:0:0:
254,380,111039,2,0,P|206:364|134:347,1,100,2|10,2:2|2:2,0:0:0:0:
38,289,112355,2,0,P|4:256|12:185,1,100,2|10,1:2|2:3,0:0:0:0:
35,176,113144,1,14,2:2:0:0:
139,90,113934,6,0,P|175:59|242:58,2,100,6|2|2,1:2|2:2|2:2,0:0:0:0:
168,175,115513,2,0,P|248:195|323:232,1,150,2|10,1:2|2:2,0:0:0:0:
438,260,117092,2,0,P|481:235|485:175,1,100,2|0,1:2|0:0,0:0:0:0:
473,146,117881,1,10,2:2:0:0:
391,38,118671,2,0,P|341:18|296:27,1,100,2|2,1:2|2:2,0:0:0:0:
277,66,119460,1,14,2:2:0:0:
188,168,120250,6,0,P|151:200|94:207,2,100,6|2|2,1:2|2:2|2:2,0:0:0:0:
276,150,121829,1,2,1:2:0:0:
363,188,122355,1,2,2:2:0:0:
363,188,122618,1,10,2:2:0:0:
406,266,123144,1,2,2:2:0:0:
346,333,123671,2,0,P|294:313|238:299,1,100,2|14,2:2|2:2,0:0:0:0:
118,325,124986,1,2,1:2:0:0:
28,249,125776,2,0,P|69:158|90:32,1,200,14|2,2:2|2:2,0:0:0:0:
