osu file format v14

[General]
AudioFilename: audio.mp3
AudioLeadIn: 0
PreviewTime: 102352
Countdown: 0
SampleSet: Soft
StackLeniency: 0.4
Mode: 0
LetterboxInBreaks: 0
WidescreenStoryboard: 0

[Editor]
Bookmarks: 4849,32299,56699,71948,102448,126847,151247,163447,175646,200046,224445
DistanceSpacing: 0.2
BeatDivisor: 8
GridSize: 32
TimelineZoom: 1.4

[Metadata]
Title:Playground
TitleUnicode:Playground
Artist:Bea Miller
ArtistUnicode:Bea Miller
Creator:Mir
Version:Fantasy
Source:Arcane
Tags:english pop mako league of legends vi ekko jinx zaun s1 ep1
BeatmapID:3805670
BeatmapSetID:1852210

[Difficulty]
HPDrainRate:5
CircleSize:4
OverallDifficulty:8
ApproachRate:9
SliderMultiplier:3.59999990463257
SliderTickRate:1

[Events]
//Background and Video events
0,0,"ZaunBG_5_1920x1080.jpg",0,0
//Break Periods
2,151429,162829
//Storyboard Layer 0 (Background)
//Storyboard Layer 1 (Fail)
//Storyboard Layer 2 (Pass)
//Storyboard Layer 3 (Foreground)
//Storyboard Layer 4 (Overlay)
//Storyboard Sound Samples

[TimingPoints]
-7368,762.485703393061,4,2,0,70,1,0
638,-100,4,2,0,25,0,0
2544,-100,4,2,0,45,0,0
4545,-100,4,2,0,5,0,0
4828,-200,4,2,0,40,0,0
7877,-200,4,2,0,40,0,0
31518,-333.333333333333,4,2,0,50,0,0
32277,-66.6666666666667,4,2,0,70,0,0
33421,-133.333333333333,4,2,0,70,0,0
34092,-133.333333333333,4,2,0,5,0,0
34183,-66.6666666666667,4,2,0,70,0,0
34473,-66.6666666666667,4,2,0,5,0,0
34564,-133.333333333333,4,2,0,70,0,0
35327,-66.6666666666667,4,2,0,70,0,0
35998,-66.6666666666667,4,2,0,5,0,0
36093,-66.6666666666667,4,2,0,70,0,0
36280,-133.333333333333,4,2,0,70,0,0
37043,-66.6666666666667,4,2,0,70,0,0
37142,-66.6666666666667,4,2,0,5,0,0
37237,-66.6666666666667,4,2,0,70,0,0
37614,-133.333333333333,4,2,0,70,0,0
38377,-66.6666666666667,4,2,0,70,0,0
38476,-66.6666666666667,4,2,0,5,0,0
38571,-66.6666666666667,4,2,0,70,0,0
39048,-66.6666666666667,4,2,0,5,0,0
39143,-66.6666666666667,4,2,0,70,0,0
39429,-66.6666666666667,4,2,0,5,0,0
39524,-66.6666666666667,4,2,0,70,0,0
39620,-66.6666666666667,4,2,0,5,0,0
39715,-66.6666666666667,4,2,0,70,0,0
40192,-66.6666666666667,4,2,0,5,0,0
40287,-66.6666666666667,4,2,0,70,0,0
40664,-133.333333333333,4,2,0,70,0,0
41526,-133.333333333333,4,2,0,5,0,0
41617,-66.6666666666667,4,2,0,70,0,0
41907,-66.6666666666667,4,2,0,5,0,0
42002,-66.6666666666667,4,2,0,70,0,0
42098,-66.6666666666667,4,2,0,5,0,0
42193,-66.6666666666667,4,2,0,70,0,0
42571,-133.333333333333,4,2,0,70,0,0
43142,-66.6666666666667,4,2,0,70,0,0
43241,-66.6666666666667,4,2,0,5,0,0
43336,-66.6666666666667,4,2,0,70,0,0
45620,-133.333333333333,4,2,0,70,0,0
46291,-133.333333333333,4,2,0,5,0,0
46383,-66.6666666666667,4,2,0,70,0,0
46673,-66.6666666666667,4,2,0,5,0,0
46764,-133.333333333333,4,2,0,70,0,0
47527,-66.6666666666667,4,2,0,70,0,0
48198,-66.6666666666667,4,2,0,5,0,0
48293,-66.6666666666667,4,2,0,70,0,0
48670,-133.333333333333,4,2,0,70,0,0
49341,-133.333333333333,4,2,0,5,0,0
49433,-66.6666666666667,4,2,0,70,0,0
50676,-66.6666666666667,4,2,0,5,0,0
50771,-66.6666666666667,4,2,0,70,0,0
51248,-66.6666666666667,4,2,0,5,0,0
51343,-66.6666666666667,4,2,0,70,0,0
51629,-66.6666666666667,4,2,0,5,0,0
51724,-66.6666666666667,4,2,0,70,0,0
51819,-66.6666666666667,4,2,0,5,0,0
51914,-66.6666666666667,4,2,0,70,0,0
52102,-133.333333333333,4,2,0,70,0,0
52483,-66.6666666666667,4,2,0,70,0,0
52773,-66.6666666666667,4,2,0,5,0,0
52864,-133.333333333333,4,2,0,70,0,0
53627,-66.6666666666667,4,2,0,70,0,0
53726,-66.6666666666667,4,2,0,5,0,0
53821,-66.6666666666667,4,2,0,70,0,0
54298,-66.6666666666667,4,2,0,5,0,0
54389,-133.333333333333,4,2,0,70,0,0
56677,-66.6666666666667,4,2,0,70,0,0
57347,-66.6666666666667,4,2,0,5,0,0
57442,-66.6666666666667,4,2,0,70,0,0
57820,-133.333333333333,4,2,0,70,0,0
58491,-133.333333333333,4,2,0,5,0,0
58583,-66.6666666666667,4,2,0,70,0,0
58872,-66.6666666666667,4,2,0,5,0,0
58964,-133.333333333333,4,2,0,70,0,0
59726,-66.6666666666667,4,2,0,70,0,0
60397,-66.6666666666667,4,2,0,5,0,0
60492,-66.6666666666667,4,2,0,70,0,0
60680,-133.333333333333,4,2,0,70,0,0
61541,-133.333333333333,4,2,0,5,0,0
61633,-66.6666666666667,4,2,0,70,0,0
61922,-66.6666666666667,4,2,0,5,0,0
62018,-66.6666666666667,4,2,0,70,0,0
62875,-66.6666666666667,4,2,0,5,0,0
62970,-66.6666666666667,4,2,0,70,0,0
63066,-66.6666666666667,4,2,0,5,0,0
63161,-66.6666666666667,4,2,0,70,0,0
63447,-66.6666666666667,4,2,0,5,0,0
63542,-66.6666666666667,4,2,0,70,0,0
63829,-66.6666666666667,4,2,0,5,0,0
63924,-66.6666666666667,4,2,0,70,0,0
64972,-66.6666666666667,4,2,0,5,0,0
65064,-133.333333333333,4,2,0,70,0,0
65925,-133.333333333333,4,2,0,5,0,0
66017,-66.6666666666667,4,2,0,70,0,0
66497,-66.6666666666667,4,2,0,5,0,0
66592,-66.6666666666667,4,2,0,70,0,0
66879,-66.6666666666667,4,2,0,5,0,0
66974,-66.6666666666667,4,2,0,70,0,0
67641,-66.6666666666667,4,2,0,5,0,0
67736,-66.6666666666667,4,2,0,70,0,0
68022,-66.6666666666667,4,2,0,5,0,0
68117,-66.6666666666667,4,2,0,70,0,0
68213,-66.6666666666667,4,2,0,5,0,0
68308,-66.6666666666667,4,2,0,70,0,0
68404,-66.6666666666667,4,2,0,5,0,0
68499,-66.6666666666667,4,2,0,70,0,0
68594,-66.6666666666667,4,2,0,5,0,0
68689,-66.6666666666667,4,2,0,70,0,0
68785,-66.6666666666667,4,2,0,5,0,0
68876,-133.333333333333,4,2,0,70,0,0
68975,-133.333333333333,4,2,0,5,0,0
69071,-133.333333333333,4,2,0,70,0,0
69166,-133.333333333333,4,2,0,5,0,0
69262,-133.333333333333,4,2,0,70,0,0
69738,-133.333333333333,4,2,0,5,0,0
69834,-133.333333333333,4,2,0,70,0,0
69928,-133.333333333333,4,2,0,5,0,0
70024,-133.333333333333,4,2,0,70,0,0
70500,-133.333333333333,4,2,0,5,0,0
70596,-133.333333333333,4,2,0,70,0,0
70691,-133.333333333333,4,2,0,5,0,0
70787,-133.333333333333,4,2,0,70,0,0
71263,-133.333333333333,4,2,0,5,0,0
71359,-133.333333333333,4,2,0,70,0,0
71453,-133.333333333333,4,2,0,5,0,0
71549,-133.333333333333,4,2,0,70,0,0
71926,-200,4,2,0,45,0,0
102426,-66.6666666666667,4,2,0,70,0,0
103188,-200,4,2,0,70,0,0
104141,-133.333333333333,4,2,0,70,0,0
104240,-133.333333333333,4,2,0,5,0,0
104332,-66.6666666666667,4,2,0,70,0,0
104622,-66.6666666666667,4,2,0,5,0,0
104713,-133.333333333333,4,2,0,70,0,0
105476,-66.6666666666667,4,2,0,70,0,0
106147,-66.6666666666667,4,2,0,5,0,0
106242,-66.6666666666667,4,2,0,70,0,0
106429,-133.333333333333,4,2,0,70,0,0
107290,-133.333333333333,4,2,0,5,0,0
107382,-66.6666666666667,4,2,0,70,0,0
107672,-66.6666666666667,4,2,0,5,0,0
107763,-133.333333333333,4,2,0,70,0,0
108526,-66.6666666666667,4,2,0,70,0,0
108625,-66.6666666666667,4,2,0,5,0,0
108720,-66.6666666666667,4,2,0,70,0,0
109197,-66.6666666666667,4,2,0,5,0,0
109292,-66.6666666666667,4,2,0,70,0,0
109479,-133.333333333333,4,2,0,70,0,0
109578,-133.333333333333,4,2,0,5,0,0
109669,-66.6666666666667,4,2,0,70,0,0
109768,-66.6666666666667,4,2,0,5,0,0
109863,-66.6666666666667,4,2,0,70,0,0
110241,-133.333333333333,4,2,0,70,0,0
110340,-133.333333333333,4,2,0,5,0,0
110432,-66.6666666666667,4,2,0,70,0,0
110721,-66.6666666666667,4,2,0,5,0,0
110813,-133.333333333333,4,2,0,70,0,0
111675,-133.333333333333,4,2,0,5,0,0
111766,-66.6666666666667,4,2,0,70,0,0
112056,-66.6666666666667,4,2,0,5,0,0
112151,-66.6666666666667,4,2,0,70,0,0
112246,-66.6666666666667,4,2,0,5,0,0
112341,-66.6666666666667,4,2,0,70,0,0
113390,-66.6666666666667,4,2,0,5,0,0
113485,-66.6666666666667,4,2,0,70,0,0
114153,-66.6666666666667,4,2,0,5,0,0
114248,-66.6666666666667,4,2,0,70,0,0
115388,-200,4,2,0,70,0,0
116341,-133.333333333333,4,2,0,70,0,0
116440,-133.333333333333,4,2,0,5,0,0
116532,-66.6666666666667,4,2,0,70,0,0
116821,-66.6666666666667,4,2,0,5,0,0
116913,-133.333333333333,4,2,0,70,0,0
117675,-66.6666666666667,4,2,0,70,0,0
118346,-66.6666666666667,4,2,0,5,0,0
118438,-133.333333333333,4,2,0,70,0,0
119490,-133.333333333333,4,2,0,5,0,0
119582,-66.6666666666667,4,2,0,70,0,0
119871,-66.6666666666667,4,2,0,5,0,0
119963,-133.333333333333,4,2,0,70,0,0
120725,-66.6666666666667,4,2,0,70,0,0
120824,-66.6666666666667,4,2,0,5,0,0
120919,-66.6666666666667,4,2,0,70,0,0
121396,-66.6666666666667,4,2,0,5,0,0
121491,-66.6666666666667,4,2,0,70,0,0
121778,-66.6666666666667,4,2,0,5,0,0
121869,-133.333333333333,4,2,0,70,0,0
122632,-66.6666666666667,4,2,0,70,0,0
122921,-66.6666666666667,4,2,0,5,0,0
123013,-133.333333333333,4,2,0,70,0,0
124446,-133.333333333333,4,2,0,5,0,0
124538,-333.333333333333,4,2,0,70,0,0
125209,-333.333333333333,4,2,0,5,0,0
125304,-333.333333333333,4,2,0,70,0,0
125681,-200,4,2,0,70,0,0
126825,-66.6666666666667,4,2,0,70,0,0
127496,-66.6666666666667,4,2,0,5,0,0
127591,-66.6666666666667,4,2,0,70,0,0
127969,-133.333333333333,4,2,0,70,0,0
128640,-133.333333333333,4,2,0,5,0,0
128731,-66.6666666666667,4,2,0,70,0,0
129113,-133.333333333333,4,2,0,70,0,0
129875,-66.6666666666667,4,2,0,70,0,0
130546,-66.6666666666667,4,2,0,5,0,0
130638,-133.333333333333,4,2,0,70,0,0
131690,-133.333333333333,4,2,0,5,0,0
131781,-66.6666666666667,4,2,0,70,0,0
132071,-66.6666666666667,4,2,0,5,0,0
132166,-66.6666666666667,4,2,0,70,0,0
133024,-66.6666666666667,4,2,0,5,0,0
133119,-66.6666666666667,4,2,0,70,0,0
133215,-66.6666666666667,4,2,0,5,0,0
133310,-66.6666666666667,4,2,0,70,0,0
133596,-66.6666666666667,4,2,0,5,0,0
133691,-66.6666666666667,4,2,0,70,0,0
133878,-133.333333333333,4,2,0,70,0,0
133977,-133.333333333333,4,2,0,5,0,0
134069,-66.6666666666667,4,2,0,70,0,0
134641,-133.333333333333,4,2,0,70,0,0
134740,-133.333333333333,4,2,0,5,0,0
134831,-66.6666666666667,4,2,0,70,0,0
134930,-66.6666666666667,4,2,0,5,0,0
135025,-66.6666666666667,4,2,0,70,0,0
135121,-66.6666666666667,4,2,0,5,0,0
135213,-133.333333333333,4,2,0,70,0,0
136074,-133.333333333333,4,2,0,5,0,0
136166,-66.6666666666667,4,2,0,70,0,0
136646,-66.6666666666667,4,2,0,5,0,0
136738,-133.333333333333,4,2,0,70,0,0
137790,-133.333333333333,4,2,0,5,0,0
137881,-66.6666666666667,4,2,0,70,0,0
138362,-66.6666666666667,4,2,0,5,0,0
138457,-66.6666666666667,4,2,0,70,0,0
138552,-66.6666666666667,4,2,0,5,0,0
138647,-66.6666666666667,4,2,0,70,0,0
138743,-66.6666666666667,4,2,0,5,0,0
138838,-66.6666666666667,4,2,0,70,0,0
139696,-66.6666666666667,4,2,0,5,0,0
139791,-66.6666666666667,4,2,0,70,0,0
139978,-133.333333333333,4,2,0,70,0,0
140840,-133.333333333333,4,2,0,5,0,0
140931,-66.6666666666667,4,2,0,70,0,0
141221,-66.6666666666667,4,2,0,5,0,0
141312,-133.333333333333,4,2,0,70,0,0
142075,-66.6666666666667,4,2,0,70,0,0
142746,-66.6666666666667,4,2,0,5,0,0
142837,-133.333333333333,4,2,0,70,0,0
143890,-133.333333333333,4,2,0,5,0,0
143981,-66.6666666666667,4,2,0,70,0,0
144271,-66.6666666666667,4,2,0,5,0,0
144366,-66.6666666666667,4,2,0,70,0,0
145224,-66.6666666666667,4,2,0,5,0,0
145319,-66.6666666666667,4,2,0,70,0,0
145415,-66.6666666666667,4,2,0,5,0,0
145510,-66.6666666666667,4,2,0,70,0,0
145796,-66.6666666666667,4,2,0,5,0,0
145891,-66.6666666666667,4,2,0,70,0,0
146078,-133.333333333333,4,2,0,70,0,0
146177,-133.333333333333,4,2,0,5,0,0
146269,-66.6666666666667,4,2,0,70,0,0
147321,-66.6666666666667,4,2,0,5,0,0
147416,-66.6666666666667,4,2,0,70,0,0
148175,-133.333333333333,4,2,0,70,0,0
148274,-133.333333333333,4,2,0,5,0,0
148365,-66.6666666666667,4,2,0,70,0,0
148846,-66.6666666666667,4,2,0,5,0,0
148941,-66.6666666666667,4,2,0,70,0,0
149890,-133.333333333333,4,2,0,70,0,0
149989,-133.333333333333,4,2,0,5,0,0
150081,-66.6666666666667,4,2,0,70,0,0
163425,-400,4,2,0,40,0,0
172574,-200,4,2,0,50,0,0
174099,-100,4,2,0,60,0,0
175628,-66.6666666666667,4,2,0,70,0,1
177344,-133.333333333333,4,2,0,70,0,0
177439,-133.333333333333,4,2,0,5,0,0
177531,-66.6666666666667,4,2,0,70,0,0
177912,-133.333333333333,4,2,0,70,0,0
178674,-66.6666666666667,4,2,0,70,0,0
179345,-66.6666666666667,4,2,0,5,0,0
179437,-133.333333333333,4,2,0,70,0,0
180489,-133.333333333333,4,2,0,5,0,0
180580,-66.6666666666667,4,2,0,70,0,0
180870,-66.6666666666667,4,2,0,5,0,0
180962,-133.333333333333,4,2,0,70,0,0
181724,-66.6666666666667,4,2,0,70,0,0
181823,-66.6666666666667,4,2,0,5,0,0
181918,-66.6666666666667,4,2,0,70,0,0
182677,-133.333333333333,4,2,0,70,0,0
182776,-133.333333333333,4,2,0,5,0,0
182868,-66.6666666666667,4,2,0,70,0,0
182967,-66.6666666666667,4,2,0,5,0,0
183062,-66.6666666666667,4,2,0,70,0,0
183440,-133.333333333333,4,2,0,70,0,0
183539,-133.333333333333,4,2,0,5,0,0
183630,-66.6666666666667,4,2,0,70,0,0
184012,-133.333333333333,4,2,0,70,0,0
184873,-133.333333333333,4,2,0,5,0,0
184965,-66.6666666666667,4,2,0,70,0,0
185537,-133.333333333333,4,2,0,70,0,0
186589,-133.333333333333,4,2,0,5,0,0
186680,-66.6666666666667,4,2,0,70,0,0
190112,-133.333333333333,4,2,0,70,0,0
190874,-66.6666666666667,4,2,0,70,0,0
191545,-66.6666666666667,4,2,0,5,0,0
191636,-133.333333333333,4,2,0,70,0,0
192689,-133.333333333333,4,2,0,5,0,0
192780,-66.6666666666667,4,2,0,70,0,0
193161,-133.333333333333,4,2,0,70,0,0
193924,-66.6666666666667,4,2,0,70,0,0
194023,-66.6666666666667,4,2,0,5,0,0
194118,-66.6666666666667,4,2,0,70,0,0
194976,-66.6666666666667,4,2,0,5,0,0
195068,-133.333333333333,4,2,0,70,0,0
195830,-66.6666666666667,4,2,0,70,0,0
196120,-66.6666666666667,4,2,0,5,0,0
196211,-133.333333333333,4,2,0,70,0,0
197073,-133.333333333333,4,2,0,5,0,0
197165,-66.6666666666667,4,2,0,70,0,0
197736,-133.333333333333,4,2,0,70,0,0
200024,-66.6666666666667,4,2,0,70,0,0
200695,-66.6666666666667,4,2,0,5,0,0
200790,-66.6666666666667,4,2,0,70,0,0
201168,-133.333333333333,4,2,0,70,0,0
201839,-133.333333333333,4,2,0,5,0,0
201930,-66.6666666666667,4,2,0,70,0,0
202220,-66.6666666666667,4,2,0,5,0,0
202311,-133.333333333333,4,2,0,70,0,0
203074,-66.6666666666667,4,2,0,70,0,0
203745,-66.6666666666667,4,2,0,5,0,0
203836,-133.333333333333,4,2,0,70,0,0
204888,-133.333333333333,4,2,0,5,0,0
204980,-66.6666666666667,4,2,0,70,0,0
205361,-133.333333333333,4,2,0,70,0,0
206124,-66.6666666666667,4,2,0,70,0,0
206223,-66.6666666666667,4,2,0,5,0,0
206318,-66.6666666666667,4,2,0,70,0,0
206795,-66.6666666666667,4,2,0,5,0,0
206890,-66.6666666666667,4,2,0,70,0,0
207077,-133.333333333333,4,2,0,70,0,0
207176,-133.333333333333,4,2,0,5,0,0
207267,-66.6666666666667,4,2,0,70,0,0
207367,-66.6666666666667,4,2,0,5,0,0
207462,-66.6666666666667,4,2,0,70,0,0
207839,-133.333333333333,4,2,0,70,0,0
207938,-133.333333333333,4,2,0,5,0,0
208029,-66.6666666666667,4,2,0,70,0,0
208320,-66.6666666666667,4,2,0,5,0,0
208411,-133.333333333333,4,2,0,70,0,0
209273,-133.333333333333,4,2,0,5,0,0
209364,-66.6666666666667,4,2,0,70,0,0
210988,-66.6666666666667,4,2,0,5,0,0
211083,-66.6666666666667,4,2,0,70,0,0
212895,-66.6666666666667,4,2,0,5,0,0
212986,-133.333333333333,4,2,0,70,0,0
214038,-133.333333333333,4,2,0,5,0,0
214130,-66.6666666666667,4,2,0,70,0,0
214511,-133.333333333333,4,2,0,70,0,0
215274,-66.6666666666667,4,2,0,70,0,0
215945,-66.6666666666667,4,2,0,5,0,0
216036,-133.333333333333,4,2,0,70,0,0
217088,-133.333333333333,4,2,0,5,0,0
217180,-66.6666666666667,4,2,0,70,0,0
217469,-66.6666666666667,4,2,0,5,0,0
217564,-66.6666666666667,4,2,0,70,0,0
218423,-66.6666666666667,4,2,0,5,0,0
218518,-66.6666666666667,4,2,0,70,0,0
218994,-66.6666666666667,4,2,0,5,0,0
219089,-66.6666666666667,4,2,0,70,0,0
219376,-66.6666666666667,4,2,0,5,0,0
219467,-133.333333333333,4,2,0,70,0,0
220230,-66.6666666666667,4,2,0,70,0,0
220519,-66.6666666666667,4,2,0,5,0,0
220611,-133.333333333333,4,2,0,70,0,0
221473,-133.333333333333,4,2,0,5,0,0
221564,-66.6666666666667,4,2,0,70,0,0
222044,-66.6666666666667,4,2,0,5,0,0
222136,-133.333333333333,4,2,0,70,0,0
223188,-133.333333333333,4,2,0,5,0,0
223280,-66.6666666666667,4,2,0,70,0,0

[Colours]
Combo1 : 174,137,96
Combo2 : 163,190,143
Combo3 : 106,170,156
Combo4 : 193,176,140

[HitObjects]
256,192,638,12,0,4641,0:2:0:0:
251,170,4832,6,0,L|263:231,1,44.9999988079071,4|0,0:3|0:2,0:2:0:0:
320,258,5214,5,4,0:3:0:0:
382,217,5404,1,0,0:2:0:0:
492,318,5595,2,0,L|480:379,1,44.9999988079071,2|0,0:3|0:2,0:2:0:0:
412,365,5976,5,0,0:2:0:0:
387,295,6167,1,0,0:2:0:0:
446,181,6357,1,0,0:2:0:0:
380,145,6548,5,4,0:3:0:0:
380,145,6738,2,0,L|371:94,1,44.9999988079071,4|0,0:3|0:2,0:2:0:0:
495,6,7120,2,0,L|487:50,1,44.9999988079071,2|0,0:3|0:2,0:2:0:0:
284,57,7501,2,0,L|291:101,1,44.9999988079071,0|0,0:2|0:2,0:2:0:0:
111,218,7882,6,0,L|126:113,1,89.9999976158143,4|0,0:3|0:2,0:2:0:0:
65,75,8454,1,4,0:3:0:0:
126,235,8645,2,0,L|133:279,1,44.9999988079071,2|0,0:3|0:2,0:2:0:0:
84,333,9026,5,0,0:2:0:0:
159,357,9217,1,0,0:2:0:0:
208,298,9407,1,0,0:2:0:0:
320,357,9788,5,4,0:3:0:0:
469,227,10170,5,2,0:3:0:0:
420,168,10360,1,0,0:2:0:0:
344,193,10551,2,0,P|362:241|374:290,1,89.9999976158143,0|4,0:2|0:3,0:2:0:0:
481,43,11313,6,0,B|496:23|496:23|486:51,1,44.9999988079071,6|0,0:3|0:2,0:2:0:0:
482,58,11695,1,2,0:3:0:0:
271,149,12076,6,0,B|241:147|241:147|228:156|228:156|194:153,1,67.4999982118607,2|0,0:2|0:2,0:2:0:0:
195,159,12457,1,0,0:2:0:0:
430,123,12648,5,4,0:3:0:0:
430,123,12838,2,0,P|440:166|445:182,1,44.9999988079071,4|0,0:3|0:2,0:2:0:0:
232,265,13220,2,0,P|242:222|247:206,1,44.9999988079071,2|0,0:3|0:2,0:2:0:0:
195,159,13601,1,0,0:2:0:0:
37,278,13982,5,4,0:3:0:0:
37,278,14173,2,0,P|27:245|20:222,1,44.9999988079071,4|2,0:3|0:2,0:2:0:0:
72,172,14554,1,4,0:3:0:0:
231,277,14745,6,0,B|304:295,1,67.4999982118607,2|0,0:3|0:2,0:2:0:0:
328,222,15126,2,0,B|359:207|359:207|345:221,1,44.9999988079071,2|0,0:2|0:2,0:2:0:0:
249,359,15507,2,0,P|243:375|254:363,1,44.9999988079071,2|4,0:2|0:3,0:2:0:0:
231,277,15888,6,0,P|223:244|211:209,1,67.4999982118607,4|0,0:3|0:2,0:2:0:0:
271,156,16270,2,0,P|279:123|291:88,1,67.4999982118607,2|0,0:3|0:2,0:2:0:0:
216,64,16651,2,0,P|208:31|196:-4,1,67.4999982118607,2|0,1:3|0:2,0:2:0:0:
118,118,17032,6,0,P|158:126|198:142,1,67.4999982118607,4|0,0:3|0:2,0:2:0:0:
268,156,17413,2,0,B|291:145|291:145|270:160,1,44.9999988079071,6|0,0:3|0:2,0:2:0:0:
131,201,17795,5,0,3:2:0:0:
126,217,17985,1,0,3:2:0:0:
128,237,18176,1,0,3:2:0:0:
124,255,18366,1,0,3:2:0:0:
71,305,18557,5,0,1:2:0:0:
219,367,18748,1,4,0:3:0:0:
219,367,18938,2,0,P|254:356|271:351,1,44.9999988079071,4|0,0:3|0:2,0:2:0:0:
373,240,19319,2,0,P|408:251|425:256,1,44.9999988079071,0|0,1:2|0:2,0:2:0:0:
482,212,19701,5,2,3:2:0:0:
482,212,20082,6,0,P|474:177|471:157,2,44.9999988079071,4|0|0,0:3|3:2|3:2,0:2:0:0:
480,91,20654,1,4,0:3:0:0:
400,113,20844,2,0,P|395:135|390:156,3,44.9999988079071,0|0|0|0,1:3|3:3|3:3|3:3,3:3:0:0:
318,119,21607,5,0,3:2:0:0:
246,139,21798,1,4,0:3:0:0:
128,39,21988,2,0,P|90:46|74:80,1,67.4999982118607,4|0,0:3|0:2,0:2:0:0:
76,83,22369,2,0,P|84:104|91:134,2,44.9999988079071,0|0|0,1:2|0:2|0:2,0:2:0:0:
265,66,22941,1,2,0:2:0:0:
166,151,23132,6,0,P|157:172|152:193,1,44.9999988079071,4|0,0:3|0:2,0:2:0:0:
128,263,23513,2,0,P|119:272|134:265,1,44.9999988079071,6|0,0:3|0:2,0:2:0:0:
212,242,23894,5,0,1:2:0:0:
77,199,24085,1,2,0:2:0:0:
233,168,24276,2,0,B|262:163|262:163|246:178,2,44.9999988079071,4|0|0,1:3|0:2|0:2,0:2:0:0:
127,364,25038,6,0,L|190:346,1,44.9999988079071,4|0,0:3|0:2,0:2:0:0:
333,314,25419,1,2,1:2:0:0:
333,314,25801,1,2,0:3:0:0:
333,314,26182,5,4,0:3:0:0:
408,348,26372,2,0,L|416:299,1,44.9999988079071,4|0,0:3|0:2,0:2:0:0:
309,154,26754,5,4,0:3:0:0:
226,142,26944,2,0,L|233:186,1,44.9999988079071,0|0,1:2|3:2,0:2:0:0:
296,230,27326,5,2,3:2:0:0:
276,84,27516,2,0,B|288:60|288:60|283:84,2,44.9999988079071,2|2|4,0:3|0:3|0:3,0:2:0:0:
148,176,28088,6,0,L|93:187,1,44.9999988079071,4|0,0:3|0:2,0:2:0:0:
340,238,28469,2,0,L|285:227,1,44.9999988079071,0|0,1:2|0:2,0:2:0:0:
347,251,28851,2,0,P|392:240|442:230,1,89.9999976158143,2|4,0:2|0:3,0:2:0:0:
512,260,29804,5,4,0:3:0:0:
512,260,29994,1,4,0:3:0:0:
444,204,30566,5,4,0:3:0:0:
431,283,30757,1,4,0:3:0:0:
296,384,31329,5,4,0:3:0:0:
191,333,31519,2,0,L|207:248,1,80.9999953823091,4|0,0:3|0:2,0:2:0:0:
447,57,32282,6,0,B|397:71|397:71|384:107|384:107|340:122,1,135.000001573563,4|0,0:1|0:2,0:2:0:0:
195,258,32662,2,0,B|145:243|145:243|132:207|132:207|88:192,1,135.000001573563,4|0,0:3|0:2,0:2:0:0:
23,231,33043,5,2,1:2:0:0:
140,129,33234,1,2,0:3:0:0:
49,50,33425,2,0,L|61:116,1,67.5000007867813,0|0,0:2|0:2,0:2:0:0:
48,127,33806,5,2,0:2:0:0:
222,147,33997,2,0,L|216:181,1,33.7500003933907,4|0,0:3|0:2,0:2:0:0:
108,308,34187,2,0,P|207:283|305:263,1,202.500002360344,4|0,0:3|0:2,0:2:0:0:
388,269,34568,6,0,P|374:320|368:346,1,67.5000007867813,2|0,1:2|0:2,0:2:0:0:
231,377,34950,2,0,P|222:344|213:311,1,67.5000007867813,0|0,1:2|0:2,0:2:0:0:
317,27,35331,6,0,P|437:25|466:161,1,270.000003147125,4|2,0:3|0:2,0:2:0:0:
343,188,35903,6,0,P|378:196|429:209,1,67.5000007867814,4|0,0:3|0:2,0:2:0:0:
499,227,36093,1,0,1:2:0:0:
386,101,36284,2,0,P|311:112|228:122,1,135.000001573563,2|0,0:3|3:2,0:2:0:0:
245,111,36761,1,0,3:2:0:0:
238,103,36856,1,0,3:2:0:0:
253,198,37047,6,0,P|219:188|157:176,1,67.5000007867814,4|0,0:3|0:2,0:2:0:0:
23,62,37237,2,0,P|110:38|174:8,1,135.000001573563,4|0,0:3|0:2,0:2:0:0:
386,98,37618,5,0,1:2:0:0:
386,98,38000,2,0,B|385:67|385:67|376:92|376:92|391:106,1,67.5000007867814,0|0,1:2|0:2,0:2:0:0:
332,304,38381,6,0,P|366:294|428:282,1,67.5000007867814,4|0,0:3|0:2,0:2:0:0:
396,287,38762,2,0,P|444:369|505:298,1,202.500002360344,4|0,0:3|0:2,0:2:0:0:
497,302,39143,1,0,1:2:0:0:
479,160,39334,6,0,P|467:196|458:241,1,67.5000007867814,4|0,0:3|0:2,0:2:0:0:
308,346,39525,2,0,P|300:313|289:281,1,67.5000007867814,4|0,0:3|0:2,0:2:0:0:
212,256,39715,5,0,3:2:0:0:
212,256,39811,1,0,3:2:0:0:
212,256,39906,1,0,3:2:0:0:
10,128,40096,6,0,P|39:120|95:102,1,67.5000007867814,4|0,0:3|0:2,0:2:0:0:
190,52,40287,2,0,P|167:131|151:184,1,135.000001573563,4|0,0:3|0:2,0:2:0:0:
109,373,40668,6,0,B|120:300|36:339|51:238,1,135.000001573563,0|2,1:2|3:2,0:2:0:0:
151,181,41240,5,0,1:2:0:0:
151,181,41336,1,0,1:2:0:0:
151,180,41431,2,0,P|145:196|138:218,1,33.7500003933907,4|0,0:3|0:2,0:2:0:0:
0,359,41621,6,0,P|111:313|239:279,1,202.500002360344,4|0,0:3|0:2,0:2:0:0:
194,300,42003,2,0,P|226:310|280:321,1,67.5000007867814,4|0,0:3|0:2,0:2:0:0:
395,248,42194,5,0,1:2:0:0:
310,377,42384,1,2,0:3:0:0:
244,233,42575,2,0,P|260:185|267:152,1,67.5000007867814,2|0,0:2|0:2,0:2:0:0:
233,97,42956,5,2,0:2:0:0:
383,241,43146,2,0,P|316:262|283:273,1,67.5000007867814,4|0,0:3|0:2,0:2:0:0:
55,123,43337,2,0,P|169:156|202:167,1,135.000001573563,4|0,0:3|0:2,0:2:0:0:
436,316,43718,2,0,P|473:255|440:177,1,135.000001573563,0|0,1:2|0:2,0:2:0:0:
384,159,44100,5,2,0:2:0:0:
215,375,44290,1,2,3:2:0:0:
215,375,44385,1,2,3:2:0:0:
215,375,44481,6,0,P|224:286|238:207,1,135.000001573563,4|0,0:1|0:2,0:2:0:0:
40,0,44862,2,0,P|50:66|56:133,1,135.000001573563,4|0,0:3|0:2,0:2:0:0:
7,202,45243,5,2,1:2:0:0:
141,125,45434,1,2,0:3:0:0:
226,262,45625,2,0,P|257:250|290:242,1,67.5000007867814,2|0,0:2|0:2,0:2:0:0:
274,328,46006,5,2,0:2:0:0:
217,146,46196,2,0,L|209:189,1,33.7500003933907,4|0,0:3|0:2,0:2:0:0:
107,384,46387,2,0,B|90:358|90:358|137:224|137:224|110:172,1,202.500002360344,4|0,0:3|0:2,0:2:0:0:
9,291,46768,6,0,L|85:311,1,67.5000007867814,0|0,1:2|0:2,0:2:0:0:
159,282,47149,1,2,0:2:0:0:
159,282,47341,1,2,0:3:0:0:
512,262,47531,6,0,P|382:291|286:384,1,270.000003147125,4|2,0:3|0:2,0:2:0:0:
200,168,48103,2,0,P|212:201|222:242,1,67.5000007867814,4|0,0:3|0:2,0:2:0:0:
159,282,48293,5,0,1:2:0:0:
290,178,48484,1,0,0:2:0:0:
230,91,48674,2,0,P|172:85|135:77,2,67.5000007867814,2|2|0,0:2|0:3|0:2,0:2:0:0:
126,200,49246,6,0,L|113:155,1,33.7500003933907,4|0,0:3|0:2,0:2:0:0:
329,48,49437,2,0,P|303:127|279:227,1,135.000001573563,4|0,0:3|0:2,0:2:0:0:
425,359,49818,5,0,1:2:0:0:
425,359,50199,5,0,1:2:0:0:
368,308,50390,1,2,0:3:0:0:
225,372,50581,2,0,L|207:260,1,67.5000007867814,4|0,0:3|0:2,0:2:0:0:
214,305,50962,6,0,B|283:284|283:284|302:237|302:237|403:209,1,202.500002360344,4|0,0:3|0:2,0:2:0:0:
387,196,51343,1,0,1:2:0:0:
233,156,51534,6,0,B|213:186|213:186|229:233,1,67.5000007867814,4|0,0:3|0:2,0:2:0:0:
358,367,51724,2,0,B|378:337|378:337|362:290,1,67.5000007867814,4|0,0:3|0:2,0:2:0:0:
300,259,51915,1,2,0:3:0:0:
100,357,52106,6,0,P|52:343|20:339,1,67.5000007867814,2|0,0:3|1:2,0:2:0:0:
25,348,52392,1,0,1:2:0:0:
17,355,52487,2,0,P|155:318|255:295,1,202.500002360344,4|0,0:3|0:2,0:2:0:0:
229,313,52868,2,0,L|289:268,1,67.5000007867814,0|0,1:2|0:2,0:2:0:0:
300,259,53250,5,0,3:2:0:0:
28,47,53440,1,2,1:2:0:0:
28,47,53535,1,2,1:2:0:0:
28,47,53631,6,0,P|41:131|44:151,1,67.5000007867814,4|0,0:3|0:2,0:2:0:0:
91,244,53821,2,0,P|118:138|147:65,1,135.000001573563,4|0,0:3|0:2,0:2:0:0:
309,28,54202,6,0,P|342:37|400:51,1,67.5000007867814,4|0,0:3|0:2,0:2:0:0:
430,94,54394,2,0,P|462:84|495:76,2,67.5000007867814,0|2|0,1:2|0:3|0:2,0:2:0:0:
386,162,54965,1,2,0:3:0:0:
386,162,55156,6,0,P|380:199|375:245,1,67.5000007867814,2|0,0:2|0:2,0:2:0:0:
431,286,55537,2,0,P|437:323|442:369,1,67.5000007867814,2|0,0:2|0:2,0:2:0:0:
454,366,55918,5,4,0:3:0:0:
360,320,56109,1,4,0:3:0:0:
463,205,56299,1,4,0:3:0:0:
293,139,56490,1,4,0:3:0:0:
132,357,56681,6,0,P|66:354|51:294,1,135.000001573563,4|0,0:1|0:2,0:2:0:0:
141,0,57062,2,0,P|184:172|189:249,1,202.500002360344,4|0,0:3|0:2,0:2:0:0:
185,207,57444,5,0,1:2:0:0:
221,129,57634,1,2,0:3:0:0:
132,273,57824,2,0,P|175:287|221:303,1,67.5000007867814,2|0,0:2|0:2,0:2:0:0:
201,303,58206,1,2,0:2:0:0:
86,164,58396,6,0,L|96:196,1,33.7500003933907,4|0,0:3|0:2,0:2:0:0:
128,374,58587,2,0,B|190:358|190:358|216:307|216:307|312:282,1,202.500002360344,4|0,0:3|0:2,0:2:0:0:
364,331,58968,6,0,P|380:284|392:256,1,67.5000007867814,0|0,1:2|0:2,0:2:0:0:
449,322,59349,1,2,0:2:0:0:
327,220,59541,1,2,0:3:0:0:
507,26,59730,6,0,P|486:108|316:103,1,270.000003147125,4|2,0:3|0:2,0:2:0:0:
94,15,60302,2,0,P|122:83|129:123,1,67.5000007867814,4|0,0:3|0:2,0:2:0:0:
84,151,60493,5,0,1:2:0:0:
265,48,60684,2,0,P|317:36|336:32,2,67.5000007867814,2|2|0,0:2|0:3|0:2,0:2:0:0:
256,39,61255,1,2,0:2:0:0:
84,151,61446,6,0,L|129:163,1,33.7500003933907,4|0,0:3|0:2,0:2:0:0:
314,133,61637,2,0,P|213:151|211:269,1,202.500002360344,4|0,0:3|0:2,0:2:0:0:
238,305,62018,5,0,1:2:0:0:
238,305,62591,1,2,0:2:0:0:
399,143,62780,6,0,P|392:178|335:202,1,67.5000007867814,8|0,0:3|0:2,0:2:0:0:
191,370,62971,2,0,P|164:346|171:285,1,67.5000007867814,8|0,0:3|0:2,0:2:0:0:
49,22,63162,2,0,P|118:26|199:134,1,202.500002360344,4|0,0:3|0:2,0:2:0:0:
198,134,63543,5,0,1:2:0:0:
236,2,63734,2,0,P|187:59|187:77,1,67.5000007867814,4|0,0:3|0:2,0:2:0:0:
57,192,63924,2,0,B|92:198|92:198|193:126|335:133,1,270.000003147125,4|0,0:3|0:2,0:2:0:0:
365,358,64496,5,0,1:2:0:0:
365,358,64591,1,0,1:2:0:0:
365,358,64687,2,0,B|328:250|241:343|233:204,1,202.500002360344,4|0,0:3|0:2,0:2:0:0:
247,211,65068,2,0,B|302:255|222:288|270:343,1,135.000001573563,0|0,1:2|0:2,0:2:0:0:
373,263,65640,1,2,1:2:0:0:
373,263,65735,1,2,1:2:0:0:
373,263,65830,6,0,L|334:278,1,33.7500003933907,4|0,0:3|0:2,0:2:0:0:
195,377,66021,2,0,P|127:357|45:338,1,135.000001573563,4|0,0:3|0:2,0:2:0:0:
318,120,66402,6,0,L|332:215,1,67.5000007867814,4|0,0:3|0:2,0:2:0:0:
149,273,66593,2,0,P|137:204|92:30,1,202.500002360344,0|0,1:2|0:2,0:2:0:0:
115,61,66974,1,2,0:2:0:0:
44,144,67165,5,0,3:2:0:0:
44,144,67260,1,0,3:2:0:0:
44,144,67355,1,0,3:2:0:0:
215,22,67546,6,0,P|207:54|196:86,1,67.5000007867814,4|0,0:3|0:2,0:2:0:0:
44,235,67737,2,0,P|134:195|248:164,1,202.500002360344,4|0,0:3|0:2,0:2:0:0:
240,171,68118,6,0,P|252:208|258:246,1,67.5000007867814,4|0,0:3|0:2,0:2:0:0:
314,152,68308,2,0,P|326:189|332:227,1,67.5000007867814,4|0,0:3|0:2,0:2:0:0:
409,365,68499,6,0,P|421:327|427:290,1,67.5000007867814,4|0,0:3|0:2,0:2:0:0:
483,384,68689,2,0,P|495:346|501:309,1,67.5000007867814,4|0,0:3|0:2,0:2:0:0:
487,244,68881,6,0,L|479:202,1,33.7500003933907,2|0,0:3|0:2,0:2:0:0:
480,244,69071,2,0,L|472:202,1,33.7500003933907,2|0,0:3|0:2,0:2:0:0:
473,244,69644,6,0,L|465:202,1,33.7500003933907,2|0,0:3|0:2,0:2:0:0:
466,244,69834,2,0,L|458:202,1,33.7500003933907,2|0,0:3|0:2,0:2:0:0:
459,244,70405,6,0,L|451:202,1,33.7500003933907,2|0,0:3|0:2,0:2:0:0:
452,244,70596,2,0,L|444:202,1,33.7500003933907,2|0,0:3|0:2,0:2:0:0:
445,244,71169,6,0,L|437:202,1,33.7500003933907,2|0,0:3|0:2,0:2:0:0:
438,244,71359,2,0,L|430:202,1,33.7500003933907,2|0,0:3|0:2,0:2:0:0:
303,82,71930,5,4,0:3:0:0:
303,82,72121,1,4,0:3:0:0:
87,136,72693,5,8,0:1:0:0:
15,160,72883,1,8,0:1:0:0:
15,160,73074,2,0,P|29:193|33:212,1,44.9999988079071,2|0,0:2|0:2,0:2:0:0:
156,230,73455,6,0,P|125:218|106:213,1,44.9999988079071,2|0,0:2|0:2,0:2:0:0:
18,291,73836,2,0,P|49:279|68:274,1,44.9999988079071,2|0,0:2|0:2,0:2:0:0:
53,363,74218,5,8,0:1:0:0:
148,306,74408,1,8,0:1:0:0:
148,306,74599,2,0,P|134:339|130:358,1,44.9999988079071,2|0,0:2|0:2,0:2:0:0:
324,255,74980,5,4,0:3:0:0:
324,255,75171,2,0,P|375:243|429:229,1,89.9999976158143,4|0,0:3|0:2,0:2:0:0:
471,97,75743,2,0,P|428:87|397:165,1,134.999996423721,8|0,0:1|0:2,0:2:0:0:
467,177,76505,2,0,P|486:207|507:317,1,134.999996423721,2|0,0:2|0:2,0:2:0:0:
480,374,77268,1,8,0:1:0:0:
203,298,77649,5,4,0:3:0:0:
203,298,77840,1,4,0:3:0:0:
313,156,78030,5,4,0:3:0:0:
313,156,78221,2,0,P|320:116|330:59,1,89.9999976158143,4|0,0:3|0:2,0:2:0:0:
230,26,78793,6,0,L|279:11,1,44.9999988079071,8|8,0:1|0:1,0:2:0:0:
328,67,79174,2,0,L|377:52,1,44.9999988079071,2|0,0:2|0:2,0:2:0:0:
313,156,79555,6,0,L|264:141,1,44.9999988079071,2|0,0:2|0:2,0:2:0:0:
215,197,79936,2,0,L|166:182,1,44.9999988079071,2|0,0:2|0:2,0:2:0:0:
117,238,80318,2,0,L|68:223,1,44.9999988079071,8|8,0:1|0:1,0:2:0:0:
195,272,80699,2,0,L|203:335,1,44.9999988079071,2|0,0:2|0:2,0:2:0:0:
362,348,81080,5,4,0:3:0:0:
362,348,81271,2,0,P|405:337|459:328,1,89.9999976158143,4|0,0:3|0:2,0:2:0:0:
487,212,81843,5,8,0:1:0:0:
415,250,82033,1,8,0:1:0:0:
415,250,82224,2,0,P|408:215|403:197,1,44.9999988079071,0|0,0:2|0:2,0:2:0:0:
445,138,82605,5,0,3:2:0:0:
445,138,82986,5,4,0:3:0:0:
372,116,83177,1,4,0:3:0:0:
318,235,83368,5,8,0:1:0:0:
245,257,83559,1,4,0:3:0:0:
179,54,83749,5,4,0:3:0:0:
106,32,83940,1,4,0:3:0:0:
48,86,84131,5,4,0:3:0:0:
48,86,84321,2,0,P|57:117|70:185,1,89.9999976158143,4|0,0:3|0:2,0:2:0:0:
31,286,84892,5,8,0:1:0:0:
104,254,85083,1,8,0:1:0:0:
104,254,85274,2,0,P|147:266|165:273,1,44.9999988079071,2|0,0:2|0:2,0:2:0:0:
264,356,85655,6,0,P|271:318|275:298,1,44.9999988079071,4|0,0:3|0:2,0:2:0:0:
347,327,86036,2,0,P|340:365|336:385,1,44.9999988079071,4|4,0:3|0:3,0:2:0:0:
322,250,86417,2,0,P|373:235|395:188,1,89.9999976158143,8|2,0:1|0:2,0:2:0:0:
342,43,87180,5,4,0:3:0:0:
342,43,87371,2,0,P|293:60|289:99,1,89.9999976158143,4|0,0:3|0:2,0:2:0:0:
201,101,87942,2,0,P|248:119|320:176,1,134.999996423721,8|0,0:1|0:2,0:2:0:0:
308,179,88705,5,4,0:3:0:0:
235,171,88896,1,0,3:2:0:0:
227,26,89086,5,4,0:3:0:0:
227,26,89277,1,4,0:3:0:0:
373,121,89467,5,8,0:1:0:0:
314,170,89658,2,0,P|325:205|341:263,1,89.9999976158143,8|0,0:1|0:2,0:2:0:0:
212,346,90231,5,4,0:3:0:0:
212,346,90421,2,0,P|166:318|121:299,1,89.9999976158143,4|0,0:3|0:2,0:2:0:0:
18,191,90993,5,8,0:1:0:0:
94,237,91183,2,0,P|48:265|3:284,1,89.9999976158143,8|0,0:1|0:2,0:2:0:0:
44,384,91755,6,0,P|56:358|71:338,1,44.9999988079071,2|0,0:2|0:2,0:2:0:0:
177,224,92136,2,0,P|165:198|150:178,1,44.9999988079071,4|0,0:3|0:2,0:2:0:0:
79,19,92517,2,0,P|51:28|35:47,1,44.9999988079071,8|0,0:1|0:2,0:2:0:0:
34,109,92899,2,0,P|50:138|58:156,1,44.9999988079071,2|0,0:2|0:2,0:2:0:0:
266,227,93280,5,4,0:3:0:0:
266,227,93470,2,0,P|317:236|366:254,1,89.9999976158143,4|0,0:3|0:2,0:2:0:0:
512,295,94042,5,8,0:1:0:0:
446,358,94233,2,0,P|438:325|424:269,1,89.9999976158143,8|0,0:1|0:2,0:2:0:0:
484,217,94805,2,0,L|496:167,1,44.9999988079071,2|0,0:2|0:2,0:2:0:0:
437,123,95186,5,4,0:3:0:0:
437,123,95377,1,4,0:3:0:0:
443,38,95567,5,8,0:1:0:0:
373,65,95758,1,8,0:1:0:0:
316,13,95949,2,0,L|261:2,1,44.9999988079071,2|0,0:2|0:2,0:2:0:0:
219,102,96330,5,4,0:3:0:0:
219,102,96520,1,4,0:3:0:0:
272,250,96711,2,0,B|293:265|293:265|268:255,1,44.9999988079071,2|0,0:3|0:2,0:2:0:0:
219,102,97093,5,8,0:1:0:0:
290,164,97283,2,0,P|250:176|201:195,1,89.9999976158143,8|0,0:1|0:2,0:2:0:0:
158,256,97855,5,4,0:3:0:0:
158,256,98045,1,4,0:3:0:0:
17,137,98617,6,0,P|48:127|71:120,1,44.9999988079071,8|0,0:1|0:2,0:2:0:0:
162,179,98998,2,0,P|193:189|216:196,1,44.9999988079071,2|0,0:2|0:2,0:2:0:0:
371,216,99380,5,4,0:3:0:0:
371,216,99570,2,0,P|376:178|397:115,1,89.9999976158143,4|0,0:3|0:2,0:2:0:0:
361,57,100142,2,0,P|399:46|470:108,1,134.999996423721,8|0,0:1|0:2,0:2:0:0:
461,179,100905,5,2,0:2:0:0:
461,179,101286,1,2,0:2:0:0:
461,179,101667,5,2,0:2:0:0:
388,197,101858,1,2,0:2:0:0:
266,158,102048,1,2,0:2:0:0:
176,25,102239,1,2,0:2:0:0:
0,384,102430,6,0,P|84:353|154:332,1,135.000001573563,4|0,0:1|0:2,0:2:0:0:
266,158,102811,2,0,P|336:212|325:258,1,135.000001573563,4|0,0:3|0:2,0:2:0:0:
195,275,103192,6,0,P|228:246|197:279,1,134.999996423721,0|0,1:2|0:2,0:2:0:0:
218,266,103955,1,2,0:2:0:0:
331,247,104145,6,0,P|324:271|318:301,1,33.7500003933907,4|0,0:3|0:2,0:2:0:0:
97,374,104336,2,0,P|96:272|82:172,1,202.500002360344,4|0,0:3|0:2,0:2:0:0:
174,155,104717,6,0,P|203:130|236:112,1,67.5000007867814,0|0,1:2|0:2,0:2:0:0:
34,29,105098,2,0,P|41:60|45:94,1,67.5000007867814,0|0,1:2|0:2,0:2:0:0:
278,277,105480,6,0,B|376:242|376:242|392:186|392:186|516:142,1,270.000003147125,4|2,0:3|0:2,0:2:0:0:
460,268,106051,2,0,L|374:244,1,67.5000007867814,4|0,0:3|0:2,0:2:0:0:
329,139,106242,5,0,1:2:0:0:
443,35,106433,2,0,P|420:118|404:179,1,135.000001573563,2|0,0:3|3:2,0:2:0:0:
407,165,106909,1,0,3:2:0:0:
407,165,107005,1,0,3:2:0:0:
271,275,107195,6,0,L|257:229,1,33.7500003933907,4|0,0:3|0:2,0:2:0:0:
228,23,107386,2,0,B|153:49|153:49|140:92|140:92|46:126,1,202.500002360344,4|0,0:3|0:2,0:2:0:0:
57,28,107767,6,0,L|138:49,1,67.5000007867814,0|0,1:2|0:2,0:2:0:0:
66,118,108148,2,0,L|-15:97,1,67.5000007867814,0|0,1:2|0:2,0:2:0:0:
308,218,108530,6,0,L|280:99,1,67.5000007867814,4|0,0:3|0:2,0:2:0:0:
293,153,108911,2,0,P|378:141|517:123,1,202.500002360344,4|0,0:3|0:2,0:2:0:0:
498,111,109293,1,0,1:2:0:0:
398,78,109483,6,0,L|385:126,1,33.7500003933907,4|0,0:3|0:2,0:2:0:0:
238,292,109673,2,0,L|223:222,1,67.5000007867814,4|0,0:3|0:2,0:2:0:0:
152,198,109864,5,2,0:3:0:0:
83,232,110055,1,2,0:3:0:0:
17,191,110245,6,0,L|8:158,1,33.7500003933907,4|0,0:3|0:2,0:2:0:0:
294,167,110436,2,0,P|263:308|256:371,1,202.500002360344,4|0,0:3|0:2,0:2:0:0:
347,321,110817,2,0,P|354:267|365:235,1,67.5000007867814,0|0,1:2|0:2,0:2:0:0:
424,211,111198,5,2,0:3:0:0:
241,78,111389,1,2,1:2:0:0:
241,78,111484,1,2,1:2:0:0:
241,78,111579,6,0,L|252:131,1,33.7500003933907,4|0,0:3|0:2,0:2:0:0:
0,167,111770,2,0,B|11:187|11:187|100:198|202:271,1,202.500002360344,4|0,0:3|0:2,0:2:0:0:
183,261,112151,2,0,P|169:297|135:308,1,67.5000007867814,4|0,0:3|0:2,0:2:0:0:
69,119,112342,5,0,1:2:0:0:
110,188,112533,1,2,0:2:0:0:
186,165,112723,5,2,0:3:0:0:
189,151,112914,1,2,0:3:0:0:
248,213,113104,5,2,0:2:0:0:
401,74,113295,2,0,P|400:42|393:6,1,67.5000007867814,4|0,0:3|0:2,0:2:0:0:
509,72,113486,2,0,P|464:149|441:215,1,135.000001573563,4|0,0:3|0:2,0:2:0:0:
341,234,113868,6,0,B|448:272|351:336|473:383,1,202.500002360344,0|0,1:2|0:2,0:2:0:0:
473,371,114248,1,2,0:2:0:0:
197,308,114439,5,2,1:2:0:0:
197,308,114534,1,2,1:2:0:0:
197,308,114629,2,0,P|96:279|31:262,1,135.000001573563,4|0,0:1|0:2,0:2:0:0:
118,37,115011,2,0,P|183:55|248:73,1,135.000001573563,4|0,0:3|0:2,0:2:0:0:
177,165,115393,6,0,P|143:194|174:160,1,134.999996423721,0|0,1:2|0:2,0:2:0:0:
154,175,116154,1,2,0:2:0:0:
17,201,116345,6,0,L|54:189,1,33.7500003933907,4|0,0:3|0:2,0:2:0:0:
258,168,116536,2,0,P|337:193|455:230,1,202.500002360344,4|0,0:3|0:2,0:2:0:0:
508,127,116917,6,0,L|433:142,1,67.5000007867814,0|0,1:2|0:2,0:2:0:0:
424,309,117298,5,2,0:3:0:0:
258,168,117489,1,2,0:2:0:0:
314,384,117679,2,0,B|298:357|298:357|362:157|362:157|341:116,1,270.000003147125,4|2,0:3|0:2,0:2:0:0:
471,59,118251,6,0,L|396:74,1,67.5000007867814,4|0,0:3|0:2,0:2:0:0:
229,255,118442,2,0,L|424:309,1,202.500002360344,0|0,1:2|0:2,0:2:0:0:
466,243,119204,5,0,3:2:0:0:
316,337,119395,2,0,L|304:283,1,33.7500003933907,4|0,0:3|0:2,0:2:0:0:
178,117,119586,6,0,B|42:127|151:220|6:233,1,202.500002360344,4|0,0:3|0:2,0:2:0:0:
7,139,119967,2,0,L|74:159,1,67.5000007867814,0|0,1:2|0:2,0:2:0:0:
108,229,120348,5,2,1:2:0:0:
179,198,120539,1,2,0:2:0:0:
365,379,120729,6,0,L|385:276,1,67.5000007867814,4|0,0:3|0:2,0:2:0:0:
377,312,121111,2,0,L|337:79,1,202.500002360344,4|0,0:3|0:2,0:2:0:0:
272,153,121493,5,0,1:2:0:0:
362,33,121682,2,0,L|454:57,1,67.5000007867814,4|0,0:3|0:2,0:2:0:0:
329,223,121873,2,0,L|237:247,1,67.5000007867814,4|0,0:3|0:2,0:2:0:0:
209,294,122254,5,2,0:2:0:0:
0,116,122445,1,0,1:2:0:0:
0,116,122540,1,0,1:2:0:0:
0,116,122636,2,0,P|19:45|144:40,1,202.500002360344,4|0,0:3|0:2,0:2:0:0:
224,19,123017,2,0,P|205:69|196:98,1,67.5000007867814,0|0,1:2|0:2,0:2:0:0:
127,103,123398,5,2,0:2:0:0:
263,240,123589,1,2,0:2:0:0:
263,240,123684,1,2,0:2:0:0:
263,240,123779,1,2,0:2:0:0:
263,240,124161,6,0,P|315:248|365:285,1,101.250001180172,2|0,0:2|0:2,0:2:0:0:
361,256,124542,2,0,P|413:248|453:217,1,94.499994612694,2|0,0:2|0:2,0:2:0:0:
458,212,125304,6,0,P|471:190|475:181,1,26.9999984607697,2|0,0:2|0:2,0:2:0:0:
371,174,125685,2,0,P|369:149|365:125,1,44.9999988079071,2|0,0:2|0:2,0:2:0:0:
194,202,126067,5,8,0:3:0:0:
141,144,126257,1,8,0:3:0:0:
111,350,126448,5,4,0:3:0:0:
3,320,126639,1,4,0:3:0:0:
204,199,126830,6,0,P|221:289|232:356,1,135.000001573563,4|0,0:1|0:2,0:2:0:0:
427,384,127210,2,0,P|438:317|473:174,1,202.500002360344,4|0,0:3|0:2,0:2:0:0:
492,175,127592,5,0,1:2:0:0:
415,279,127782,1,2,0:3:0:0:
437,114,127973,2,0,P|480:94|501:94,2,67.5000007867814,2|0|0,0:3|0:2|0:2,0:2:0:0:
424,285,128545,6,0,L|415:242,1,33.7500003933907,4|0,0:3|0:2,0:2:0:0:
372,14,128735,2,0,P|355:95|337:161,1,135.000001573563,4|0,0:3|0:2,0:2:0:0:
114,211,129117,6,0,P|55:196|50:123,1,135.000001573563,0|0,1:2|0:2,0:2:0:0:
54,124,129689,1,2,0:2:0:0:
19,354,129880,6,0,P|62:297|252:255,1,270.000003147125,4|2,0:3|0:2,0:2:0:0:
317,289,130451,2,0,P|297:322|258:325,1,67.5000007867814,4|0,0:3|0:2,0:2:0:0:
114,211,130642,1,0,1:2:0:0:
313,212,130832,6,0,P|348:197|399:191,2,67.5000007867814,2|2|0,0:3|0:2|0:2,0:2:0:0:
241,180,131405,1,2,0:2:0:0:
308,101,131595,6,0,L|299:148,1,33.7500003933907,4|0,0:3|0:2,0:2:0:0:
193,370,131785,2,0,P|178:298|143:147,1,202.500002360344,4|0,0:3|0:2,0:2:0:0:
82,127,132167,5,0,1:2:0:0:
82,127,132548,1,2,0:3:0:0:
120,59,132738,1,2,0:2:0:0:
42,25,132929,6,0,B|26:35|26:35|36:54|36:54|46:20,1,67.5000007867814,4|0,0:3|0:2,0:2:0:0:
149,172,133120,2,0,B|144:190|144:190|165:196|165:196|148:165,1,67.5000007867814,4|0,0:3|0:2,0:2:0:0:
298,144,133310,2,0,B|388:107|388:107|394:49|394:49|463:21,1,202.500002360344,4|0,0:3|0:2,0:2:0:0:
454,26,133692,1,0,1:2:0:0:
300,24,133882,6,0,L|313:72,1,33.7500003933907,4|0,0:3|0:2,0:2:0:0:
512,141,134073,2,0,B|504:154|504:154|357:120,1,135.000001573563,4|2,0:3|0:2,0:2:0:0:
387,127,134645,6,0,L|374:175,1,33.7500003933907,4|0,0:3|0:2,0:2:0:0:
246,278,134835,2,0,P|231:203|222:183,1,67.5000007867814,4|0,0:3|0:2,0:2:0:0:
475,289,135026,2,0,P|445:306|419:327,1,67.5000007867814,4|0,0:3|0:2,0:2:0:0:
310,371,135217,6,0,P|330:312|360:238,1,135.000001573563,0|2,1:2|0:2,0:2:0:0:
299,150,135788,5,2,1:2:0:0:
299,150,135884,1,2,1:2:0:0:
299,150,135979,2,0,L|313:194,1,33.7500003933907,4|0,0:3|0:2,0:2:0:0:
223,365,136170,6,0,B|146:359|186:303|87:294,1,135.000001573563,4|0,0:3|0:2,0:2:0:0:
24,83,136551,2,0,P|44:114|53:150,1,67.5000007867814,4|0,0:3|0:2,0:2:0:0:
109,206,136742,2,0,P|57:227|37:240,2,67.5000007867814,0|2|0,1:2|0:2|0:2,0:2:0:0:
137,133,137313,5,2,3:3:0:0:
137,133,137409,1,2,3:3:0:0:
137,133,137504,1,2,3:3:0:0:
185,239,137695,6,0,P|193:217|207:187,1,33.7500003933907,4|0,0:3|0:2,0:2:0:0:
509,122,137885,2,0,P|408:112|310:85,1,202.500002360344,4|0,0:3|0:2,0:2:0:0:
247,25,138266,6,0,B|230:1|212:9|212:9|228:21|235:50,1,67.5000007867814,4|0,0:3|0:2,0:2:0:0:
290,169,138457,2,0,B|278:194|293:206|293:206|296:186|317:165,1,67.5000007867814,4|0,0:3|0:2,0:2:0:0:
396,59,138648,2,0,B|424:56|426:37|426:37|408:44|379:36,1,67.5000007867814,4|0,0:3|0:2,0:2:0:0:
310,85,138838,1,2,0:2:0:0:
419,371,139029,6,0,P|494:326|482:252,1,135.000001573563,4|0,0:1|0:2,0:2:0:0:
168,169,139410,2,0,B|52:190|142:272|24:296,1,202.500002360344,4|0,0:3|0:2,0:2:0:0:
15,283,139791,5,0,1:2:0:0:
179,252,139982,2,0,P|194:299|207:337,2,67.5000007867814,2|2|0,0:2|0:3|0:2,0:2:0:0:
245,203,140554,5,2,0:2:0:0:
114,367,140745,2,0,L|122:334,1,33.7500003933907,4|0,0:3|0:2,0:2:0:0:
272,278,140935,2,0,B|388:266|330:373|479:348,1,202.500002360344,4|0,0:3|0:2,0:2:0:0:
426,256,141316,2,0,P|404:228|367:217,1,67.5000007867814,0|0,1:2|0:2,0:2:0:0:
296,358,141698,5,2,0:3:0:0:
428,272,141888,1,2,0:2:0:0:
229,119,142079,2,0,B|140:106|140:106|102:36|102:36|-15:16,1,270.000003147125,4|2,0:3|0:2,0:2:0:0:
197,20,142651,6,0,L|108:43,1,67.5000007867814,4|0,0:3|0:2,0:2:0:0:
47,110,142841,2,0,P|65:163|76:198,1,67.5000007867814,0|2,1:2|0:2,0:2:0:0:
138,252,143223,2,0,P|148:219|159:188,2,67.5000007867814,2|2|0,0:2|0:2|0:2,0:2:0:0:
24,245,143795,6,0,L|66:256,1,33.7500003933907,4|0,0:3|0:2,0:2:0:0:
227,117,143985,2,0,B|297:135|297:135|308:192|308:192|399:219,1,202.500002360344,4|0,0:3|0:2,0:2:0:0:
451,236,144366,5,0,1:2:0:0:
451,236,144748,1,2,0:3:0:0:
432,163,144938,1,2,0:2:0:0:
282,185,145129,6,0,L|266:270,1,67.5000007867814,4|0,0:3|0:2,0:2:0:0:
378,291,145319,2,0,L|365:224,1,67.5000007867814,4|0,0:3|0:2,0:2:0:0:
238,15,145510,2,0,P|159:109|58:79,1,202.500002360344,4|0,0:3|0:2,0:2:0:0:
37,46,145891,5,0,1:2:0:0:
196,121,146082,2,0,L|208:152,1,33.7500003933907,4|0,0:3|0:2,0:2:0:0:
114,325,146273,6,0,L|143:167,1,135.000001573563,4|0,0:3|0:2,0:2:0:0:
208,152,146654,1,2,0:2:0:0:
494,162,146844,5,2,1:2:0:0:
494,162,146940,1,2,1:2:0:0:
494,162,147035,2,0,P|396:166|345:248,1,202.500002360344,4|0,0:3|0:2,0:2:0:0:
375,322,147416,5,0,1:2:0:0:
375,322,147798,1,2,0:3:0:0:
349,143,147988,5,2,1:2:0:0:
349,143,148084,1,2,1:2:0:0:
349,143,148179,2,0,P|362:170|369:200,1,33.7500003933907,4|0,0:3|0:2,0:2:0:0:
373,331,148369,6,0,P|300:340|272:266,1,135.000001573563,4|0,0:3|0:2,0:2:0:0:
444,53,148751,2,0,P|431:93|419:137,1,67.5000007867814,4|0,0:3|0:2,0:2:0:0:
345,247,148941,6,0,P|278:271|106:383,1,270.000003147125,0|0,1:2|0:2,0:2:0:0:
16,284,149513,5,2,3:3:0:0:
16,284,149608,1,2,3:3:0:0:
16,284,149704,1,2,3:3:0:0:
203,379,149894,6,0,L|186:326,1,33.7500003933907,4|0,0:3|0:2,0:2:0:0:
97,290,150085,2,0,P|124:211|135:151,1,135.000001573563,4|0,0:3|0:2,0:2:0:0:
344,135,150466,2,0,P|317:56|306:-4,1,135.000001573563,4|0,0:3|0:2,0:2:0:0:
398,25,150848,5,4,0:3:0:0:
259,138,151038,1,2,0:2:0:0:
479,263,151229,1,4,0:3:0:0:
435,332,163429,6,0,L|444:282,3,44.9999988079071,0|0|0|0,3:2|0:2|0:2|0:2,0:2:0:0:
359,315,164953,2,0,L|366:270,3,44.9999988079071,0|0|0|0,3:2|0:2|0:2|0:2,0:2:0:0:
287,182,166478,6,0,L|296:232,3,44.9999988079071,0|0|0|0,3:2|0:2|0:2|0:2,0:2:0:0:
211,199,168004,2,0,L|218:243,3,44.9999988079071,0|0|0|0,3:2|0:2|0:2|0:2,0:2:0:0:
151,142,169528,6,0,P|127:137|99:131,1,44.9999988079071,0|0,3:2|0:2,0:2:0:0:
137,216,170291,2,0,P|113:211|85:205,1,44.9999988079071,0|0,3:2|0:2,0:2:0:0:
58,348,171053,6,0,P|34:353|6:359,1,44.9999988079071,0|0,3:2|0:2,0:2:0:0:
44,274,171816,2,0,P|20:279|-8:285,1,44.9999988079071,0|0,3:2|0:2,0:2:0:0:
325,290,172578,6,0,P|317:316|311:333,1,44.9999988079071,2|0,0:2|0:2,0:2:0:0:
181,229,172960,2,0,P|189:254|194:271,1,44.9999988079071,2|0,0:2|0:2,0:2:0:0:
417,209,173341,2,0,P|387:222|372:236,1,44.9999988079071,2|0,0:2|0:2,0:2:0:0:
95,144,173722,2,0,P|125:157|140:171,1,44.9999988079071,2|0,0:2|0:2,0:2:0:0:
264,173,174103,6,0,B|301:108|400:153|410:60|383:11|302:-10|274:58,1,269.999992847443,2|0,0:2|0:2,0:2:0:0:
264,173,174866,2,0,B|256:98|147:99|176:10|221:-23|308:-5|303:62,1,269.999992847443,2|0,0:2|0:2,0:2:0:0:
465,140,175628,6,0,P|393:123|316:101,1,135.000001573563,4|0,0:1|0:2,0:2:0:0:
21,243,176010,2,0,P|93:226|170:204,1,135.000001573563,4|0,0:1|0:2,0:2:0:0:
512,240,176391,2,0,P|440:223|363:201,1,135.000001573563,4|0,0:1|0:2,0:2:0:0:
0,337,176772,2,0,P|72:320|149:298,1,135.000001573563,4|0,0:1|0:2,0:2:0:0:
130,303,177344,6,0,P|139:329|145:348,1,33.7500003933907,4|0,0:3|0:2,0:2:0:0:
349,337,177535,2,0,P|365:261|390:179,1,135.000001573563,4|0,0:3|0:2,0:2:0:0:
402,23,177916,2,0,P|470:34|488:104,1,135.000001573563,0|0,1:2|0:2,0:2:0:0:
482,111,178488,1,2,0:2:0:0:
323,121,178678,6,0,P|215:146|61:224,1,270.000003147125,4|2,0:3|0:2,0:2:0:0:
4,101,179250,2,0,P|37:108|88:131,1,67.5000007867814,4|0,0:3|0:2,0:2:0:0:
176,25,179441,2,0,P|152:85|151:170,1,135.000001573563,0|2,1:2|0:2,0:2:0:0:
148,154,180013,1,0,3:2:0:0:
148,154,180203,1,0,3:2:0:0:
70,10,180394,6,0,P|80:28|85:43,1,33.7500003933907,4|0,0:3|0:2,0:2:0:0:
254,165,180584,2,0,P|208:238|166:366,1,202.500002360344,4|0,0:3|0:2,0:2:0:0:
97,384,180966,6,0,B|96:309|36:344|31:255,1,135.000001573563,0|0,1:2|0:2,0:2:0:0:
43,263,181538,1,2,0:2:0:0:
326,325,181728,6,0,L|220:302,1,67.5000007867814,4|0,0:3|0:2,0:2:0:0:
261,311,182109,2,0,P|177:331|-25:387,1,270.000003147125,4|2,0:3|1:2,0:2:0:0:
109,225,182681,6,0,L|123:273,1,33.7500003933907,4|0,0:3|0:2,0:2:0:0:
398,382,182872,2,0,L|413:303,1,67.5000007867814,4|0,0:3|0:2,0:2:0:0:
483,292,183063,1,2,3:3:0:0:
483,292,183444,6,0,L|475:250,1,33.7500003933907,4|0,0:3|0:2,0:2:0:0:
177,130,183634,2,0,P|230:193|292:187,1,135.000001573563,4|0,0:3|0:2,0:2:0:0:
390,141,184016,2,0,P|403:80|430:7,1,135.000001573563,0|2,1:2|0:2,0:2:0:0:
512,113,184588,5,2,1:2:0:0:
512,113,184683,1,2,1:2:0:0:
512,113,184778,2,0,P|486:102|461:87,1,33.7500003933907,4|0,0:3|0:2,0:2:0:0:
179,9,184969,6,0,P|252:81|213:142,1,135.000001573563,4|0,0:3|0:2,0:2:0:0:
177,130,185350,1,4,0:3:0:0:
393,349,185541,2,0,P|380:288|353:215,1,135.000001573563,0|2,1:2|0:3,0:2:0:0:
451,218,186112,5,2,3:3:0:0:
451,218,186208,1,2,3:3:0:0:
451,218,186303,1,2,3:3:0:0:
501,290,186494,6,0,L|447:304,1,33.7500003933907,4|0,0:3|0:2,0:2:0:0:
307,382,186684,2,0,P|225:351|155:335,1,135.000001573563,4|0,0:3|0:2,0:2:0:0:
79,280,187066,5,2,1:2:0:0:
97,353,187256,1,2,0:2:0:0:
274,140,187447,5,2,0:2:0:0:
261,221,187637,1,2,0:2:0:0:
261,221,187733,1,2,0:2:0:0:
261,221,187828,2,0,P|326:206|351:128,1,135.000001573563,4|0,0:3|0:2,0:2:0:0:
98,105,188209,2,0,P|33:90|8:12,1,135.000001573563,4|0,0:3|0:2,0:2:0:0:
123,189,188591,5,2,1:2:0:0:
84,22,188781,1,2,0:2:0:0:
238,0,188972,5,2,0:2:0:0:
210,116,189162,1,2,0:2:0:0:
231,20,189353,1,2,0:2:0:0:
348,235,189543,5,6,0:3:0:0:
409,27,189734,1,6,0:3:0:0:
447,94,189926,5,2,0:2:0:0:
353,148,190116,2,0,P|416:165|503:198,1,135.000001573563,0|0,1:2|1:2,0:2:0:0:
486,201,190687,1,2,0:2:0:0:
226,358,190878,6,0,P|106:213|5:215,1,270.000003147125,4|0,0:3|0:2,0:2:0:0:
24,70,191450,2,0,P|23:93|66:131,1,67.5000007867814,4|0,0:3|0:2,0:2:0:0:
2,316,191640,6,0,P|48:297|87:288,1,67.5000007867814,0|2,1:2|0:2,0:2:0:0:
127,138,192022,2,0,P|173:157|212:166,2,67.5000007867814,2|2|0,0:2|0:3|0:2,0:2:0:0:
139,256,192594,6,0,P|134:234|127:213,1,33.7500003933907,4|0,0:3|0:2,0:2:0:0:
297,0,192784,2,0,P|275:67|261:136,1,135.000001573563,4|0,0:3|0:2,0:2:0:0:
413,351,193165,2,0,P|484:341|501:280,1,135.000001573563,0|0,1:2|3:2,0:2:0:0:
491,274,193737,1,2,0:2:0:0:
321,194,193928,6,0,P|287:205|230:223,1,67.5000007867814,4|0,0:3|0:2,0:2:0:0:
257,214,194309,2,0,P|26:174|-15:169,1,270.000003147125,4|0,0:3|1:2,0:2:0:0:
108,94,194881,6,0,L|132:193,1,67.5000007867814,4|0,0:3|0:2,0:2:0:0:
120,355,195072,2,0,P|145:284|178:213,1,135.000001573563,4|0,0:3|0:2,0:2:0:0:
331,52,195644,5,0,1:2:0:0:
331,52,195739,1,0,1:2:0:0:
331,52,195834,2,0,P|261:43|212:164,1,202.500002360344,4|0,0:3|0:2,0:2:0:0:
254,214,196215,2,0,P|294:227|387:270,1,135.000001573563,0|2,1:2|0:2,0:2:0:0:
339,137,196787,5,2,1:2:0:0:
339,137,196883,1,2,1:2:0:0:
339,137,196978,2,0,L|279:154,1,33.7500003933907,4|0,0:3|0:2,0:2:0:0:
382,351,197169,2,0,P|447:326|459:255,1,135.000001573563,4|0,0:3|0:2,0:2:0:0:
405,185,197550,5,4,0:3:0:0:
165,212,197740,2,0,P|190:278|209:338,1,67.5000007867814,0|0,1:2|0:2,0:2:0:0:
463,40,198122,2,0,P|438:106|419:166,1,67.5000007867814,2|0,0:2|0:2,0:2:0:0:
512,169,198503,2,0,P|454:187|320:256,1,202.500002360344,2|0,0:2|0:2,0:2:0:0:
323,259,199265,5,4,0:3:0:0:
263,202,199456,1,4,0:3:0:0:
94,315,199647,1,4,0:3:0:0:
0,118,199837,1,4,0:3:0:0:
208,381,200028,6,0,P|192:295|179:237,1,135.000001573563,4|0,0:1|0:2,0:2:0:0:
302,3,200409,2,0,P|278:109|259:217,1,202.500002360344,4|0,0:3|0:2,0:2:0:0:
273,206,200790,5,0,1:2:0:0:
323,144,200981,1,2,0:2:0:0:
165,94,201172,2,0,P|177:135|186:172,2,67.5000007867814,2|0|2,0:3|0:2|0:2,0:2:0:0:
87,211,201743,6,0,L|128:201,1,33.7500003933907,4|0,0:3|0:2,0:2:0:0:
320,271,201934,2,0,B|398:304|398:304|408:338|408:338|488:372,1,202.500002360344,4|0,0:3|0:2,0:2:0:0:
490,272,202315,6,0,L|411:292,1,67.5000007867814,0|0,1:2|0:2,0:2:0:0:
304,373,202697,2,0,L|369:356,1,67.5000007867814,2|2,1:2|0:2,0:2:0:0:
512,25,203078,6,0,P|493:111|321:154,1,270.000003147125,4|0,0:3|0:2,0:2:0:0:
321,80,203650,2,0,P|282:93|265:136,1,67.5000007867814,4|0,0:3|0:2,0:2:0:0:
294,300,203840,2,0,P|311:268|304:231,2,67.5000007867814,0|2|0,1:2|0:2|0:2,0:2:0:0:
228,250,204412,5,0,3:2:0:0:
228,250,204507,1,0,3:2:0:0:
228,250,204603,1,0,3:2:0:0:
147,157,204793,6,0,P|167:173|178:200,1,33.7500003933907,4|0,0:3|0:2,0:2:0:0:
219,335,204984,2,0,P|159:315|140:243,1,135.000001573563,4|0,0:3|0:2,0:2:0:0:
334,160,205365,2,0,B|403:184|359:226|462:242,1,135.000001573563,0|0,1:2|0:2,0:2:0:0:
448,225,205937,1,2,0:2:0:0:
137,275,206128,6,0,P|100:284|41:298,1,67.5000007867814,4|0,0:3|0:2,0:2:0:0:
71,290,206509,2,0,P|99:191|117:73,1,202.500002360344,4|0,0:3|0:2,0:2:0:0:
108,79,206890,1,0,1:2:0:0:
12,123,207081,6,0,L|30:174,1,33.7500003933907,4|0,0:3|0:2,0:2:0:0:
198,123,207271,2,0,P|223:44|238:16,1,67.5000007867814,4|0,0:3|0:2,0:2:0:0:
288,25,207462,1,2,3:3:0:0:
288,25,207843,6,0,L|306:76,1,33.7500003933907,4|0,0:3|0:2,0:2:0:0:
375,302,208034,2,0,P|413:159|435:94,1,202.500002360344,4|0,0:3|0:2,0:2:0:0:
511,116,208415,2,0,B|434:101|484:48|401:28,1,135.000001573563,0|2,1:2|0:2,0:2:0:0:
437,199,208987,5,2,1:2:0:0:
437,199,209082,1,2,1:2:0:0:
437,199,209178,2,0,L|484:185,1,33.7500003933907,4|0,0:3|0:2,0:2:0:0:
304,58,209368,2,0,P|311:137|392:124,1,135.000001573563,4|0,0:3|0:2,0:2:0:0:
361,138,209750,1,4,0:3:0:0:
439,370,209940,6,0,P|403:292|212:259,1,270.000003147125,0|2,1:2|0:3,0:2:0:0:
214,325,210512,1,2,3:3:0:0:
214,325,210607,1,2,3:3:0:0:
214,325,210703,1,2,3:3:0:0:
129,195,210893,6,0,P|148:226|155:270,1,67.5000007867814,4|0,0:3|0:2,0:2:0:0:
295,384,211084,2,0,P|311:295|343:240,1,135.000001573563,4|0,0:3|0:2,0:2:0:0:
141,111,211465,2,0,P|55:140|42:192,1,135.000001573563,0|0,1:2|0:2,0:2:0:0:
69,251,211846,5,0,3:2:0:0:
310,2,212037,1,2,1:2:0:0:
310,2,212132,1,2,1:2:0:0:
310,2,212228,6,0,P|282:85|258:187,1,135.000001573563,4|0,0:1|0:2,0:2:0:0:
469,365,212609,2,0,P|451:299|422:147,1,202.500002360344,4|0,0:3|0:2,0:2:0:0:
411,82,212990,2,0,P|464:85|508:156,1,135.000001573563,0|0,1:2|0:2,0:2:0:0:
487,231,213562,5,2,0:3:0:0:
487,231,213657,1,2,0:3:0:0:
487,231,213753,1,2,0:3:0:0:
345,168,213943,6,0,L|357:120,1,33.7500003933907,4|0,0:3|0:2,0:2:0:0:
170,53,214134,2,0,P|180:113|194:205,1,135.000001573563,4|0,0:3|0:2,0:2:0:0:
107,354,214515,2,0,P|42:351|16:293,1,135.000001573563,0|0,1:2|0:2,0:2:0:0:
26,284,215087,1,2,0:2:0:0:
345,168,215278,6,0,B|332:192|332:192|219:200|66:291,1,270.000003147125,4|0,0:3|0:2,0:2:0:0:
0,178,215849,2,0,P|41:188|66:202,1,67.5000007867814,4|0,0:3|0:2,0:2:0:0:
245,316,216040,2,0,P|229:269|195:116,1,202.500002360344,0|0,1:2|0:2,0:2:0:0:
233,50,216803,5,2,0:2:0:0:
100,108,216993,2,0,P|110:125|121:149,1,33.7500003933907,4|0,0:3|0:2,0:2:0:0:
340,0,217184,2,0,P|318:72|301:218,1,202.500002360344,4|0,0:3|0:2,0:2:0:0:
366,251,217565,5,0,1:2:0:0:
366,251,217946,1,2,0:3:0:0:
426,202,218137,1,2,0:2:0:0:
512,352,218327,6,0,L|443:328,1,67.5000007867814,4|0,0:3|0:2,0:2:0:0:
448,329,218709,2,0,L|240:357,1,202.500002360344,4|0,0:3|0:2,0:2:0:0:
196,292,219090,5,0,1:2:0:0:
365,251,219281,2,0,L|349:329,1,67.5000007867814,4|0,0:3|0:2,0:2:0:0:
163,369,219471,2,0,P|120:335|127:247,1,135.000001573563,4|2,0:3|0:3,0:2:0:0:
0,18,220043,5,0,1:2:0:0:
0,18,220138,1,0,1:2:0:0:
0,18,220234,2,0,P|82:97|196:72,1,202.500002360344,4|0,0:3|0:2,0:2:0:0:
254,100,220615,2,0,P|240:59|234:31,1,67.5000007867814,0|0,1:2|0:2,0:2:0:0:
158,12,220996,5,2,0:2:0:0:
323,31,221187,1,2,1:2:0:0:
323,31,221282,1,2,1:2:0:0:
323,31,221377,6,0,P|326:53|339:80,1,33.7500003933907,4|0,0:3|0:2,0:2:0:0:
510,74,221568,2,0,P|491:147|475:231,1,135.000001573563,4|0,0:3|0:2,0:2:0:0:
326,384,221949,2,0,P|321:348|308:308,1,67.5000007867814,4|0,0:3|0:2,0:2:0:0:
245,242,222140,6,0,B|357:230|307:329|440:303,1,202.500002360344,0|0,1:2|0:2,0:2:0:0:
427,294,222902,1,2,0:2:0:0:
400,188,223093,2,0,L|391:228,1,33.7500003933907,4|0,0:3|0:2,0:2:0:0:
219,322,223284,6,0,P|160:269|173:204,1,135.000001573563,4|0,0:3|0:2,0:2:0:0:
290,62,223665,2,0,P|273:139|210:160,1,135.000001573563,4|0,0:3|0:2,0:2:0:0:
30,131,224046,2,0,P|105:106|155:150,1,135.000001573563,4|0,0:3|3:2,0:2:0:0:
