osu file format v14

[General]
AudioFilename: audio.mp3
AudioLeadIn: 0
PreviewTime: 42082
Countdown: 1
SampleSet: Normal
StackLeniency: 0.7
Mode: 0
LetterboxInBreaks: 0
WidescreenStoryboard: 0

[Editor]
Bookmarks: 64123,66572,69014,83715,88001,88613,92899,94123
DistanceSpacing: 1.3
BeatDivisor: 3
GridSize: 32
TimelineZoom: 2.1

[Metadata]
Title:Myself
TitleUnicode:Myself
Artist:Bazzi
ArtistUnicode:Bazzi
Creator:greevy
Version:Insane
Source:
Tags:
BeatmapID:1860229
BeatmapSetID:889884

[Difficulty]
HPDrainRate:4.5
CircleSize:4
OverallDifficulty:5
ApproachRate:9.1
SliderMultiplier:1
SliderTickRate:1

[Events]
//Background and Video events
0,0,"boi.jpg",0,0
//Break Periods
//Storyboard Layer 0 (Background)
//Storyboard Layer 1 (Fail)
//Storyboard Layer 2 (Pass)
//Storyboard Layer 3 (Foreground)
//Storyboard Layer 4 (Overlay)
//Storyboard Sound Samples

[TimingPoints]
144,-100,4,1,0,65,0,0
151,306.125572709926,4,1,0,65,1,0
2592,-100,4,3,0,65,0,0
3861,-100,4,1,0,65,0,0
5348,-100,4,3,0,65,0,0
7075,-100,4,3,0,65,0,0
12695,-100,4,1,0,65,0,0
16368,-33.3333333333333,4,1,0,65,0,0
17592,-66.6666666666667,4,1,0,65,0,0
21878,-66.6666666666667,4,1,0,65,0,0
83708,-66.6666666666667,4,1,0,65,0,1
86463,-50,4,1,0,65,0,1
87789,-50,4,1,0,65,0,0
88001,-50,4,1,0,65,0,1
88103,-50,4,1,0,65,0,0
88307,-50,4,1,0,65,0,1
88409,-50,4,1,0,65,0,0
88919,-50,4,1,0,65,0,1
89225,-66.6666666666667,4,1,0,65,0,1
90034,-50,4,1,0,65,0,1
91156,-50,4,1,0,65,0,1
91870,-50,4,1,0,65,0,1
92380,-50,4,1,0,65,0,1
92797,-50,4,1,0,65,0,0
92899,-50,4,1,0,65,0,1
93001,-50,4,1,0,65,0,0
93205,-50,4,1,0,65,0,1
93511,-50,4,1,0,65,0,0
93817,-50,4,1,0,65,0,1
99939,-50,4,1,0,65,0,0
100246,-50,4,1,0,65,0,1
100348,-50,4,1,0,65,0,0
100552,-50,4,1,0,65,0,1
100654,-50,4,1,0,65,0,0
103307,-50,4,1,0,65,0,0
105450,-50,4,1,0,65,0,0

[HitObjects]
175,256,151,5,4,0:0:0:0:
175,256,763,1,4,0:0:0:0:
279,148,1375,5,4,0:0:0:0:
279,148,1987,1,4,0:0:0:0:
416,256,2600,1,0,0:0:0:0:
382,272,2676,1,0,0:0:0:0:
347,287,2753,1,0,0:0:0:0:
311,298,2829,1,0,0:0:0:0:
276,312,2906,6,0,L|224:256,1,75.0000028610231
146,176,3212,1,0,0:0:0:0:
146,176,3518,1,0,0:0:0:0:
256,64,3824,2,0,B|279:89|279:89|279:156,1,100
278,304,4436,1,0,0:0:0:0:
128,299,4742,2,0,B|140:254|140:254|189:227,1,100
325,174,5355,5,0,0:0:0:0:
494,163,5661,1,0,0:0:0:0:
418,315,5967,1,0,0:0:0:0:
325,174,6273,1,0,0:0:0:0:
261,331,6579,1,0,0:0:0:0:
388,219,6885,1,0,0:0:0:0:
340,382,7191,1,0,0:0:0:0:
264,228,7498,1,0,0:0:0:0:
391,123,7804,5,0,0:0:0:0:
298,313,8110,1,0,0:0:0:0:
436,255,8416,1,0,0:0:0:0:
303,185,8722,6,0,B|285:149|285:149|217:128,1,100
81,97,9334,5,0,0:0:0:0:
5,226,9640,2,0,B|76:281|76:281|193:282,1,200
336,283,10559,1,0,0:0:0:0:
231,175,10865,1,0,0:0:0:0:
336,283,11171,1,0,0:0:0:0:
186,281,11477,1,0,0:0:0:0:
314,203,11783,1,0,0:0:0:0:
262,343,12089,1,0,0:0:0:0:
196,207,12396,1,0,0:0:0:0:
262,343,12702,6,0,P|218:316|190:260,1,100
320,32,13314,2,0,P|336:81|320:133,1,100
256,192,13926,1,0,0:0:0:0:
160,352,14232,6,0,P|152:297|178:250,1,100
256,192,14845,1,0,0:0:0:0:
384,192,15151,1,0,0:0:0:0:
480,256,15457,2,0,P|488:313|470:357,1,100
338,287,16069,1,0,0:0:0:0:
448,160,16375,1,0,0:0:0:0:
338,287,16681,1,0,0:0:0:0:
288,128,16987,1,0,0:0:0:0:
288,128,17294,1,0,0:0:0:0:
384,192,17600,6,0,B|355:235|355:235|254:254,1,150.000005722046
160,288,18212,2,0,L|169:203,1,75.0000028610231
256,96,18518,2,0,L|245:181,1,75.0000028610231
320,256,18824,2,0,B|341:293|341:293|456:346,1,150.000005722046
512,384,19436,5,0,0:0:0:0:
480,224,19743,1,0,0:0:0:0:
320,96,20049,1,0,0:0:0:0:
384,256,20355,1,0,0:0:0:0:
224,256,20661,1,0,0:0:0:0:
320,96,20967,1,0,0:0:0:0:
320,320,21273,1,0,0:0:0:0:
256,160,21579,1,0,0:0:0:0:
384,160,21885,1,0,0:0:0:0:
320,256,22192,1,0,0:0:0:0:
320,64,22498,1,0,0:0:0:0:
320,160,22804,1,0,0:0:0:0:
320,384,23110,6,0,B|259:386|259:386|183:299,1,150.000005722046
82,127,23722,1,0,0:0:0:0:
306,107,24028,1,0,0:0:0:0:
406,158,24181,1,0,0:0:0:0:
382,267,24334,1,0,0:0:0:0:
270,281,24487,1,0,0:0:0:0:
221,178,24641,1,0,0:0:0:0:
399,41,24947,5,0,0:0:0:0:
382,267,25253,1,0,0:0:0:0:
196,140,25559,1,0,0:0:0:0:
414,191,25865,2,0,P|383:126|303:100,1,150.000005722046
91,133,26477,1,0,0:0:0:0:
301,212,26783,1,0,0:0:0:0:
301,212,27090,1,0,0:0:0:0:
200,327,27396,6,0,P|150:325|60:254,2,150.000005722046
267,242,28314,2,0,P|287:268|298:315,1,75.0000028610231
202,326,28620,1,0,0:0:0:0:
137,110,28926,1,0,0:0:0:0:
355,164,29232,1,0,0:0:0:0:
202,326,29539,1,0,0:0:0:0:
112,119,29845,6,0,P|94:157|127:264,1,150.000005722046
321,357,30457,1,0,0:0:0:0:
392,143,30763,2,0,P|334:129|255:172,1,150.000005722046
100,330,31375,1,0,0:0:0:0:
72,221,31528,1,0,0:0:0:0:
154,144,31681,1,0,0:0:0:0:
247,206,31834,1,0,0:0:0:0:
226,317,31988,1,0,0:0:0:0:
61,163,32294,5,0,0:0:0:0:
226,317,32600,1,0,0:0:0:0:
268,96,32906,1,0,0:0:0:0:
153,289,33212,1,0,0:0:0:0:
331,151,33518,1,0,0:0:0:0:
416,358,33824,2,0,B|360:349|360:349|273:283,1,150.000005722046
118,141,34437,1,0,0:0:0:0:
337,191,34743,6,0,B|284:188|284:188|208:256,1,150.000005722046
96,352,35355,1,0,0:0:0:0:
320,320,35661,1,0,0:0:0:0:
192,160,35967,1,0,0:0:0:0:
96,352,36273,1,0,0:0:0:0:
128,256,36579,2,0,P|181:299|183:383,1,150.000005722046
75,179,37192,2,0,P|147:165|193:108,1,150.000005722046
90,67,37804,1,0,0:0:0:0:
207,258,38110,1,0,0:0:0:0:
341,77,38416,1,0,0:0:0:0:
151,197,38722,6,0,P|129:278|172:335,1,150.000005722046
385,363,39335,1,0,0:0:0:0:
308,151,39641,1,0,0:0:0:0:
162,329,39947,1,0,0:0:0:0:
353,211,40253,5,0,0:0:0:0:
208,383,40559,1,0,0:0:0:0:
280,170,40865,1,0,0:0:0:0:
411,352,41171,2,0,B|357:348|357:348|265:293,1,150.000005722046
80,184,41784,1,0,0:0:0:0:
273,69,42090,6,0,P|241:60|193:78,1,75.0000028610231
184,35,42396,2,0,P|189:109|234:178,1,150.000005722046
387,159,43008,2,0,P|346:192|345:285,1,150.000005722046
480,308,43620,2,0,P|423:278|332:280,1,150.000005722046
119,328,44233,5,0,0:0:0:0:
341,357,44539,1,0,0:0:0:0:
266,144,44845,1,0,0:0:0:0:
234,366,45151,1,0,0:0:0:0:
339,167,45457,1,0,0:0:0:0:
171,317,45763,1,0,0:0:0:0:
391,274,46069,2,0,B|332:299|332:299|233:272,1,150.000005722046
30,220,46682,1,0,0:0:0:0:
237,132,46988,6,0,B|186:145|186:145|132:233,1,150.000005722046
64,352,47600,1,0,0:0:0:0:
256,256,47906,1,0,0:0:0:0:
64,128,48212,1,0,0:0:0:0:
186,316,48518,2,0,B|151:269|151:269|148:174,1,150.000005722046
224,32,49131,5,0,0:0:0:0:
281,249,49437,1,0,0:0:0:0:
65,183,49743,1,0,0:0:0:0:
289,167,50049,1,0,0:0:0:0:
84,259,50355,1,0,0:0:0:0:
243,100,50661,1,0,0:0:0:0:
146,303,50967,2,0,B|195:342|195:342|299:333,1,150.000005722046
507,320,51580,1,0,0:0:0:0:
55,197,51886,6,0,B|99:171|99:171|207:193,1,150.000005722046
407,267,52498,1,0,0:0:0:0:
195,190,52804,1,0,0:0:0:0:
311,382,53110,1,0,0:0:0:0:
227,291,53416,6,0,P|241:281|246:198,1,75.0000028610231
229,275,53722,6,0,P|185:212|221:143,1,150.000005722046
303,85,54182,1,0,0:0:0:0:
350,186,54335,1,0,0:0:0:0:
288,279,54488,1,0,0:0:0:0:
350,186,54641,5,0,0:0:0:0:
303,85,54794,1,0,0:0:0:0:
190,90,54947,1,0,0:0:0:0:
141,191,55100,1,0,0:0:0:0:
197,288,55253,1,0,0:0:0:0:
421,271,55406,1,0,0:0:0:0:
310,289,55559,1,0,0:0:0:0:
240,200,55712,1,0,0:0:0:0:
352,207,55865,6,0,P|361:155|349:110,1,75.0000028610231
305,90,56171,2,0,B|266:69|266:69|156:99,1,150.000005722046
59,139,56631,1,0,0:0:0:0:
164,179,56784,2,0,P|140:211|142:259,1,75.0000028610231
215,326,57090,1,0,0:0:0:0:
306,260,57243,2,0,P|259:227|230:230,1,75.0000028610231
50,342,57702,1,0,0:0:0:0:
243,226,58008,1,0,0:0:0:0:
423,359,58314,1,0,0:0:0:0:
254,342,58620,6,0,B|203:329|203:329|123:253,1,150.000005722046
205,48,59233,1,0,0:0:0:0:
132,261,59539,1,0,0:0:0:0:
362,226,59845,1,0,0:0:0:0:
132,261,60151,1,0,0:0:0:0:
0,81,60457,1,0,0:0:0:0:
268,114,60763,6,0,B|262:90|253:82|253:82|155:66|106:128|70:170|70:170|188:231|332:172|332:172|337:237|298:368|141:353|141:353|134:313|177:275,1,900.000034332277
250,210,62753,1,0,0:0:0:0:
351,162,62906,2,0,P|405:177|421:203,1,75.0000028610231
377,295,63212,2,0,P|349:346|309:354,1,75.0000028610231
223,343,63518,1,0,0:0:0:0:
199,187,63825,5,0,0:0:0:0:
309,155,64131,2,0,P|293:52|247:13,2,150.000005722046
210,357,65049,1,0,0:0:0:0:
50,197,65355,1,0,0:0:0:0:
210,357,65661,1,0,0:0:0:0:
364,193,65967,6,0,P|286:191|232:117,2,150.000005722046
345,66,66886,1,0,0:0:0:0:
262,275,67192,1,0,0:0:0:0:
486,260,67498,1,0,0:0:0:0:
301,131,67804,1,0,0:0:0:0:
370,345,68110,1,0,0:0:0:0:
485,151,68417,1,0,0:0:0:0:
370,345,68723,6,0,P|347:341|303:287,1,75.0000028610231
267,202,69029,2,0,B|227:215|217:268,1,75.0000028610231
192,365,69335,1,0,0:0:0:0:
372,231,69641,1,0,0:0:0:0:
156,166,69947,1,0,0:0:0:0:
279,354,70253,1,0,0:0:0:0:
307,130,70559,2,0,B|285:92|285:92|165:63,1,150.000005722046
34,238,71172,5,0,0:0:0:0:
249,174,71478,2,0,P|271:236|213:321,1,150.000005722046
20,374,72090,1,0,0:0:0:0:
199,238,72396,1,0,0:0:0:0:
391,354,72702,1,0,0:0:0:0:
166,338,73008,2,0,B|106:331|106:331|56:236,1,150.000005722046
24,29,73621,6,0,B|86:41|86:41|117:144,1,150.000005722046
198,331,74233,1,0,0:0:0:0:
369,185,74539,2,0,P|328:159|210:183,1,150.000005722046
69,324,75151,1,0,0:0:0:0:
286,267,75457,1,0,0:0:0:0:
448,110,75764,6,0,B|397:118|397:118|351:101|351:101|281:108,1,150.000005722046
78,134,76376,2,0,B|175:168|175:168|199:208,1,150.000005722046
419,256,76988,2,0,B|393:300|393:300|270:336,1,150.000005722046
78,374,77600,1,0,0:0:0:0:
298,327,77906,2,0,B|294:186|294:186|327:129|327:129|321:24,1,300.000011444092
67,66,78825,5,0,0:0:0:0:
209,277,79131,1,0,0:0:0:0:
406,115,79437,2,0,P|363:79|261:69,1,150.000005722046
27,136,80049,1,0,0:0:0:0:
105,378,80355,2,0,B|149:372|149:372|228:288,1,150.000005722046
382,96,80968,1,0,0:0:0:0:
139,173,81274,5,0,0:0:0:0:
344,323,81580,1,0,0:0:0:0:
250,85,81886,1,0,0:0:0:0:
175,328,82192,1,0,0:0:0:0:
400,209,82498,1,0,0:0:0:0:
155,137,82804,2,0,B|102:144|102:144|40:228,1,150.000005722046
268,345,83417,1,0,0:0:0:0:
501,227,83723,6,0,B|454:184|454:184|360:165,1,150.000005722046
115,147,84335,1,0,0:0:0:0:
254,360,84641,1,0,0:0:0:0:
391,145,84947,1,0,0:0:0:0:
254,360,85253,1,0,0:0:0:0:
242,104,85560,5,0,0:0:0:0:
407,298,85866,1,0,0:0:0:0:
158,239,86172,1,0,0:0:0:0:
487,324,86478,2,0,B|472:252|472:252|343:182,1,200
36,90,87090,2,0,B|13:112|13:112|16:203,1,100
27,349,87396,1,0,0:0:0:0:
204,165,87626,2,0,B|256:209|256:209|318:222,1,100
384,64,88009,5,0,0:0:0:0:
128,288,88315,1,0,0:0:0:0:
467,286,88621,1,0,0:0:0:0:
187,91,88927,1,0,0:0:0:0:
428,172,89233,2,0,B|377:198|377:198|364:298,2,150.000005722046
448,96,90075,1,0,0:0:0:0:
448,96,90151,2,0,P|407:60|350:51,1,100
192,54,90458,5,0,0:0:0:0:
32,160,90764,5,0,0:0:0:0:
67,202,90866,1,0,0:0:0:0:
120,211,90968,1,0,0:0:0:0:
171,190,91070,1,0,0:0:0:0:
196,140,91172,1,0,0:0:0:0:
134,160,91274,5,0,0:0:0:0:
138,224,91376,1,0,0:0:0:0:
192,260,91478,1,0,0:0:0:0:
256,254,91580,5,0,0:0:0:0:
320,240,91682,1,0,0:0:0:0:
355,294,91784,1,0,0:0:0:0:
333,355,91886,1,0,0:0:0:0:
268,367,91988,5,0,0:0:0:0:
224,318,92090,1,0,0:0:0:0:
229,253,92192,1,0,0:0:0:0:
265,174,92294,1,0,0:0:0:0:
347,146,92396,1,0,0:0:0:0:
430,169,92498,1,0,0:0:0:0:
430,169,92600,2,0,B|465:206|465:206|477:295,1,133.333333333333
288,288,92907,6,0,B|320:324|320:324|388:338,1,100
352,192,93213,2,0,B|323:152|323:152|261:124,1,100
184,106,93519,1,0,0:0:0:0:
251,217,93672,1,0,0:0:0:0:
357,142,93825,1,0,0:0:0:0:
285,33,93978,1,0,0:0:0:0:
178,107,94131,6,0,L|179:223,1,100
267,302,94437,2,0,P|329:278|352:245,1,100
428,70,94743,5,0,0:0:0:0:
428,70,94896,1,0,0:0:0:0:
228,59,95049,2,0,P|266:61|320:111,1,100
426,264,95356,5,0,0:0:0:0:
33,339,95662,1,0,0:0:0:0:
151,150,95968,2,0,P|171:132|201:125,1,50
343,155,96274,2,0,P|402:86|401:-33,2,200
295,76,97192,2,0,B|244:43|244:43|103:75,1,200
224,160,97805,5,0,0:0:0:0:
128,256,98111,1,0,0:0:0:0:
224,352,98417,1,0,0:0:0:0:
320,256,98723,1,0,0:0:0:0:
160,64,99029,2,0,B|193:78|193:78|216:255,1,200
224,384,99641,1,0,0:0:0:0:
64,256,99947,1,0,0:0:0:0:
448,64,100254,5,0,0:0:0:0:
64,352,100560,1,0,0:0:0:0:
255,152,103315,5,0,0:0:0:0:
301,325,103621,1,0,0:0:0:0:
426,195,103927,1,0,0:0:0:0:
301,325,104233,1,0,0:0:0:0:
192,128,104539,6,0,B|211:123|211:123|163:47|68:82|62:128|47:145|47:145|78:163|65:262|190:163|209:302|209:302|143:377|74:302,1,600
