osu file format v14

[General]
AudioFilename: audio.mp3
AudioLeadIn: 0
PreviewTime: 34320
Countdown: 0
SampleSet: Soft
StackLeniency: 0.4
Mode: 0
LetterboxInBreaks: 0
WidescreenStoryboard: 1

[Editor]
DistanceSpacing: 1.2
BeatDivisor: 4
GridSize: 32
TimelineZoom: 1

[Metadata]
Title:Mine
TitleUnicode:Mine
Artist:Bazzi
ArtistUnicode:Bazzi
Creator:toybot
Version::aerils_hard:
Source:
Tags:andrew cosmic fursum aeril schoolboy komore
BeatmapID:1731878
BeatmapSetID:826369

[Difficulty]
HPDrainRate:4
CircleSize:5
OverallDifficulty:6
ApproachRate:7
SliderMultiplier:1.2
SliderTickRate:1

[Events]
//Background and Video events
0,0,"anime wallpaper.jpg",0,0
//Break Periods
2,14564,16821
2,21277,23534
2,27990,30247
2,64913,67170
2,78340,80597
2,85053,87310
2,98480,100737
//Storyboard Layer 0 (Background)
//Storyboard Layer 1 (Fail)
//Storyboard Layer 2 (Pass)
//Storyboard Layer 3 (Foreground)
//Storyboard Sound Samples

[TimingPoints]
938,419.58041958042,4,2,1,5,1,0
938,-125,4,2,1,5,0,0
13315,-125,4,2,1,15,0,0
13525,-125,4,2,1,25,0,0
13735,-125,4,2,1,35,0,0
13944,-125,4,2,1,45,0,0
14154,-125,4,2,1,55,0,0
14364,-125,4,2,1,5,0,0
17721,-125,4,2,1,50,0,0
20658,-100,4,2,1,50,0,0
21077,-100,4,2,1,5,0,0
24434,-125,4,2,1,50,0,0
27371,-100,4,2,1,50,0,0
27791,-100,4,2,1,5,0,0
31147,-125,4,2,1,50,0,0
34084,-100,4,2,1,50,0,0
34504,-100,4,2,1,5,0,0
36182,-200,4,2,1,25,0,0
36392,-200,4,2,2,30,0,0
36602,-200,4,2,1,35,0,0
36812,-200,4,2,2,40,0,0
37021,-200,4,2,1,45,0,0
37231,-200,4,2,2,50,0,0
37441,-200,4,2,1,60,0,0
37651,-200,4,2,2,70,0,0
37756,-200,4,2,1,5,0,0
37861,-83.3333333333333,4,2,1,70,0,1
40798,-100,4,2,1,70,0,1
41112,-100,4,2,1,5,0,1
41217,-83.3333333333333,4,2,1,70,0,1
42056,-100,4,2,1,70,0,1
44574,-83.3333333333333,4,2,1,70,0,1
47511,-100,4,2,1,70,0,1
47826,-100,4,2,1,5,0,1
47931,-83.3333333333333,4,2,1,70,0,1
48770,-100,4,2,1,70,0,1
51287,-83.3333333333333,4,2,1,70,0,1
52126,-71.4285714285714,4,2,1,70,0,1
52965,-83.3333333333333,4,2,1,70,0,1
58000,-83.3333333333333,4,2,1,30,0,0
58420,-83.3333333333333,4,2,1,40,0,0
58840,-83.3333333333333,4,2,1,70,0,1
60938,-100,4,2,1,70,0,1
61252,-100,4,2,1,5,0,1
61357,-83.3333333333333,4,2,1,70,0,1
63455,-100,4,2,1,70,0,1
63875,-125,4,2,1,70,0,1
64294,-166.666666666667,4,2,1,70,0,1
64714,-166.666666666667,4,2,1,5,0,0
68070,-125,4,2,1,50,0,0
71007,-100,4,2,1,50,0,0
71322,-100,4,2,1,5,0,0
71427,-125,4,2,1,40,0,0
74784,-125,4,2,1,50,0,0
77721,-100,4,2,1,50,0,0
78140,-100,4,2,1,5,0,0
81497,-125,4,2,1,50,0,0
84434,-100,4,2,1,50,0,0
84854,-100,4,2,1,5,0,0
88210,-100,4,2,1,50,0,0
97861,-125,4,2,1,50,0,0
98280,-125,4,2,1,5,0,0
101637,-83.3333333333333,4,2,1,70,0,1
104574,-100,4,2,1,70,0,1
104889,-100,4,2,1,5,0,1
104993,-83.3333333333333,4,2,1,70,0,1
105833,-100,4,2,1,70,0,1
108350,-83.3333333333333,4,2,1,70,0,1
111287,-100,4,2,1,70,0,1
111602,-100,4,2,1,5,0,1
111707,-83.3333333333333,4,2,1,70,0,1
112546,-100,4,2,1,70,0,1
115063,-83.3333333333333,4,2,1,70,0,1
115903,-71.4285714285714,4,2,1,70,0,1
116742,-83.3333333333333,4,2,1,70,0,1
121777,-83.3333333333333,4,2,1,30,0,0
121986,-83.3333333333333,4,2,1,35,0,0
122196,-83.3333333333333,4,2,1,40,0,0
122616,-83.3333333333333,4,2,1,70,0,1
124714,-100,4,2,1,70,0,1
125028,-100,4,2,1,5,0,1
125133,-83.3333333333333,4,2,1,70,0,1
127231,-100,4,2,1,70,0,1
127651,-125,4,2,1,70,0,1
128070,-166.666666666667,4,2,1,70,0,1
128490,-166.666666666667,4,2,1,5,0,0

[Colours]
Combo1 : 255,123,123
Combo2 : 0,128,192
Combo3 : 255,128,192
Combo4 : 255,148,96

[HitObjects]
256,192,12686,12,0,14364,0:0:0:0:
368,134,17721,6,0,P|377:91|365:28,2,96,4|8|8,1:0|3:0|0:0,0:0:0:0:
465,226,18979,1,4,0:3:0:0:
403,199,19189,2,0,P|351:202|307:222,1,96,0|0,0:0|0:0,0:0:0:0:
311,219,19819,1,0,1:0:0:0:
204,300,20238,2,0,P|200:332|207:358,1,48,8|4,0:0|0:3,0:0:0:0:
137,378,20658,6,0,P|121:325|134:251,1,120,4|0,0:0|0:1,0:0:0:0:
144,134,24434,6,0,P|135:91|147:28,2,96,4|0|8,1:0|0:0|0:0,0:0:0:0:
92,258,25693,1,4,0:3:0:0:
117,195,25903,2,0,P|126:152|114:89,1,96,0|0,0:0|0:0,0:0:0:0:
54,81,26532,2,0,P|80:89|108:88,1,48,0|0,1:0|0:0,0:0:0:0:
189,48,26951,2,0,P|202:80|202:109,1,48,8|0,0:0|1:0,0:0:0:0:
245,151,27371,6,0,P|232:209|254:276,1,120,4|0,0:0|0:0,0:0:0:0:
302,300,31147,6,0,P|256:288|210:300,1,96,4|8,1:0|0:3,0:0:0:0:
144,314,31777,1,0,0:0:0:0:
144,314,31986,2,0,P|169:321|198:317,1,48,8|0,0:0|0:0,0:0:0:0:
292,365,32406,1,4,0:3:0:0:
320,304,32616,2,0,P|365:315|411:303,1,96,0|0,0:0|0:0,0:0:0:0:
411,303,33245,1,0,1:0:0:0:
340,189,33665,2,0,P|306:175|276:182,1,48,8|0,0:0|1:0,0:0:0:0:
224,185,34084,6,0,P|277:215|346:201,1,120,4|0,0:0|0:0,0:0:0:0:
9,246,36182,6,2,B|61:284|97:250|98:250|100:250|136:237|171:247|191:288|169:328,1,225,0|0,0:0|0:0,0:0:0:0:
160,338,37861,5,6,1:0:0:0:
245,187,38280,1,0,0:0:0:0:
93,105,38700,2,0,L|250:123,1,143.999995605469,10|2,0:0|0:1,0:0:0:0:
236,121,39329,5,0,1:0:0:0:
405,86,39749,1,0,1:0:0:0:
405,86,39958,1,2,1:0:0:0:
213,31,40378,2,0,L|219:104,1,71.9999978027344,10|0,0:0|0:0,0:0:0:0:
288,157,40798,2,0,P|272:192|290:262,1,90,4|0,0:0|0:0,0:0:0:0:
271,264,41217,6,0,P|323:260|405:310,1,143.999995605469,0|2,1:0|0:0,0:0:0:0:
444,379,41847,1,0,0:0:0:0:
505,270,42056,2,0,P|446:267|395:314,1,120,8|2,0:0|0:0,0:0:0:0:
400,303,42686,1,0,1:0:0:0:
444,246,42896,5,0,0:0:0:0:
449,174,43105,1,0,1:0:0:0:
411,112,43315,1,2,1:2:0:0:
429,182,43524,1,0,0:0:0:0:
462,63,43735,2,0,L|329:79,1,120,8|2,0:0|0:0,0:0:0:0:
103,39,44574,6,0,P|124:85|90:173,1,143.999995605469,4|0,1:0|0:0,0:0:0:0:
94,169,45203,1,0,0:0:0:0:
12,198,45413,1,10,0:0:0:0:
143,309,45833,2,0,P|186:312|227:298,1,71.9999978027344,2|0,0:1|1:0,0:0:0:0:
266,236,46252,2,0,L|251:387,2,143.999995605469,2|2|10,0:0|1:0|0:0,0:0:0:0:
266,236,47301,1,0,0:0:0:0:
352,167,47511,2,0,P|306:172|258:143,1,90,4|0,0:0|0:0,0:0:0:0:
247,162,47931,6,0,P|209:143|92:156,1,143.999995605469,0|2,1:0|0:0,0:0:0:0:
39,197,48560,1,0,0:0:0:0:
10,77,48770,2,0,P|56:59|133:75,1,120,8|2,0:0|0:0,0:0:0:0:
124,70,49399,1,0,1:0:0:0:
180,24,49609,5,0,0:0:0:0:
251,20,49819,1,0,1:0:0:0:
284,83,50028,1,2,1:2:0:0:
354,93,50238,1,0,0:0:0:0:
459,34,50448,2,0,B|437:83|437:83|458:156,1,120,8|0,0:0|0:0,0:0:0:0:
371,342,51287,6,0,P|418:305|509:323,1,143.999995605469,4|2,1:0|0:0,0:0:0:0:
497,314,52126,2,0,P|426:313|319:251,1,167.999994873047,12|2,0:0|0:0,0:0:0:0:
339,271,52756,1,0,1:0:0:0:
259,237,52965,2,0,P|213:235|179:254,1,71.9999978027344,2|0,0:1|1:0,0:0:0:0:
169,329,53385,2,0,P|193:290|194:251,1,71.9999978027344,2|0,1:0|0:0,0:0:0:0:
153,135,53805,2,0,P|155:245|188:265,1,143.999995605469,10|0,0:0|0:0,0:0:0:0:
172,258,54644,6,0,L|9:276,1,143.999995605469,0|2,1:0|0:0,0:0:0:0:
131,134,55483,2,0,L|294:152,1,143.999995605469,8|2,0:0|0:0,0:0:0:0:
342,96,56112,1,0,1:0:0:0:
289,165,56322,2,0,P|278:214|290:246,1,71.9999978027344,2|0,0:1|1:0,0:0:0:0:
356,280,56742,2,0,P|367:231|355:199,1,71.9999978027344,2|0,1:0|0:0,0:0:0:0:
287,310,57161,2,0,P|366:311|428:352,1,143.999995605469,10|4,0:0|0:0,0:0:0:0:
481,53,58840,6,0,L|405:66,1,71.9999978027344,4|0,1:0|0:0,0:0:0:0:
342,119,59259,2,0,L|266:106,2,71.9999978027344,2|0|2,0:1|1:0|0:2,0:0:0:0:
378,198,59889,1,0,1:0:0:0:
378,198,60098,1,2,1:0:0:0:
171,155,60518,2,0,P|182:119|178:77,1,71.9999978027344,10|0,1:2|0:0,0:0:0:0:
151,166,60938,2,0,P|135:212|155:273,1,90,4|0,0:0|0:0,0:0:0:0:
155,269,61357,5,0,1:0:0:0:
69,254,61567,1,0,0:0:0:0:
22,327,61777,1,2,0:0:0:0:
76,272,61986,1,0,0:0:0:0:
179,344,62196,2,0,P|234:358|324:321,1,143.999995605469,8|2,0:0|0:0,0:0:0:0:
314,329,62826,1,0,1:0:0:0:
392,365,63035,6,0,L|400:286,1,71.9999978027344,0|0,0:0|1:0,0:0:0:0:
463,260,63455,2,0,L|455:181,1,60,2|0,1:2|0:0,0:0:0:0:
417,148,63875,2,0,L|423:82,1,48,10|0,0:0|0:0,0:0:0:0:
455,72,64294,6,0,L|447:0,1,71.9999978027344,4|0,0:2|0:0,0:0:0:0:
144,250,68070,6,0,P|135:293|147:356,2,96,2|8|8,1:3|0:3|0:0,0:0:0:0:
205,130,69329,1,4,0:3:0:0:
156,176,69539,2,0,P|111:189|46:182,1,96,0|2,0:0|0:0,0:0:0:0:
62,186,70168,1,0,1:0:0:0:
30,55,70588,2,0,P|22:24|25:-5,1,48,8|2,0:0|0:0,0:0:0:0:
94,21,71007,6,0,P|88:89|70:118,1,90,4|0,0:0|0:0,0:0:0:0:
63,117,71427,6,0,L|174:105,1,96,0|2,1:0|0:0,0:0:0:0:
284,59,72266,2,0,L|271:172,1,96,8|2,0:0|0:0,0:0:0:0:
309,211,72896,1,0,1:0:0:0:
259,335,73315,1,0,1:0:0:0:
259,335,73525,1,0,1:0:0:0:
392,317,73944,2,0,P|398:289|394:250,1,48,8|0,0:0|1:0,0:0:0:0:
388,203,74364,2,0,P|382:175|386:136,1,48,2|0,0:0|1:0,0:0:0:0:
459,89,74784,6,0,P|411:91|353:67,2,96,4|8|8,1:0|0:3|0:0,0:0:0:0:
348,12,76042,1,4,0:3:0:0:
301,60,76252,2,0,P|259:77|194:65,1,96,0|0,0:0|1:0,0:0:0:0:
144,54,76882,2,0,P|179:55|207:68,1,48,10|2,0:0|0:0,0:0:0:0:
226,143,77301,2,0,P|195:149|167:147,1,48,8|0,0:0|1:0,0:0:0:0:
111,124,77721,6,0,P|97:174|121:258,1,120,4|0,0:0|0:0,0:0:0:0:
302,84,81497,6,0,P|256:96|210:84,2,96,4|8|8,1:0|0:3|0:0,0:0:0:0:
426,134,82756,1,4,0:3:0:0:
360,148,82965,2,0,P|337:185|329:254,1,96,0|2,0:0|0:1,0:0:0:0:
347,300,83595,2,0,P|352:269|344:238,1,48,2|2,1:1|0:1,0:0:0:0:
255,271,84014,2,0,P|218:270|196:279,1,48,8|0,0:0|1:0,0:0:0:0:
149,316,84434,6,0,P|161:264|146:195,1,120,4|0,0:0|0:0,0:0:0:0:
152,114,88210,6,0,L|17:130,2,120,0|8|8,1:0|0:3|0:0,0:0:0:0:
277,1,89469,2,0,P|264:40|271:77,1,60,4|0,0:3|0:0,0:0:0:0:
311,114,89889,2,0,P|324:153|317:190,1,60,4|0,0:3|1:0,0:0:0:0:
247,219,90308,2,0,P|294:211|377:251,1,120,0|8,1:0|0:0,0:0:0:0:
360,235,90938,1,0,0:0:0:0:
452,196,91147,1,4,0:0:0:0:
395,330,91567,6,0,P|351:323|318:334,1,60,0|0,1:0|0:0,0:0:0:0:
268,348,91986,2,0,P|297:351|326:343,1,60,8|0,0:3|0:0,0:0:0:0:
235,274,92406,2,0,P|195:271|115:322,1,120,8|4,0:0|0:3,0:0:0:0:
126,307,93035,1,2,0:0:0:0:
65,345,93245,2,0,L|60:274,1,60,4|0,0:3|1:0,0:0:0:0:
108,230,93665,2,0,L|113:159,1,60,0|2,1:0|0:0,0:0:0:0:
27,93,94084,2,0,L|37:235,1,120,8|4,0:0|0:0,0:0:0:0:
35,212,94714,1,0,1:0:0:0:
128,151,94924,6,0,P|194:141|244:167,2,120,4|2|8,1:0|0:3|0:0,0:0:0:0:
244,235,96182,2,0,P|283:245|324:230,1,60,4|0,0:3|1:0,0:0:0:0:
350,187,96602,2,0,P|389:177|430:192,1,60,4|0,0:3|1:0,0:0:0:0:
458,232,97021,2,0,L|453:107,1,120,0|8,1:0|0:0,0:0:0:0:
453,112,97651,1,0,1:0:0:0:
370,49,97861,6,0,P|318:48|276:14,1,96,4|0,0:0|0:0,0:0:0:0:
341,323,101637,5,6,1:0:0:0:
368,152,102056,1,0,0:0:0:0:
214,228,102476,2,0,L|66:241,1,143.999995605469,10|2,0:0|0:1,0:0:0:0:
70,240,103105,5,0,1:0:0:0:
17,75,103525,1,0,1:0:0:0:
17,75,103735,1,2,1:1:0:0:
184,116,104154,2,0,L|257:110,1,71.9999978027344,10|0,0:0|0:0,0:0:0:0:
339,139,104574,2,0,P|396:110|442:122,1,90,4|0,0:0|0:0,0:0:0:0:
440,100,104993,6,0,P|424:152|441:248,1,143.999995605469,0|2,1:0|0:0,0:0:0:0:
475,317,105623,1,0,0:0:0:0:
358,269,105833,2,0,P|355:322|393:393,1,120,8|2,0:0|0:0,0:0:0:0:
382,381,106462,1,0,1:0:0:0:
323,339,106672,5,0,0:0:0:0:
258,306,106882,1,0,1:0:0:0:
174,337,107091,1,2,1:2:0:0:
245,322,107301,1,0,0:0:0:0:
309,217,107511,2,0,B|324:164|324:164|293:84,1,120,8|2,0:0|0:0,0:0:0:0:
94,169,108350,6,0,P|73:123|107:35,1,143.999995605469,4|0,1:0|0:0,0:0:0:0:
103,39,108979,1,0,0:0:0:0:
186,18,109189,1,10,0:0:0:0:
326,120,109609,2,0,P|363:126|410:109,1,71.9999978027344,2|0,0:1|1:0,0:0:0:0:
473,155,110028,2,0,L|458:4,2,143.999995605469,2|2|10,0:0|1:0|0:0,0:0:0:0:
473,155,111077,1,0,0:0:0:0:
404,230,111287,2,0,P|453:230|501:259,1,90,4|0,0:0|0:0,0:0:0:0:
494,270,111707,6,0,P|461:249|351:275,1,143.999995605469,0|2,1:0|0:0,0:0:0:0:
311,334,112336,1,0,0:0:0:0:
263,216,112546,2,0,P|231:251|225:327,1,120,8|2,0:0|0:0,0:0:0:0:
223,320,113175,1,0,1:0:0:0:
165,363,113385,5,0,0:0:0:0:
148,292,113595,1,0,1:0:0:0:
75,294,113805,1,2,1:2:0:0:
92,223,114015,1,0,0:0:0:0:
32,125,114224,2,0,L|173:111,1,120,8|2,0:0|0:0,0:0:0:0:
335,29,115063,6,0,P|382:66|473:48,1,143.999995605469,4|2,1:0|0:0,0:0:0:0:
461,57,115903,2,0,P|381:78|353:184,1,167.999994873047,12|2,0:0|0:0,0:0:0:0:
347,150,116532,1,0,1:0:0:0:
376,231,116742,2,0,P|330:233|296:214,1,71.9999978027344,2|0,0:1|1:0,0:0:0:0:
222,204,117161,2,0,P|243:163|276:143,1,71.9999978027344,2|0,1:0|0:0,0:0:0:0:
302,27,117581,2,0,P|354:119|335:169,1,143.999995605469,10|2,0:0|0:0,0:0:0:0:
186,85,118420,6,0,L|23:103,1,143.999995605469,0|2,1:0|0:0,0:0:0:0:
8,270,119259,2,0,L|171:288,1,143.999995605469,8|2,0:0|0:0,0:0:0:0:
151,285,119889,1,0,1:0:0:0:
235,270,120098,2,0,P|224:319|236:351,1,71.9999978027344,2|0,0:1|1:0,0:0:0:0:
307,300,120518,2,0,P|318:251|306:219,1,71.9999978027344,2|0,1:0|0:0,0:0:0:0:
204,162,120937,2,0,P|283:161|345:120,1,143.999995605469,10|4,0:0|0:0,0:0:0:0:
481,331,122616,6,0,L|405:318,1,71.9999978027344,4|0,1:0|0:0,0:0:0:0:
342,265,123035,2,0,L|266:278,2,71.9999978027344,2|0|2,0:1|0:0|0:0,0:0:0:0:
410,318,123665,1,0,1:0:0:0:
410,318,123875,1,2,1:0:0:0:
499,170,124294,2,0,P|510:134|506:92,1,71.9999978027344,10|0,0:0|0:0,0:0:0:0:
444,38,124714,2,0,P|428:84|448:145,1,90,4|0,0:0|0:0,0:0:0:0:
415,113,125133,5,0,1:0:0:0:
330,130,125343,1,0,0:0:0:0:
243,128,125553,1,2,0:0:0:0:
327,152,125763,1,0,0:0:0:0:
198,61,125972,2,0,P|143:47|53:84,1,143.999995605469,8|2,0:0|0:0,0:0:0:0:
62,75,126602,1,0,1:0:0:0:
25,153,126812,6,0,L|33:232,1,71.9999978027344,0|0,0:0|1:0,0:0:0:0:
99,200,127231,2,0,L|107:279,1,60,4|0,1:2|0:0,0:0:0:0:
169,248,127651,2,0,L|175:314,1,48,8|0,0:0|1:0,0:0:0:0:
199,330,128070,6,0,L|191:258,1,71.9999978027344,4|2,0:0|0:3,0:0:0:0:
