osu file format v14

[General]
AudioFilename: audio.mp3
AudioLeadIn: 0
PreviewTime: 34516
Countdown: 0
SampleSet: Soft
StackLeniency: 0.2
Mode: 3
LetterboxInBreaks: 0
SpecialStyle: 0
WidescreenStoryboard: 0

[Editor]
DistanceSpacing: 1.2
BeatDivisor: 4
GridSize: 32
TimelineZoom: 1

[Metadata]
Title:Mine (cut)
TitleUnicode:Mine (cut)
Artist:Bazzi
ArtistUnicode:Bazzi
Creator:Vulkin
Version:smile (for evening)
Source:
Tags:andrew cosmic pop Or1g1n
BeatmapID:1825084
BeatmapSetID:873132

[Difficulty]
HPDrainRate:8
CircleSize:4
OverallDifficulty:8
ApproachRate:5
SliderMultiplier:1.4
SliderTickRate:1

[Events]
//Background and Video events
0,0,"anime-girl-snow-winter-forest.png",0,0
//Break Periods
//Storyboard Layer 0 (Background)
//Storyboard Layer 1 (Fail)
//Storyboard Layer 2 (Pass)
//Storyboard Layer 3 (Foreground)
//Storyboard Sound Samples

[TimingPoints]
950,419.58041958042,4,2,0,60,1,0
37873,-100,4,2,0,60,0,1
58012,-100,4,2,0,60,0,0
58852,-100,4,2,0,60,0,1
64726,-100,4,2,0,60,0,0

[HitObjects]
448,192,949,5,0,0:0:0:80:
320,192,1229,1,0,0:0:0:80:
64,192,1789,1,0,0:0:0:80:
192,192,2068,1,0,0:0:0:80:
448,192,2628,1,0,0:0:0:80:
320,192,2908,1,0,0:0:0:80:
64,192,3467,1,0,0:0:0:80:
192,192,3747,1,0,0:0:0:80:
448,192,4306,1,0,0:0:0:26:
64,192,4306,1,0,0:0:0:26:
320,192,4306,128,0,7663:0:0:0:26:
64,192,4726,1,0,0:0:0:80:
64,192,5145,1,0,0:0:0:80:
192,192,5355,1,0,0:0:0:80:
448,192,5565,1,0,0:0:0:80:
64,192,5775,1,0,0:0:0:80:
448,192,5984,1,0,0:0:0:80:
64,192,6194,1,0,0:0:0:40:
192,192,6194,1,0,0:0:0:40:
192,192,6404,1,0,0:0:0:80:
64,192,6614,1,0,0:0:0:80:
448,192,6824,1,0,0:0:0:80:
448,192,7243,1,0,0:0:0:80:
192,192,7348,1,0,0:0:0:80:
64,192,7453,1,0,0:0:0:80:
448,192,7663,1,0,0:0:0:80:
320,192,7943,1,0,0:0:0:80:
64,192,8502,1,0,0:0:0:80:
192,192,8782,1,0,0:0:0:80:
448,192,9341,1,0,0:0:0:80:
320,192,9621,1,0,0:0:0:80:
64,192,10180,1,0,0:0:0:80:
192,192,10460,1,0,0:0:0:80:
320,192,11019,128,0,14376:0:0:0:26:
64,192,11019,1,0,0:0:0:26:
448,192,11019,1,0,0:0:0:26:
64,192,11439,1,0,0:0:0:80:
64,192,11859,1,0,0:0:0:80:
192,192,12068,1,0,0:0:0:80:
448,192,12278,1,0,0:0:0:80:
64,192,12488,1,0,0:0:0:80:
448,192,12698,1,0,0:0:0:80:
192,192,12908,1,0,0:0:0:40:
64,192,12908,1,0,0:0:0:40:
192,192,13117,1,0,0:0:0:80:
64,192,13327,1,0,0:0:0:80:
448,192,13537,1,0,0:0:0:80:
192,192,13956,1,0,0:0:0:80:
64,192,14166,1,0,0:0:0:80:
448,192,17313,1,0,0:0:0:80:
320,192,17418,1,0,0:0:0:80:
192,192,17523,1,0,0:0:0:80:
64,192,17628,1,0,0:0:0:80:
448,192,17733,1,0,0:0:0:40:
192,192,17733,1,0,0:0:0:40:
320,192,17943,1,0,0:0:0:80:
64,192,18152,1,0,0:0:0:80:
192,192,18362,1,0,0:0:0:80:
448,192,18572,1,0,0:0:0:26:
64,192,18572,1,0,0:0:0:26:
320,192,18572,1,0,0:0:0:26:
192,192,18782,1,0,0:0:0:80:
448,192,18991,1,0,0:0:0:80:
64,192,19201,1,0,0:0:0:40:
192,192,19201,1,0,0:0:0:40:
448,192,19411,1,0,0:0:0:80:
64,192,19621,1,0,0:0:0:40:
192,192,19621,1,0,0:0:0:40:
64,192,19831,1,0,0:0:0:40:
192,192,19831,1,0,0:0:0:40:
320,192,20040,1,0,0:0:0:80:
320,192,20250,1,0,0:0:0:26:
448,192,20250,1,0,0:0:0:26:
64,192,20250,128,0,21089:0:0:0:26:
192,192,20460,1,0,0:0:0:80:
448,192,20670,1,0,0:0:0:80:
320,192,20880,1,0,0:0:0:80:
448,192,21089,1,0,0:0:0:80:
320,192,21369,1,0,0:0:0:80:
64,192,21929,1,0,0:0:0:80:
192,192,22208,1,0,0:0:0:80:
448,192,22768,1,0,0:0:0:80:
320,192,23047,1,0,0:0:0:80:
64,192,23607,1,0,0:0:0:80:
192,192,23887,1,0,0:0:0:80:
320,192,24446,1,0,0:0:0:40:
64,192,24446,1,0,0:0:0:40:
192,192,24656,1,0,0:0:0:80:
64,192,24866,1,0,0:0:0:80:
320,192,25075,1,0,0:0:0:80:
448,192,25285,1,0,0:0:0:26:
64,192,25285,1,0,0:0:0:26:
192,192,25285,1,0,0:0:0:26:
320,192,25495,1,0,0:0:0:80:
64,192,25705,1,0,0:0:0:80:
320,192,25915,1,0,0:0:0:40:
448,192,25915,1,0,0:0:0:40:
64,192,26124,1,0,0:0:0:80:
320,192,26334,1,0,0:0:0:40:
448,192,26334,1,0,0:0:0:40:
320,192,26544,1,0,0:0:0:26:
448,192,26544,1,0,0:0:0:26:
64,192,26544,1,0,0:0:0:26:
320,192,26754,1,0,0:0:0:80:
64,192,26963,1,0,0:0:0:26:
448,192,26963,1,0,0:0:0:26:
192,192,26963,128,0,27803:0:0:0:26:
320,192,27173,1,0,0:0:0:40:
448,192,27173,1,0,0:0:0:40:
64,192,27383,1,0,0:0:0:80:
320,192,27593,1,0,0:0:0:40:
448,192,27593,1,0,0:0:0:40:
320,192,27803,1,0,0:0:0:80:
192,192,28082,1,0,0:0:0:80:
448,192,28642,1,0,0:0:0:80:
64,192,28922,1,0,0:0:0:80:
192,192,29481,1,0,0:0:0:80:
320,192,29761,1,0,0:0:0:80:
64,192,30320,1,0,0:0:0:80:
448,192,30600,1,0,0:0:0:80:
64,192,31159,1,0,0:0:0:40:
320,192,31159,1,0,0:0:0:40:
192,192,31369,1,0,0:0:0:80:
448,192,31579,1,0,0:0:0:80:
320,192,31789,1,0,0:0:0:40:
64,192,31789,1,0,0:0:0:40:
448,192,31998,1,0,0:0:0:40:
192,192,31998,1,0,0:0:0:40:
320,192,32208,1,0,0:0:0:40:
448,192,32208,1,0,0:0:0:40:
192,192,32418,128,0,32628:0:0:0:40:
64,192,32418,1,0,0:0:0:40:
448,192,32628,128,0,33257:0:0:0:40:
320,192,32628,1,0,0:0:0:40:
64,192,32838,1,0,0:0:0:40:
192,192,32838,1,0,0:0:0:40:
320,192,33047,1,0,0:0:0:80:
64,192,33257,1,0,0:0:0:40:
320,192,33257,1,0,0:0:0:40:
192,192,33467,1,0,0:0:0:80:
64,192,33572,1,0,0:0:0:80:
192,192,33677,128,0,34516:0:0:0:40:
448,192,33677,1,0,0:0:0:40:
320,192,33887,1,0,0:0:0:80:
320,192,34306,1,0,0:0:0:80:
64,192,36194,128,0,37873:0:0:0:80:
448,192,37873,1,0,0:0:0:26:
192,192,37873,1,0,0:0:0:26:
320,192,37873,1,0,0:0:0:26:
320,192,38082,1,0,0:0:0:80:
64,192,38292,1,0,0:0:0:40:
448,192,38292,1,0,0:0:0:40:
192,192,38502,1,0,0:0:0:80:
320,192,38712,1,0,0:0:0:26:
64,192,38712,1,0,0:0:0:26:
448,192,38712,1,0,0:0:0:26:
192,192,38922,1,0,0:0:0:80:
448,192,39131,1,0,0:0:0:80:
320,192,39341,1,0,0:0:0:40:
64,192,39341,1,0,0:0:0:40:
192,192,39551,1,0,0:0:0:80:
320,192,39761,1,0,0:0:0:40:
64,192,39761,1,0,0:0:0:40:
320,192,39970,1,0,0:0:0:40:
64,192,39970,1,0,0:0:0:40:
192,192,40180,1,0,0:0:0:80:
448,192,40390,1,0,0:0:0:26:
192,192,40390,1,0,0:0:0:26:
64,192,40390,1,0,0:0:0:26:
320,192,40600,1,0,0:0:0:40:
64,192,40600,1,0,0:0:0:40:
448,192,40810,1,0,0:0:0:40:
192,192,40810,1,0,0:0:0:40:
320,192,41019,1,0,0:0:0:40:
64,192,41019,1,0,0:0:0:40:
448,192,41229,128,0,41544:0:0:0:26:
320,192,41229,1,0,0:0:0:26:
64,192,41229,1,0,0:0:0:26:
192,192,41439,1,0,0:0:0:80:
448,192,41649,1,0,0:0:0:40:
64,192,41649,1,0,0:0:0:40:
320,192,41859,1,0,0:0:0:40:
192,192,41859,1,0,0:0:0:40:
448,192,42068,128,0,42488:0:0:0:40:
64,192,42068,1,0,0:0:0:40:
192,192,42278,1,0,0:0:0:80:
320,192,42488,1,0,0:0:0:80:
64,192,42698,1,0,0:0:0:40:
192,192,42698,1,0,0:0:0:40:
448,192,42908,1,0,0:0:0:80:
320,192,43012,1,0,0:0:0:80:
192,192,43117,1,0,0:0:0:26:
64,192,43117,1,0,0:0:0:26:
448,192,43117,1,0,0:0:0:26:
64,192,43327,1,0,0:0:0:26:
192,192,43327,1,0,0:0:0:26:
448,192,43327,1,0,0:0:0:26:
448,192,43537,1,0,0:0:0:40:
192,192,43537,1,0,0:0:0:40:
448,192,43747,1,0,0:0:0:40:
320,192,43747,1,0,0:0:0:40:
192,192,43956,1,0,0:0:0:40:
64,192,43956,1,0,0:0:0:40:
320,192,44166,1,0,0:0:0:80:
64,192,44376,1,0,0:0:0:40:
192,192,44376,1,0,0:0:0:40:
448,192,44586,1,0,0:0:0:20:
192,192,44586,1,0,0:0:0:20:
64,192,44586,1,0,0:0:0:20:
320,192,44586,1,0,0:0:0:20:
192,192,44796,1,0,0:0:0:80:
64,192,45005,1,0,0:0:0:40:
448,192,45005,1,0,0:0:0:40:
192,192,45215,1,0,0:0:0:80:
64,192,45425,1,0,0:0:0:26:
320,192,45425,1,0,0:0:0:26:
448,192,45425,1,0,0:0:0:26:
192,192,45635,1,0,0:0:0:80:
64,192,45845,1,0,0:0:0:80:
448,192,46054,1,0,0:0:0:40:
320,192,46054,1,0,0:0:0:40:
192,192,46264,1,0,0:0:0:40:
64,192,46264,1,0,0:0:0:40:
320,192,46474,1,0,0:0:0:40:
448,192,46474,1,0,0:0:0:40:
448,192,46684,1,0,0:0:0:26:
320,192,46684,1,0,0:0:0:26:
64,192,46684,1,0,0:0:0:26:
192,192,46894,1,0,0:0:0:80:
64,192,47103,1,0,0:0:0:26:
448,192,47103,1,0,0:0:0:26:
320,192,47103,1,0,0:0:0:26:
448,192,47313,1,0,0:0:0:40:
320,192,47313,1,0,0:0:0:40:
64,192,47523,1,0,0:0:0:80:
320,192,47733,1,0,0:0:0:40:
448,192,47733,1,0,0:0:0:40:
448,192,47943,1,0,0:0:0:26:
320,192,47943,1,0,0:0:0:26:
192,192,47943,1,0,0:0:0:26:
64,192,48047,1,0,0:0:0:80:
320,192,48152,1,0,0:0:0:80:
192,192,48362,1,0,0:0:0:40:
448,192,48362,1,0,0:0:0:40:
64,192,48572,1,0,0:0:0:80:
192,192,48782,128,0,49096:0:0:0:26:
448,192,48782,1,0,0:0:0:26:
320,192,48782,1,0,0:0:0:26:
64,192,48991,1,0,0:0:0:80:
192,192,49201,1,0,0:0:0:80:
320,192,49411,1,0,0:0:0:40:
64,192,49411,1,0,0:0:0:40:
448,192,49621,1,0,0:0:0:80:
192,192,49726,1,0,0:0:0:80:
320,192,49831,1,0,0:0:0:40:
64,192,49831,1,0,0:0:0:40:
320,192,50040,1,0,0:0:0:40:
64,192,50040,1,0,0:0:0:40:
192,192,50250,1,0,0:0:0:80:
448,192,50460,1,0,0:0:0:80:
320,192,50670,1,0,0:0:0:40:
64,192,50670,1,0,0:0:0:40:
192,192,50880,1,0,0:0:0:80:
448,192,50984,1,0,0:0:0:80:
320,192,51089,1,0,0:0:0:40:
64,192,51089,1,0,0:0:0:40:
448,192,51299,1,0,0:0:0:20:
320,192,51299,1,0,0:0:0:20:
64,192,51299,1,0,0:0:0:20:
192,192,51299,1,0,0:0:0:20:
64,192,51509,1,0,0:0:0:80:
192,192,51719,1,0,0:0:0:40:
448,192,51719,1,0,0:0:0:40:
64,192,51929,1,0,0:0:0:80:
192,192,52138,1,0,0:0:0:26:
320,192,52138,1,0,0:0:0:26:
448,192,52138,1,0,0:0:0:26:
320,192,52348,1,0,0:0:0:80:
448,192,52558,1,0,0:0:0:80:
64,192,52768,1,0,0:0:0:40:
192,192,52768,1,0,0:0:0:40:
448,192,52977,1,0,0:0:0:80:
320,192,53082,1,0,0:0:0:80:
192,192,53187,1,0,0:0:0:40:
64,192,53187,1,0,0:0:0:40:
64,192,53397,1,0,0:0:0:26:
192,192,53397,1,0,0:0:0:26:
448,192,53397,1,0,0:0:0:26:
320,192,53607,1,0,0:0:0:80:
192,192,53817,1,0,0:0:0:40:
448,192,53817,1,0,0:0:0:40:
192,192,54026,1,0,0:0:0:40:
64,192,54026,1,0,0:0:0:40:
320,192,54236,1,0,0:0:0:80:
192,192,54446,1,0,0:0:0:40:
64,192,54446,1,0,0:0:0:40:
320,192,54656,128,0,55075:0:0:0:20:
448,192,54656,1,0,0:0:0:20:
64,192,54656,1,0,0:0:0:20:
192,192,54656,1,0,0:0:0:20:
192,192,54866,1,0,0:0:0:80:
448,192,55075,128,0,55495:0:0:0:80:
64,192,55285,1,0,0:0:0:80:
320,192,55495,128,0,55915:0:0:0:40:
192,192,55495,1,0,0:0:0:40:
64,192,55705,1,0,0:0:0:80:
192,192,55915,128,0,56334:0:0:0:80:
448,192,56124,1,0,0:0:0:40:
64,192,56124,1,0,0:0:0:40:
320,192,56334,128,0,56754:0:0:0:80:
64,192,56544,1,0,0:0:0:40:
448,192,56544,1,0,0:0:0:40:
192,192,56754,128,0,57068:0:0:0:26:
448,192,56754,1,0,0:0:0:26:
64,192,56754,1,0,0:0:0:26:
320,192,56963,1,0,0:0:0:80:
192,192,57173,128,0,57593:0:0:0:20:
320,192,57173,1,0,0:0:0:20:
448,192,57173,1,0,0:0:0:20:
64,192,57173,1,0,0:0:0:20:
320,192,57383,1,0,0:0:0:80:
64,192,57593,128,0,58012:0:0:0:80:
320,192,57803,1,0,0:0:0:80:
448,192,58012,1,0,0:0:0:80:
448,192,58222,1,0,0:0:0:80:
448,192,58432,1,0,0:0:0:80:
448,192,58852,1,0,0:0:0:26:
64,192,58852,1,0,0:0:0:26:
192,192,58852,1,0,0:0:0:26:
320,192,59061,1,0,0:0:0:40:
64,192,59061,1,0,0:0:0:40:
192,192,59271,1,0,0:0:0:40:
448,192,59271,1,0,0:0:0:40:
64,192,59481,1,0,0:0:0:40:
192,192,59481,1,0,0:0:0:40:
448,192,59691,1,0,0:0:0:80:
320,192,59796,1,0,0:0:0:80:
64,192,59901,1,0,0:0:0:40:
192,192,59901,1,0,0:0:0:40:
64,192,60110,1,0,0:0:0:40:
192,192,60110,1,0,0:0:0:40:
320,192,60320,1,0,0:0:0:80:
448,192,60530,1,0,0:0:0:26:
192,192,60530,1,0,0:0:0:26:
64,192,60530,1,0,0:0:0:26:
192,192,60740,1,0,0:0:0:40:
64,192,60740,1,0,0:0:0:40:
64,192,60950,1,0,0:0:0:26:
320,192,60950,1,0,0:0:0:26:
448,192,60950,1,0,0:0:0:26:
192,192,61159,1,0,0:0:0:80:
448,192,61369,1,0,0:0:0:26:
64,192,61369,1,0,0:0:0:26:
192,192,61369,1,0,0:0:0:26:
320,192,61579,1,0,0:0:0:40:
64,192,61579,1,0,0:0:0:40:
320,192,61789,1,0,0:0:0:40:
192,192,61789,1,0,0:0:0:40:
320,192,61998,1,0,0:0:0:80:
448,192,62208,1,0,0:0:0:20:
64,192,62208,1,0,0:0:0:20:
320,192,62208,128,0,62628:0:0:0:20:
192,192,62208,1,0,0:0:0:20:
448,192,62418,1,0,0:0:0:80:
192,192,62628,1,0,0:0:0:80:
64,192,62838,1,0,0:0:0:40:
448,192,62838,1,0,0:0:0:40:
192,192,63047,1,0,0:0:0:40:
320,192,63047,1,0,0:0:0:40:
64,192,63257,1,0,0:0:0:26:
448,192,63257,1,0,0:0:0:26:
320,192,63257,1,0,0:0:0:26:
64,192,63467,1,0,0:0:0:26:
448,192,63467,1,0,0:0:0:26:
320,192,63467,1,0,0:0:0:26:
192,192,63677,1,0,0:0:0:80:
192,192,63887,1,0,0:0:0:40:
448,192,63887,1,0,0:0:0:40:
448,192,64096,1,0,0:0:0:40:
64,192,64096,1,0,0:0:0:40:
320,192,64306,1,0,0:0:0:80:
448,192,64516,1,0,0:0:0:40:
64,192,64516,1,0,0:0:0:40:
192,192,64726,1,0,0:0:0:0:
