osu file format v14

[General]
AudioFilename: audio.mp3
AudioLeadIn: 0
PreviewTime: 14785
Countdown: 0
SampleSet: Normal
StackLeniency: 0.7
Mode: 1
LetterboxInBreaks: 0
WidescreenStoryboard: 1

[Editor]
DistanceSpacing: 3
BeatDivisor: 4
GridSize: 16
TimelineZoom: 1

[Metadata]
Title:Mine
TitleUnicode:Mine
Artist:Bazzi
ArtistUnicode:Bazzi
Creator:UltraBagel
Version:kantan
Source:
Tags:Bazzi Mine Chill you so precious when you smile
BeatmapID:1699490
BeatmapSetID:809952

[Difficulty]
HPDrainRate:6
CircleSize:2
OverallDifficulty:1.2
ApproachRate:5
SliderMultiplier:1.49999989271164
SliderTickRate:1

[Events]
//Background and Video events
0,0,"city_night_skyscraper_city_lights_765_1920x1080.jpg",0,0
//Break Periods
2,14146,16942
2,20859,23655
2,27992,30368
2,34286,37082
//Storyboard Layer 0 (Background)
//Storyboard Layer 1 (Fail)
//Storyboard Layer 2 (Pass)
//Storyboard Layer 3 (Foreground)
//Storyboard Sound Samples

[TimingPoints]
1359,839.160839160839,4,1,0,20,1,0
18142,-90.9090909090909,4,1,0,40,0,0
18981,-100,4,1,0,40,0,0
24855,-90.9090909090909,4,1,0,40,0,0
25694,-100,4,1,0,40,0,0
31568,-90.9090909090909,4,1,0,40,0,0
32407,-100,4,1,0,40,0,0
38282,-90.9090909090909,4,1,0,40,0,0
39121,-100,4,1,0,40,0,0
44995,-90.9090909090909,4,1,0,40,0,0
45834,-100,4,1,0,40,0,0
51708,-90.9090909090909,4,1,0,40,0,0
52547,-100,4,1,0,40,0,0
59261,-90.9090909090909,4,1,0,40,0,0
60100,-100,4,1,0,40,0,0

[HitObjects]
256,192,1359,5,8,0:0:0:0:
256,192,2198,1,0,0:0:0:0:
256,192,3037,1,8,0:0:0:0:
256,192,3876,1,0,0:0:0:0:
256,192,4715,1,0,0:0:0:0:
272,192,5554,1,8,0:0:0:0:
272,192,5974,1,0,0:0:0:0:
272,192,6813,1,0,0:0:0:0:
272,192,7233,1,8,0:0:0:0:
272,192,8072,1,0,0:0:0:0:
272,192,8911,1,0,0:0:0:0:
272,192,9750,1,8,0:0:0:0:
272,192,10589,1,0,0:0:0:0:
272,192,11428,1,0,0:0:0:0:
272,192,12268,1,0,0:0:0:0:
272,176,12687,1,8,0:0:0:0:
272,176,13526,1,0,0:0:0:0:
272,176,13946,1,8,0:0:0:0:
256,192,18142,5,4,0:0:0:0:
256,192,18981,1,8,0:0:0:0:
256,192,19400,1,0,0:0:0:0:
256,192,20240,1,0,0:0:0:0:
256,192,20659,1,8,0:0:0:0:
256,192,24855,5,4,0:0:0:0:
256,192,25694,1,8,0:0:0:0:
256,192,26533,1,0,0:0:0:0:
256,192,27372,1,8,0:0:0:0:
256,192,27792,1,0,0:0:0:0:
256,192,31568,5,4,0:0:0:0:
256,192,32407,1,8,0:0:0:0:
256,192,32827,1,0,0:0:0:0:
256,192,33666,1,0,0:0:0:0:
256,192,34086,1,8,0:0:0:0:
256,192,38282,5,4,0:0:0:0:
256,192,39121,1,8,0:0:0:0:
256,192,39960,1,8,0:0:0:0:
256,192,40379,1,0,0:0:0:0:
256,192,41638,1,0,0:0:0:0:
256,192,42477,1,8,0:0:0:0:
256,192,43317,1,0,0:0:0:0:
256,192,44156,1,8,0:0:0:0:
256,192,44995,1,4,0:0:0:0:
256,192,45834,1,8,0:0:0:0:
256,192,46673,1,0,0:0:0:0:
256,192,47093,1,0,0:0:0:0:
256,192,48352,1,0,0:0:0:0:
256,192,49191,1,8,0:0:0:0:
256,192,50030,1,0,0:0:0:0:
256,192,50449,1,0,0:0:0:0:
256,192,51708,1,12,0:0:0:0:
256,192,52547,1,0,0:0:0:0:
256,192,53386,1,0,0:0:0:0:
256,192,53806,1,0,0:0:0:0:
256,192,55065,1,0,0:0:0:0:
256,192,55904,1,8,0:0:0:0:
256,192,56743,1,8,0:0:0:0:
256,192,57163,1,0,0:0:0:0:
256,192,58002,1,0,0:0:0:0:
256,192,59261,1,12,0:0:0:0:
256,192,60100,1,0,0:0:0:0:
256,192,60519,1,0,0:0:0:0:
256,192,61358,1,8,0:0:0:0:
256,192,61778,1,0,0:0:0:0:
256,192,62617,1,0,0:0:0:0:
256,192,63456,1,0,0:0:0:0:
256,192,63876,1,0,0:0:0:0:
256,192,64715,1,8,0:0:0:0:
