osu file format v14

[General]
AudioFilename: audio.mp3
AudioLeadIn: 0
PreviewTime: 14685
Countdown: 0
SampleSet: Normal
StackLeniency: 0.7
Mode: 0
LetterboxInBreaks: 0
WidescreenStoryboard: 0

[Editor]
Bookmarks: 14685,128810
DistanceSpacing: 1.3
BeatDivisor: 6
GridSize: 4
TimelineZoom: 2.1

[Metadata]
Title:Mine
TitleUnicode:Mine
Artist:Bazzi
ArtistUnicode:Bazzi
Creator:Seox
Version:Lovely
Source:
Tags:chill future bass
BeatmapID:1561124
BeatmapSetID:739924

[Difficulty]
HPDrainRate:6
CircleSize:4
OverallDifficulty:8.7
ApproachRate:8.8
SliderMultiplier:1.8
SliderTickRate:1

[Events]
//Background and Video events
0,0,"rain_of_emotion_by_aditalfian-dbb9z2l.png",0,0
//Break Periods
2,78450,81172
2,98591,101312
//Storyboard Layer 0 (Background)
//Storyboard Layer 1 (Fail)
//Storyboard Layer 2 (Pass)
//Storyboard Layer 3 (Foreground)
//Storyboard Sound Samples

[TimingPoints]
14685,419.58041958042,4,1,0,50,1,0
14685,-200,4,1,0,50,0,0
18041,-79.9999999999999,4,1,0,50,0,0
21398,-133.333333333333,4,1,0,50,0,0
24754,-83.3333333333333,4,1,0,50,0,0
28111,-200,4,1,0,50,0,0
31468,-83.3333333333333,4,1,0,50,0,0
34824,-200,4,1,0,50,0,0
38181,-100,4,1,0,50,0,0
65034,-200,4,1,0,50,0,0
68391,-100,4,1,0,50,0,0
71747,-117.647058823529,4,1,0,50,0,0
75104,-90.9090909090909,4,1,0,50,0,0
78461,-133.333333333333,4,1,0,50,0,0
81817,-100,4,1,0,50,0,0
85174,-133.333333333333,4,1,0,50,0,0
88531,-100,4,1,0,50,0,0
101957,-83.3333333333333,4,1,0,50,0,1
122097,-200,4,1,0,50,0,0
122936,-79.9999999999999,4,1,0,50,0,1
128810,-100,4,1,0,50,0,0

[HitObjects]
312,165,14685,6,0,L|375:146,1,60
355,357,15518,2,0,L|290:345,1,60
131,77,16357,6,0,L|164:136,1,60
108,343,17197,6,0,L|165:311,1,60
391,149,18041,6,0,P|404:104|392:26,1,112.5
122,149,18460,1,0,0:0:0:0:
227,327,18670,1,0,0:0:0:0:
323,99,18880,1,0,0:0:0:0:
68,269,19090,1,0,0:0:0:0:
212,254,19295,1,0,0:0:0:0:
122,149,19505,1,0,0:0:0:0:
246,274,19714,5,0,0:0:0:0:
212,64,19924,1,0,0:0:0:0:
119,352,20134,1,0,0:0:0:0:
246,274,20348,1,0,0:0:0:0:
68,269,20554,2,0,P|122:240|187:235,1,112.5
457,196,20973,2,0,P|399:178|339:175,1,112.5
191,46,21398,6,0,L|175:145,1,90.0000034332277
68,269,22232,2,0,L|46:172,1,90.0000034332277
405,254,23076,1,0,0:0:0:0:
367,344,23355,1,0,0:0:0:0:
296,157,23915,5,0,0:0:0:0:
405,255,24195,1,0,0:0:0:0:
212,335,24754,6,0,P|239:281|145:306,1,215.999993408203
432,246,25383,1,0,0:0:0:0:
246,136,25593,2,0,P|309:130|358:111,1,107.999996704102
212,52,26013,1,0,0:0:0:0:
35,220,26222,1,0,0:0:0:0:
245,137,26432,1,0,0:0:0:0:
9,114,26642,1,0,0:0:0:0:
167,254,26852,6,0,L|134:145,1,107.999996704102
371,254,27272,2,0,L|357:370,1,107.999996704102
245,137,27691,1,0,0:0:0:0:
371,254,27901,1,0,0:0:0:0:
223,324,28111,6,0,L|150:317,1,60
65,206,28950,6,0,P|97:180|118:180,1,60
309,131,29789,6,0,P|312:103|299:73,1,60
124,130,30629,2,0,L|56:127,1,60
342,282,31257,1,0,0:0:0:0:
342,282,31468,2,0,B|285:269|285:269|209:284,1,107.999996704102
76,339,31887,2,0,P|138:306|156:259,1,107.999996704102
168,18,32306,5,0,0:0:0:0:
81,207,32517,1,0,0:0:0:0:
272,123,32726,1,0,0:0:0:0:
342,282,32936,1,0,0:0:0:0:
239,141,33146,1,0,0:0:0:0:
160,369,33356,1,0,0:0:0:0:
342,282,33565,1,0,0:0:0:0:
81,207,33775,1,0,0:0:0:0:
296,128,33985,1,0,0:0:0:0:
160,369,34194,1,0,0:0:0:0:
381,185,34405,2,0,L|488:178,1,107.999996704102
184,80,34824,6,0,L|174:145,1,60
264,329,35663,2,0,L|251:257,1,60
70,98,36502,2,0,L|15:129,1,60
346,322,37342,2,0,P|389:311|415:317,1,60
236,232,37971,1,0,0:0:0:0:
236,232,38181,6,0,P|254:185|182:87,1,180
21,202,38810,1,0,0:0:0:0:
175,171,39020,1,0,0:0:0:0:
21,202,39229,1,0,0:0:0:0:
81,89,39439,1,0,0:0:0:0:
85,318,39649,1,0,0:0:0:0:
300,265,39859,5,0,0:0:0:0:
21,202,40068,1,0,0:0:0:0:
309,151,40278,1,0,0:0:0:0:
85,318,40489,1,0,0:0:0:0:
250,46,40698,1,0,0:0:0:0:
209,356,40908,1,0,0:0:0:0:
22,202,41118,1,0,0:0:0:0:
303,150,41328,1,0,0:0:0:0:
243,282,41538,6,0,P|230:201|312:150,1,180
399,158,42167,1,0,0:0:0:0:
279,57,42377,2,0,L|187:50,1,90
40,193,42796,2,0,L|145:175,1,90
351,350,43216,6,0,L|258:351,1,90
434,203,43636,2,0,L|452:298,1,90
228,278,44055,2,0,L|252:177,1,90
146,357,44475,1,0,0:0:0:0:
30,212,44685,1,0,0:0:0:0:
249,191,44894,5,0,0:0:0:0:
18,328,45104,1,0,0:0:0:0:
289,178,45314,1,0,0:0:0:0:
30,212,45524,1,0,0:0:0:0:
299,326,45733,1,0,0:0:0:0:
161,84,45943,1,0,0:0:0:0:
326,355,46153,1,0,0:0:0:0:
366,62,46363,1,0,0:0:0:0:
265,358,46573,5,0,0:0:0:0:
449,155,46782,1,0,0:0:0:0:
108,237,46992,2,0,P|164:219|214:220,1,90
449,155,47412,2,0,P|404:146|354:152,1,90
108,237,47831,1,0,0:0:0:0:
265,358,48041,1,0,0:0:0:0:
204,141,48251,6,0,L|192:29,1,90
92,241,48671,2,0,L|113:344,1,90
379,182,49089,2,0,B|376:26|376:26|363:53,1,180
204,141,49719,1,0,0:0:0:0:
367,282,49929,2,0,L|467:278,1,90
109,329,50348,2,0,L|14:324,1,90
204,141,50768,1,0,0:0:0:0:
350,351,50978,1,0,0:0:0:0:
317,98,51187,1,0,0:0:0:0:
235,302,51397,1,0,0:0:0:0:
406,102,51607,6,0,L|303:97,1,90
75,211,52027,2,0,L|170:191,1,90
76,74,52447,2,0,B|59:229|59:229|79:206,1,180
210,133,53075,1,0,0:0:0:0:
366,265,53285,6,0,P|365:319|344:357,1,90
82,284,53705,2,0,P|128:275|189:275,1,90
438,311,54124,6,0,B|454:275|454:275|440:133,1,180
295,56,54754,1,0,0:0:0:0:
196,181,54964,2,0,P|240:180|286:148,1,90
70,117,55383,2,0,P|50:155|41:214,1,90
179,360,55803,2,0,L|196:175,1,180
293,77,56432,1,0,0:0:0:0:
406,218,56642,5,0,0:0:0:0:
427,103,56852,1,0,0:0:0:0:
253,258,57061,1,0,0:0:0:0:
281,49,57271,1,0,0:0:0:0:
411,275,57481,2,0,L|425:175,1,90
228,169,57901,2,0,L|255:281,1,90
76,345,58320,6,0,B|61:190|61:190|84:224,1,180
341,331,59159,6,0,L|241:338,1,90
430,203,59579,2,0,L|526:204,1,90
246,104,59999,1,0,0:0:0:0:
330,228,60208,1,0,0:0:0:0:
184,92,60418,1,0,0:0:0:0:
186,287,60628,1,0,0:0:0:0:
141,104,60838,1,0,0:0:0:0:
4,283,61047,1,0,0:0:0:0:
330,228,61257,1,0,0:0:0:0:
141,104,61467,1,0,0:0:0:0:
213,351,61677,6,0,B|167:262|219:206|219:206|245:226,1,180
366,306,62306,1,0,0:0:0:0:
451,177,62516,2,0,P|452:131|445:82,1,90
244,59,62936,2,0,P|243:106|265:159,1,90
366,306,63355,5,0,0:0:0:0:
451,177,63565,1,0,0:0:0:0:
241,223,63775,1,0,0:0:0:0:
449,267,63985,1,0,0:0:0:0:
225,311,64194,1,0,0:0:0:0:
345,137,64404,1,0,0:0:0:0:
359,353,64614,1,0,0:0:0:0:
139,138,64824,1,0,0:0:0:0:
241,223,65034,6,0,P|256:261|260:291,1,60
420,73,65873,6,0,P|416:100|419:140,1,60
181,224,66712,6,0,L|245:222,1,60
254,247,67551,6,0,L|191:251,1,60
399,343,68391,6,0,B|420:216|420:216|388:241|357:231,1,180
324,55,69020,1,0,0:0:0:0:
365,162,69229,1,0,0:0:0:0:
444,68,69439,1,0,0:0:0:0:
226,122,69650,1,0,0:0:0:0:
443,199,69859,1,0,0:0:0:0:
150,218,70069,5,0,0:0:0:0:
365,162,70278,1,0,0:0:0:0:
226,122,70489,1,0,0:0:0:0:
330,330,70698,1,0,0:0:0:0:
365,162,70908,1,0,0:0:0:0:
173,299,71117,1,0,0:0:0:0:
429,285,71327,1,0,0:0:0:0:
226,122,71537,1,0,0:0:0:0:
191,371,71747,6,0,P|175:336|174:292,1,76.5000014591217
86,277,72166,2,0,P|96:246|123:209,1,76.5000014591217
225,127,72586,2,0,B|167:134|125:103|125:103|98:128|66:126,1,153.000002918243
337,255,73215,1,0,0:0:0:0:
434,158,73425,6,0,P|443:114|439:67,1,76.5000014591217
230,278,73845,2,0,P|232:315|251:374,1,76.5000014591217
310,104,74264,1,0,0:0:0:0:
339,259,74474,1,0,0:0:0:0:
198,148,74684,1,0,0:0:0:0:
437,158,74894,1,0,0:0:0:0:
121,211,75104,6,0,P|107:178|108:108,1,99.0000030212403
339,259,75523,2,0,P|350:299|340:371,1,99.0000030212403
66,312,75943,2,0,B|120:291|120:291|269:309,1,198.000006042481
470,246,76572,1,0,0:0:0:0:
198,148,76782,2,0,L|296:136,1,99.0000030212403
446,75,77201,2,0,L|348:60,1,99.0000030212403
134,60,77621,1,0,0:0:0:0:
51,238,77831,1,0,0:0:0:0:
198,148,78041,1,0,0:0:0:0:
10,141,78250,1,0,0:0:0:0:
359,328,81817,6,0,P|342:296|366:237,1,90
410,95,82236,6,0,P|367:113|316:102,1,90
166,148,82656,6,0,P|195:235|182:328,1,180
8,245,83285,1,0,0:0:0:0:
307,200,83495,1,0,0:0:0:0:
166,148,83705,1,0,0:0:0:0:
415,250,83915,1,0,0:0:0:0:
206,340,84124,1,0,0:0:0:0:
308,170,84334,5,0,0:0:0:0:
369,348,84544,1,0,0:0:0:0:
165,147,84754,1,0,0:0:0:0:
410,95,84964,1,0,0:0:0:0:
305,259,85173,6,0,B|279:201|279:201|263:232,1,90.0000034332277
125,324,86013,2,0,P|90:313|79:258,1,90.0000034332277
171,89,86852,6,0,L|263:83,1,90.0000034332277
171,89,87691,2,0,L|77:76,1,90.0000034332277
375,131,88531,6,0,B|392:176|392:176|375:319,1,180
243,344,89159,1,0,0:0:0:0:
243,344,89369,2,0,P|189:335|143:338,1,90
6,246,89789,2,0,P|49:233|97:232,1,90
315,244,90208,1,0,0:0:0:0:
180,135,90418,1,0,0:0:0:0:
153,336,90628,1,0,0:0:0:0:
315,244,90838,1,0,0:0:0:0:
91,147,91047,6,0,P|153:136|206:134,1,90
404,252,91467,2,0,P|356:243|287:247,1,90
100,319,91887,6,0,B|74:272|74:272|92:135,1,180
187,69,92516,1,0,0:0:0:0:
301,122,92726,2,0,P|351:121|401:107,1,90
390,293,93145,2,0,P|415:266|439:194,1,90
205,249,93565,2,0,P|184:291|183:357,1,90
334,202,93985,2,0,P|329:167|293:115,1,90
47,217,94404,1,0,0:0:0:0:
251,185,94614,1,0,0:0:0:0:
68,137,94824,1,0,0:0:0:0:
205,249,95034,1,0,0:0:0:0:
156,133,95243,6,0,P|111:142|46:129,1,90
246,46,95663,2,0,P|286:40|350:46,1,90
459,268,96082,2,0,L|477:75,1,180
239,169,96712,1,0,0:0:0:0:
361,257,96922,6,0,L|368:153,1,90
127,254,97341,2,0,L|120:150,1,90
241,358,97761,1,0,0:0:0:0:
238,167,97971,1,0,0:0:0:0:
361,257,98180,1,0,0:0:0:0:
127,254,98391,1,0,0:0:0:0:
417,296,101957,6,0,L|310:293,1,107.999996704102
95,215,102377,2,0,L|216:199,1,107.999996704102
375,182,102796,1,0,0:0:0:0:
168,109,103006,1,0,0:0:0:0:
326,72,103216,1,0,0:0:0:0:
134,104,103426,1,0,0:0:0:0:
375,182,103636,5,0,0:0:0:0:
95,97,103845,1,0,0:0:0:0:
223,324,104055,1,0,0:0:0:0:
167,109,104265,1,0,0:0:0:0:
25,257,104475,1,0,0:0:0:0:
273,218,104685,1,0,0:0:0:0:
167,109,104894,1,0,0:0:0:0:
127,355,105104,1,0,0:0:0:0:
419,348,105314,6,0,P|446:253|420:125,1,215.999993408203
167,109,105943,1,0,0:0:0:0:
273,218,106153,2,0,L|392:212,1,107.999996704102
127,355,106573,2,0,L|16:356,1,107.999996704102
302,344,106992,5,0,0:0:0:0:
106,180,107202,1,0,0:0:0:0:
273,218,107412,1,0,0:0:0:0:
10,252,107622,1,0,0:0:0:0:
235,102,107831,1,0,0:0:0:0:
166,365,108041,1,0,0:0:0:0:
106,180,108251,2,0,P|171:196|235:177,1,107.999996704102
344,76,108671,6,0,P|333:186|366:292,1,215.999993408203
443,348,109300,1,0,0:0:0:0:
466,102,109510,1,0,0:0:0:0:
413,357,109719,1,0,0:0:0:0:
242,108,109929,1,0,0:0:0:0:
151,364,110139,1,0,0:0:0:0:
401,185,110349,5,0,0:0:0:0:
80,138,110559,1,0,0:0:0:0:
283,289,110768,1,0,0:0:0:0:
242,108,110978,1,0,0:0:0:0:
59,284,111188,6,0,P|101:265|168:260,1,107.999996704102
476,186,111608,2,0,P|407:170|355:176,1,107.999996704102
47,100,112027,6,0,B|123:85|123:85|272:97,1,215.999993408203
476,186,112657,1,0,0:0:0:0:
398,272,112866,2,0,P|372:228|373:161,1,107.999996704102
290,346,113286,2,0,L|179:341,1,107.999996704102
54,252,113705,6,0,L|166:237,1,107.999996704102
296,100,114125,1,0,0:0:0:0:
68,130,114335,1,0,0:0:0:0:
369,172,114545,2,0,P|392:119|372:44,1,107.999996704102
162,238,114964,2,0,P|160:294|183:343,1,107.999996704102
398,272,115384,6,0,B|244:266|244:266|303:299,1,215.999993408203
450,342,116013,1,0,0:0:0:0:
479,104,116223,1,0,0:0:0:0:
285,188,116433,1,0,0:0:0:0:
427,186,116643,1,0,0:0:0:0:
203,97,116852,1,0,0:0:0:0:
386,160,117062,6,0,P|322:187|272:185,1,107.999996704102
70,268,117482,2,0,P|130:280|193:271,1,107.999996704102
394,357,117901,2,0,P|355:282|386:159,1,215.999993408203
462,257,118531,1,0,0:0:0:0:
177,260,118740,6,0,L|41:270,1,107.999996704102
386,165,119160,2,0,L|512:175,1,107.999996704102
307,362,119580,1,0,0:0:0:0:
163,120,119789,1,0,0:0:0:0:
135,269,119999,1,0,0:0:0:0:
304,217,120209,1,0,0:0:0:0:
108,194,120419,6,0,L|-1:197,1,107.999996704102
307,362,120838,2,0,L|435:352,1,107.999996704102
303,211,121258,1,0,0:0:0:0:
162,364,121468,1,0,0:0:0:0:
170,219,121678,1,0,0:0:0:0:
299,310,121887,1,0,0:0:0:0:
319,120,122097,6,0,P|269:130|229:108,2,90
460,86,123146,5,0,0:0:0:0:
309,44,123356,1,0,0:0:0:0:
501,94,123566,1,0,0:0:0:0:
262,221,123775,1,0,0:0:0:0:
501,94,123985,1,0,0:0:0:0:
419,321,124195,1,0,0:0:0:0:
309,44,124405,1,0,0:0:0:0:
510,206,124615,1,0,0:0:0:0:
186,228,124824,1,0,0:0:0:0:
377,153,125034,2,0,P|394:203|381:271,1,112.5
135,358,125454,5,0,0:0:0:0:
41,234,125664,1,0,0:0:0:0:
186,228,125873,2,0,L|152:341,1,112.5
110,112,126293,2,0,P|189:68|315:119,1,225
374,272,126922,1,0,0:0:0:0:
374,272,127132,6,0,L|486:278,1,112.5
187,340,127552,2,0,L|65:356,1,112.5
354,361,127971,1,0,0:0:0:0:
164,142,128181,1,0,0:0:0:0:
370,266,128391,1,0,0:0:0:0:
316,41,128601,1,0,0:0:0:0:
158,287,128810,1,0,0:0:0:0:
