osu file format v14

[General]
AudioFilename: audio.mp3
AudioLeadIn: 0
PreviewTime: 37438
Countdown: 0
SampleSet: Normal
StackLeniency: 0.5
Mode: 0
LetterboxInBreaks: 0
WidescreenStoryboard: 0

[Editor]
Bookmarks: 39116,57997
DistanceSpacing: 0.8
BeatDivisor: 4
GridSize: 4
TimelineZoom: 1

[Metadata]
Title:Mine
TitleUnicode:Mine
Artist:Bazzi
ArtistUnicode:Bazzi
Creator:NickLOOOL
Version:memes
Source:
Tags:meme
BeatmapID:1584562
BeatmapSetID:752653

[Difficulty]
HPDrainRate:4
CircleSize:3.2
OverallDifficulty:6
ApproachRate:8.1
SliderMultiplier:1.4
SliderTickRate:1

[Events]
//Background and Video events
0,0,"e931fde4256ad1d1ef31e05e374176ed.png",0,0
//Break Periods
2,34491,35445
2,64701,67333
2,78128,80760
2,98267,99221
//Storyboard Layer 0 (Background)
//Storyboard Layer 1 (Fail)
//Storyboard Layer 2 (Pass)
//Storyboard Layer 3 (Foreground)
//Storyboard Sound Samples

[TimingPoints]
935,419.58041958042,4,1,0,100,1,0
14361,-100,4,2,0,10,0,0
17718,-90.9090909090909,4,1,0,70,0,0
21074,-125,4,1,0,30,0,0
24431,-90.9090909090909,4,1,0,70,0,0
27788,-166.666666666667,4,1,0,30,0,0
31144,-90.9090909090909,4,1,0,70,0,0
37438,-90.9090909090909,4,2,0,10,0,0
37858,-76.9230769230769,4,1,0,90,0,1
57997,-76.9230769230769,4,1,0,60,0,0
58837,-76.9230769230769,4,1,0,90,0,1
64711,-90.9090909090909,4,1,0,70,0,0
71424,-166.666666666667,4,1,0,30,0,0
74781,-90.9090909090909,4,1,0,70,0,0
84851,-142.857142857143,4,1,0,30,0,0
88207,-90.9090909090909,4,1,0,70,0,0
101214,-142.857142857143,4,1,0,5,0,0
101634,-76.923076923077,4,1,0,90,0,1
121774,-76.923076923077,4,1,0,90,0,0
122613,-76.923076923077,4,1,0,90,0,1
128487,-76.923076923077,4,2,0,5,0,0

[HitObjects]
256,192,934,12,0,14361,0:0:0:0:
116,106,17718,6,0,L|131:189,1,77.0000023498536
160,266,18137,2,0,P|209:298|245:296,1,77.0000023498536
297,234,18557,2,0,P|337:226|373:235,1,77.0000023498536
444,277,18976,1,0,0:0:0:0:
332,320,19186,6,0,P|292:328|256:319,1,77.0000023498536
224,230,19606,1,0,0:0:0:0:
224,230,19816,2,0,P|186:221|149:229,1,77.0000023498536
59,227,20235,2,0,P|26:189|21:148,1,77.0000023498536
58,84,20655,1,0,0:0:0:0:
58,84,20865,1,0,0:0:0:0:
185,116,21074,6,0,L|192:174,1,56
217,150,21914,6,0,L|223:205,1,56
249,184,22753,6,0,L|255:239,1,56
281,218,23592,6,0,L|287:273,1,56
415,217,24431,6,0,P|384:273|346:286,1,77.0000023498536
285,278,24851,2,0,L|200:272,1,77.0000023498536
144,211,25270,2,0,L|131:129,1,77.0000023498536
118,35,25690,1,0,0:0:0:0:
230,70,25900,6,0,L|217:146,1,77.0000023498536
287,210,26319,1,0,0:0:0:0:
365,161,26529,2,0,L|352:79,1,77.0000023498536
432,32,26948,2,0,P|452:82|446:122,1,77.0000023498536
365,161,27368,1,0,0:0:0:0:
352,84,27578,1,0,0:0:0:0:
208,90,27788,6,0,L|156:98,1,41.9999987182618
194,104,28627,6,0,L|142:112,1,41.9999987182618
180,118,29466,6,0,L|128:126,1,41.9999987182618
166,132,30305,6,0,L|114:140,1,41.9999987182618
152,146,31144,6,0,L|71:158,1,77.0000023498536
40,247,31564,2,0,L|117:236,1,77.0000023498536
173,313,31983,2,0,L|92:325,1,77.0000023498536
40,247,32403,1,0,0:0:0:0:
152,146,32613,6,0,L|228:134,1,77.0000023498536
283,211,33032,1,0,0:0:0:0:
283,211,33242,2,0,L|359:199,1,77.0000023498536
417,258,33662,2,0,P|374:283|324:275,1,77.0000023498536
274,236,34081,1,0,0:0:0:0:
303,99,34291,5,0,0:0:0:0:
256,192,36179,12,0,37648,0:0:0:0:
385,112,37858,6,0,P|404:165|403:215,1,90.9999958343508
342,298,38277,2,0,P|292:305|235:270,1,90.9999958343508
197,186,38697,2,0,P|139:184|109:197,1,90.9999958343508
66,318,39116,5,0,0:0:0:0:
197,186,39326,2,0,L|200:95,1,90.9999958343508
109,196,39745,1,0,0:0:0:0:
287,196,39955,2,0,L|283:286,1,90.9999958343508
109,196,40375,2,0,L|106:287,1,90.9999958343508
287,196,40795,2,0,L|290:105,1,90.9999958343508
227,26,41214,6,0,P|161:51|135:82,1,90.9999958343508
225,116,41634,1,0,0:0:0:0:
192,261,41844,1,0,0:0:0:0:
155,342,42053,2,0,P|203:350|248:333,1,90.9999958343508
374,236,42473,1,0,0:0:0:0:
285,244,42683,6,0,P|328:233|374:236,1,90.9999958343508
225,149,43102,1,0,0:0:0:0:
314,141,43312,2,0,P|270:151|224:148,1,90.9999958343508
127,86,43732,2,0,L|137:191,1,90.9999958343508
76,252,44151,1,0,0:0:0:0:
234,286,44361,1,0,0:0:0:0:
280,374,44571,6,0,P|314:344|331:289,1,90.9999958343508
316,205,44990,2,0,L|301:109,1,90.9999958343508
210,115,45410,2,0,L|196:205,1,90.9999958343508
178,297,45830,1,0,0:0:0:0:
29,295,46039,6,0,L|14:199,1,90.9999958343508
0,111,46459,1,0,0:0:0:0:
158,70,46669,2,0,L|143:159,2,90.9999958343508
237,15,47298,2,0,P|281:22|315:51,1,90.9999958343508
365,160,47718,1,0,0:0:0:0:
240,99,47928,6,0,L|257:206,1,90.9999958343508
189,345,48347,1,0,0:0:0:0:
252,185,48557,1,0,0:0:0:0:
189,345,48767,2,0,P|147:315|131:267,1,90.9999958343508
310,265,49186,1,0,0:0:0:0:
222,264,49396,2,0,P|274:274|318:262,1,90.9999958343508
267,184,49816,1,0,0:0:0:0:
355,185,50026,2,0,P|303:175|259:187,1,90.9999958343508
222,264,50445,2,0,P|184:315|144:321,1,90.9999958343508
74,199,50865,1,0,0:0:0:0:
148,276,51074,1,0,0:0:0:0:
251,120,51284,6,0,P|243:58|222:17,1,90.9999958343508
138,178,51704,1,0,0:0:0:0:
98,64,51914,1,0,0:0:0:0:
251,120,52123,6,0,P|302:129|345:115,1,90.9999958343508
467,69,52543,1,0,0:0:0:0:
389,2,52753,1,0,0:0:0:0:
338,118,52962,6,0,P|334:178|346:224,1,90.9999958343508
340,207,53382,2,0,P|287:238|225:226,1,90.9999958343508
225,232,53802,2,0,P|168:203|131:206,1,90.9999958343508
56,265,54221,1,0,0:0:0:0:
160,347,54431,1,0,0:0:0:0:
225,232,54641,6,0,P|233:178|255:139,1,90.9999958343508
414,105,55060,1,0,0:0:0:0:
367,219,55270,1,0,0:0:0:0:
249,146,55480,6,0,P|187:155|159:148,1,90.9999958343508
53,83,55900,1,0,0:0:0:0:
142,13,56109,1,0,0:0:0:0:
160,148,56319,6,0,P|158:206|142:243,1,90.9999958343508
146,236,56739,2,0,P|188:269|229:272,1,90.9999958343508
250,250,57158,2,0,P|298:237|338:243,1,90.9999958343508
443,298,57578,1,0,0:0:0:0:
352,348,57788,1,0,0:0:0:0:
338,243,57997,6,0,L|424:210,1,90.9999958343508
433,215,58417,2,0,L|348:247,1,90.9999958343508
352,348,58837,6,0,P|303:352|245:328,1,90.9999958343508
269,195,59256,1,0,0:0:0:0:
181,160,59466,2,0,P|179:216|197:265,1,90.9999958343508
361,185,59886,1,0,0:0:0:0:
320,265,60095,2,0,P|277:227|269:184,1,90.9999958343508
274,78,60514,1,0,0:0:0:0:
430,130,60724,6,0,P|392:171|342:187,1,90.9999958343508
271,197,61144,1,0,0:0:0:0:
134,107,61354,2,0,P|172:66|222:50,1,90.9999958343508
299,110,61774,2,0,L|267:208,1,90.9999958343508
106,251,62193,2,0,P|152:274|202:262,1,90.9999958343508
270,196,62613,1,0,0:0:0:0:
134,107,62823,6,0,L|162:197,1,90.9999958343508
200,38,63242,1,0,0:0:0:0:
288,49,63452,2,0,P|243:50|200:38,1,90.9999958343508
365,107,63872,2,0,P|382:154|379:199,1,90.9999958343508
329,262,64291,1,0,0:0:0:0:
293,164,64501,5,0,0:0:0:0:
151,132,68067,6,0,L|163:236,1,77.0000023498536
172,307,68487,2,0,L|164:231,1,77.0000023498536
151,132,68907,2,0,P|190:111|236:115,1,77.0000023498536
293,163,69326,1,0,0:0:0:0:
302,316,69536,6,0,L|381:313,1,77.0000023498536
420,231,69955,1,0,0:0:0:0:
420,231,70165,2,0,L|343:233,1,77.0000023498536
257,275,70585,2,0,L|180:277,1,77.0000023498536
96,226,71004,1,0,0:0:0:0:
67,146,71214,1,0,0:0:0:0:
209,80,71424,6,0,L|213:127,1,41.9999987182618
362,120,71844,1,0,0:0:0:0:
303,39,72053,1,0,0:0:0:0:
230,111,72263,6,0,L|234:158,1,41.9999987182618
159,217,72683,1,0,0:0:0:0:
118,116,72893,1,0,0:0:0:0:
251,142,73102,6,0,L|255:189,1,41.9999987182618
330,273,73522,1,0,0:0:0:0:
374,183,73732,1,0,0:0:0:0:
272,173,73941,6,0,L|276:220,1,41.9999987182618
209,291,74361,1,0,0:0:0:0:
175,206,74571,1,0,0:0:0:0:
16,251,74781,6,0,P|28:308|47:337,1,77.0000023498536
132,344,75200,2,0,P|192:334|228:349,1,77.0000023498536
303,349,75620,2,0,L|397:342,1,77.0000023498536
471,309,76039,1,0,0:0:0:0:
326,186,76249,6,0,P|275:212|263:253,1,77.0000023498536
350,266,76669,1,0,0:0:0:0:
247,126,76879,2,0,P|293:106|331:101,1,77.0000023498536
247,126,77298,2,0,P|196:128|160:141,1,77.0000023498536
122,202,77718,1,0,0:0:0:0:
282,277,77928,5,0,0:0:0:0:
345,172,81494,6,0,P|356:233|347:265,1,77.0000023498536
262,235,81914,2,0,P|274:291|300:319,1,77.0000023498536
422,277,82333,2,0,P|383:251|338:249,1,77.0000023498536
262,235,82753,1,0,0:0:0:0:
95,331,82962,6,0,L|6:282,1,77.0000023498536
20,198,83382,1,0,0:0:0:0:
169,203,83592,2,0,L|171:280,1,77.0000023498536
95,331,84011,1,0,0:0:0:0:
21,202,84221,2,0,L|107:149,1,77.0000023498536
169,203,84641,1,0,0:0:0:0:
341,247,84851,6,0,L|389:219,1,48.9999985046387
313,243,85690,6,0,L|361:215,1,48.9999985046387
285,239,86529,6,0,L|333:211,1,48.9999985046387
257,235,87368,6,0,L|305:207,1,48.9999985046387
229,231,88207,6,0,L|295:190,1,77.0000023498536
359,135,88627,2,0,P|321:110|273:112,1,77.0000023498536
213,159,89046,2,0,P|170:170|130:154,1,77.0000023498536
80,86,89466,1,0,0:0:0:0:
213,159,89676,6,0,P|218:204|213:251,1,77.0000023498536
150,301,90095,1,0,0:0:0:0:
215,235,90305,2,0,P|217:197|213:159,1,77.0000023498536
80,86,90725,1,0,0:0:0:0:
139,160,90935,2,0,P|176:170|213:159,1,77.0000023498536
269,83,91354,1,0,0:0:0:0:
328,157,91564,6,0,L|347:241,1,77.0000023498536
267,291,91983,2,0,P|225:282|181:306,1,77.0000023498536
71,225,92403,2,0,P|119:223|147:211,1,77.0000023498536
94,136,92823,1,0,0:0:0:0:
145,211,93032,6,0,P|151:256|147:295,1,77.0000023498536
67,338,93452,1,0,0:0:0:0:
145,211,93662,2,0,P|187:210|223:219,1,77.0000023498536
301,272,94081,2,0,L|392:267,1,77.0000023498536
461,246,94501,1,0,0:0:0:0:
479,166,94711,1,0,0:0:0:0:
335,66,94921,6,0,L|346:168,1,77.0000023498536
256,211,95340,2,0,L|256:131,1,77.0000023498536
177,66,95760,2,0,L|166:168,1,77.0000023498536
160,227,96179,1,0,0:0:0:0:
257,339,96389,6,0,P|297:339|335:324,1,77.0000023498536
275,250,96809,1,0,0:0:0:0:
413,309,97018,2,0,P|410:357|388:388,1,77.0000023498536
331,326,97438,2,0,L|246:332,1,77.0000023498536
174,291,97858,1,0,0:0:0:0:
151,167,98067,5,0,0:0:0:0:
256,192,99955,12,0,101424,0:0:0:0:
121,125,101634,6,0,P|105:188|111:228,1,90.9999958343508
215,231,102053,2,0,P|236:286|282:314,1,90.9999958343508
340,246,102473,2,0,P|390:256|435:252,1,90.9999958343508
503,178,102893,1,0,0:0:0:0:
411,72,103102,6,0,L|309:94,1,90.9999958343508
271,16,103522,1,0,0:0:0:0:
322,91,103732,2,0,L|283:193,1,90.9999958343508
330,258,104151,1,0,0:0:0:0:
289,175,104361,2,0,L|187:197,1,90.9999958343508
175,104,104781,1,0,0:0:0:0:
200,194,104990,6,0,P|140:189|105:167,1,90.9999958343508
175,104,105410,1,0,0:0:0:0:
216,291,105620,1,0,0:0:0:0:
315,254,105830,6,0,L|297:358,1,90.9999958343508
414,300,106249,1,0,0:0:0:0:
403,209,106459,2,0,L|414:302,1,90.9999958343508
315,254,106879,1,0,0:0:0:0:
304,163,107089,2,0,L|315:256,1,90.9999958343508
214,206,107508,1,0,0:0:0:0:
204,116,107718,2,0,L|215:209,1,90.9999958343508
114,159,108137,1,0,0:0:0:0:
124,249,108347,6,0,L|114:159,1,90.9999958343508
204,116,108767,2,0,P|257:116|297:96,1,90.9999958343508
448,68,109186,2,0,L|446:164,1,90.9999958343508
441,252,109606,1,0,0:0:0:0:
294,313,109816,6,0,P|315:255|359:241,1,90.9999958343508
199,121,110235,1,0,0:0:0:0:
269,170,110445,2,0,P|241:134|199:121,1,90.9999958343508
189,208,110865,1,0,0:0:0:0:
119,261,111074,2,0,P|155:221|207:206,1,90.9999958343508
272,255,111494,1,0,0:0:0:0:
119,261,111704,6,0,P|90:197|89:161,1,90.9999958343508
143,39,112123,2,0,P|168:88|170:138,1,90.9999958343508
229,204,112543,2,0,P|281:231|321:226,1,90.9999958343508
386,170,112962,1,0,0:0:0:0:
231,18,113172,6,0,L|139:39,1,90.9999958343508
386,170,113592,1,0,0:0:0:0:
231,18,113802,2,0,L|139:39,1,90.9999958343508
142,38,114221,1,0,0:0:0:0:
386,170,114431,2,0,L|294:191,1,90.9999958343508
231,18,114851,1,0,0:0:0:0:
297,190,115060,6,0,P|291:244|269:286,1,90.9999958343508
151,337,115480,1,0,0:0:0:0:
154,215,115690,1,0,0:0:0:0:
275,276,115900,6,0,P|337:293|384:287,1,90.9999958343508
499,254,116319,1,0,0:0:0:0:
446,352,116529,1,0,0:0:0:0:
363,291,116739,6,0,P|374:240|396:205,1,90.9999958343508
394,207,117158,2,0,P|356:168|340:124,1,90.9999958343508
332,109,117578,2,0,P|274:95|251:70,1,90.9999958343508
432,42,117997,1,0,0:0:0:0:
338,15,118207,1,0,0:0:0:0:
253,73,118417,6,0,P|244:132|217:169,1,90.9999958343508
122,181,118837,1,0,0:0:0:0:
146,80,119046,1,0,0:0:0:0:
227,157,119256,6,0,P|241:212|237:254,1,90.9999958343508
208,330,119676,1,0,0:0:0:0:
319,321,119886,1,0,0:0:0:0:
238,245,120095,6,0,P|189:242|143:264,1,90.9999958343508
151,257,120515,2,0,P|127:214|88:192,1,90.9999958343508
62,190,120935,2,0,P|55:141|66:98,1,90.9999958343508
77,76,121354,1,0,0:0:0:0:
182,126,121564,1,0,0:0:0:0:
292,76,121774,6,0,B|315:126|315:126|319:176,2,90.9999958343508
315,183,122613,6,0,P|293:230|310:295,1,90.9999958343508
361,327,123032,1,0,0:0:0:0:
446,300,123242,2,0,P|416:257|351:239,1,90.9999958343508
296,267,123662,1,0,0:0:0:0:
279,354,123872,2,0,P|330:349|378:302,1,90.9999958343508
379,233,124291,1,0,0:0:0:0:
376,146,124501,6,0,L|372:49,1,90.9999958343508
372,55,124921,1,0,0:0:0:0:
216,96,125130,6,0,L|221:218,1,90.9999958343508
166,267,125550,2,0,P|121:217|116:183,1,90.9999958343508
128,106,125969,2,0,P|177:109|226:91,1,90.9999958343508
269,21,126389,1,0,0:0:0:0:
216,96,126599,6,0,L|221:218,1,90.9999958343508
283,268,127018,1,0,0:0:0:0:
283,268,127228,2,0,P|340:289|391:280,1,90.9999958343508
476,151,127648,1,0,0:0:0:0:
399,100,127858,2,0,P|336:117|311:153,1,90.9999958343508
283,268,128277,6,0,P|231:264|192:244,1,90.9999958343508
