osu file format v14

[General]
AudioFilename: audio.mp3
AudioLeadIn: 0
PreviewTime: 98228
Countdown: 0
SampleSet: Soft
StackLeniency: 0.7
Mode: 0
LetterboxInBreaks: 0
WidescreenStoryboard: 1

[Editor]
DistanceSpacing: 1
BeatDivisor: 4
GridSize: 32
TimelineZoom: 1.8

[Metadata]
Title:Mine
TitleUnicode:Mine
Artist:Bazzi
ArtistUnicode:Bazzi
Creator:Le Mirai
Version::xahlt_normal:
Source:
Tags:xahlt Kuon- akane-_ english pop r&b sirmirai Mirai Cacturne sweets Cosmic
BeatmapID:2870671
BeatmapSetID:1359916

[Difficulty]
HPDrainRate:4
CircleSize:3
OverallDifficulty:4
ApproachRate:5
SliderMultiplier:1.1
SliderTickRate:1

[Events]
//Background and Video events
0,0,"rip wonjae.jpg",0,0
//Break Periods
//Storyboard Layer 0 (Background)
//Storyboard Layer 1 (Fail)
//Storyboard Layer 2 (Pass)
//Storyboard Layer 3 (Foreground)
//Storyboard Layer 4 (Overlay)
//Storyboard Sound Samples

[TimingPoints]
950,419.58041958042,4,2,1,80,1,0
11019,-100,4,2,1,10,0,0
11229,-100,4,2,1,20,0,0
11439,-100,4,2,1,30,0,0
11859,-100,4,2,1,40,0,0
12698,-100,4,2,1,50,0,0
14166,-100,4,2,1,50,0,0
14376,-100,4,2,1,50,0,0
17733,-100,4,2,1,50,0,0
18047,-100,4,2,1,50,0,0
18152,-100,4,2,1,50,0,0
18887,-100,4,2,1,50,0,0
18991,-100,4,2,1,50,0,0
21089,-100,4,2,1,50,0,0
24446,-100,4,2,1,50,0,0
24761,-100,4,2,1,50,0,0
24866,-100,4,2,1,50,0,0
25600,-100,4,2,1,50,0,0
25705,-100,4,2,1,50,0,0
27803,-100,4,2,1,50,0,0
31159,-100,4,2,1,50,0,0
31474,-100,4,2,1,50,0,0
31579,-100,4,2,1,50,0,0
32313,-100,4,2,1,50,0,0
32418,-100,4,2,1,50,0,0
34516,-100,4,2,1,50,0,0
37768,-100,4,2,1,50,0,0
37873,-90.9090909090909,4,2,1,80,0,1
38187,-90.9090909090909,4,2,1,80,0,1
38292,-90.9090909090909,4,2,1,80,0,1
38607,-90.9090909090909,4,2,1,80,0,1
38712,-90.9090909090909,4,2,1,80,0,1
39026,-90.9090909090909,4,2,1,80,0,1
39131,-90.9090909090909,4,2,1,80,0,1
40810,-90.9090909090909,4,2,1,80,0,1
41019,-90.9090909090909,4,2,1,80,0,1
41544,-90.9090909090909,4,2,1,80,0,1
41649,-90.9090909090909,4,2,1,80,0,1
44901,-90.9090909090909,4,2,1,80,0,1
45005,-90.9090909090909,4,2,1,80,0,1
45320,-90.9090909090909,4,2,1,80,0,1
45425,-90.9090909090909,4,2,1,80,0,1
45740,-90.9090909090909,4,2,1,80,0,1
45845,-90.9090909090909,4,2,1,80,0,1
47523,-90.9090909090909,4,2,1,80,0,1
47733,-90.9090909090909,4,2,1,80,0,1
48257,-90.9090909090909,4,2,1,80,0,1
48362,-90.9090909090909,4,2,1,80,0,1
51614,-90.9090909090909,4,2,1,80,0,1
51719,-90.9090909090909,4,2,1,80,0,1
52033,-90.9090909090909,4,2,1,80,0,1
52138,-90.9090909090909,4,2,1,80,0,1
52453,-90.9090909090909,4,2,1,80,0,1
52558,-90.9090909090909,4,2,1,80,0,1
54970,-90.9090909090909,4,2,1,80,0,1
55075,-90.9090909090909,4,2,1,80,0,1
58012,-90.9090909090909,4,2,1,80,0,0
58327,-90.9090909090909,4,2,1,80,0,0
58432,-90.9090909090909,4,2,1,80,0,0
58747,-90.9090909090909,4,2,1,80,0,0
58852,-90.9090909090909,4,2,1,80,0,1
59166,-90.9090909090909,4,2,1,80,0,1
59271,-90.9090909090909,4,2,1,80,0,1
60950,-90.9090909090909,4,2,1,80,0,1
61159,-90.9090909090909,4,2,1,80,0,1
62523,-90.9090909090909,4,2,1,80,0,1
62628,-90.9090909090909,4,2,1,80,0,1
64306,-90.9090909090909,4,2,1,80,0,1
64726,-100,4,2,1,60,0,0
68082,-100,4,2,1,60,0,0
68397,-100,4,2,1,60,0,0
68502,-100,4,2,1,60,0,0
72593,-100,4,2,1,60,0,0
72698,-100,4,2,1,60,0,0
73852,-100,4,2,1,60,0,0
73956,-100,4,2,1,60,0,0
75110,-100,4,2,1,60,0,0
75215,-100,4,2,1,60,0,0
81824,-100,4,2,1,60,0,0
81929,-100,4,2,1,60,0,0
84866,-100,4,2,1,60,0,0
88222,-100,4,2,1,60,0,0
88537,-100,4,2,1,60,0,0
88642,-100,4,2,1,60,0,0
90005,-100,4,2,1,60,0,0
90110,-100,4,2,1,60,0,0
90215,-100,4,2,1,60,0,0
90320,-100,4,2,1,60,0,0
91159,-100,4,2,1,60,0,0
91369,-100,4,2,1,60,0,0
92523,-100,4,2,1,60,0,0
92628,-100,4,2,1,60,0,0
92733,-100,4,2,1,60,0,0
92838,-100,4,2,1,60,0,0
94411,-100,4,2,1,60,0,0
94516,-100,4,2,1,60,0,0
97873,-100,4,2,1,60,0,0
98082,-100,4,2,1,60,0,0
98292,-100,4,2,1,60,0,0
99918,-100,4,2,1,60,0,0
99970,-100,4,2,1,60,0,0
101596,-100,4,2,1,60,0,0
101649,-90.9090909090909,4,2,1,80,0,1
101963,-90.9090909090909,4,2,1,80,0,1
102068,-90.9090909090909,4,2,1,80,0,1
102383,-90.9090909090909,4,2,1,80,0,1
102488,-90.9090909090909,4,2,1,80,0,1
102803,-90.9090909090909,4,2,1,80,0,1
102908,-90.9090909090909,4,2,1,80,0,1
104586,-90.9090909090909,4,2,1,80,0,1
104796,-90.9090909090909,4,2,1,80,0,1
105320,-90.9090909090909,4,2,1,80,0,1
105425,-90.9090909090909,4,2,1,80,0,1
108677,-90.9090909090909,4,2,1,80,0,1
108782,-90.9090909090909,4,2,1,80,0,1
109096,-90.9090909090909,4,2,1,80,0,1
109201,-90.9090909090909,4,2,1,80,0,1
109516,-90.9090909090909,4,2,1,80,0,1
109621,-90.9090909090909,4,2,1,80,0,1
111299,-90.9090909090909,4,2,1,80,0,1
111509,-90.9090909090909,4,2,1,80,0,1
112033,-90.9090909090909,4,2,1,80,0,1
112138,-90.9090909090909,4,2,1,80,0,1
115390,-90.9090909090909,4,2,1,80,0,1
115495,-90.9090909090909,4,2,1,80,0,1
115810,-90.9090909090909,4,2,1,80,0,1
115915,-90.9090909090909,4,2,1,80,0,1
118747,-90.9090909090909,4,2,1,80,0,1
118852,-90.9090909090909,4,2,1,80,0,1
121789,-90.9090909090909,4,2,1,80,0,0
121894,-90.9090909090909,4,2,1,80,0,0
121998,-90.9090909090909,4,2,1,80,0,0
122103,-90.9090909090909,4,2,1,80,0,0
122208,-90.9090909090909,4,2,1,80,0,0
122313,-90.9090909090909,4,2,1,80,0,0
122628,-90.9090909090909,4,2,1,80,0,1
122943,-90.9090909090909,4,2,1,80,0,1
123047,-90.9090909090909,4,2,1,80,0,1
124726,-90.9090909090909,4,2,1,80,0,1
124936,-90.9090909090909,4,2,1,80,0,1
128082,-90.9090909090909,4,2,1,40,0,1
128292,-100,4,2,1,40,0,0

[Colours]
Combo1 : 255,123,123
Combo2 : 0,128,192
Combo3 : 255,128,192
Combo4 : 255,148,96

[HitObjects]
256,192,11019,12,0,13956,0:0:0:0:
18,132,17733,6,0,P|58:98|135:90,1,110,6|0,3:2|0:0,0:0:0:0:
209,33,18572,2,0,B|230:65|230:65|216:153,1,110,8|0,0:0|0:0,0:0:0:0:
177,172,19201,1,0,3:0:0:0:
256,248,19621,1,0,3:0:0:0:
256,248,19831,2,0,L|381:230,1,110,0|8,3:0|0:0,0:0:0:0:
410,201,20460,2,0,P|392:232|376:327,1,110,0|0,3:0|3:0,0:0:0:0:
492,79,24446,6,0,B|457:100|457:100|378:80,1,110,6|0,3:2|0:0,0:0:0:0:
295,25,25285,2,0,L|182:44,1,110,8|0,0:0|0:0,0:0:0:0:
136,19,25915,1,0,3:0:0:0:
58,96,26334,1,0,3:0:0:0:
58,96,26544,2,0,P|33:124|8:203,1,110,0|8,3:0|0:0,0:0:0:0:
55,221,27173,2,0,P|75:270|93:337,1,110,0|0,3:0|3:0,0:0:0:0:
442,309,31159,6,0,L|320:293,1,110,6|0,3:2|0:0,0:0:0:0:
277,288,31789,1,0,0:0:0:0:
277,288,31998,2,0,L|289:228,1,55,10|0,0:0|0:0,0:0:0:0:
297,179,32418,2,0,B|209:144|165:235|73:165,1,220,10|0,0:0|3:0,0:0:0:0:
29,77,33677,2,0,L|41:8,2,55,8|0|0,0:0|3:0|0:0,0:0:0:0:
2,125,34306,1,0,3:0:0:0:
171,353,37873,6,0,B|146:323|146:323|166:222,1,121.000003692627,6|0,3:2|0:0,0:0:0:0:
212,209,38502,1,0,0:0:0:0:
212,209,38712,2,0,L|196:76,1,121.000003692627,8|0,0:0|0:0,0:0:0:0:
287,7,39551,2,0,P|315:25|359:32,1,60.5000018463135,0|0,0:0|3:0,0:0:0:0:
399,17,39970,1,0,3:0:0:0:
478,108,40390,1,8,0:0:0:0:
393,194,40810,1,2,0:0:0:0:
474,283,41229,6,0,P|435:315|349:304,1,121.000003692627,2|2,3:2|0:0,0:0:0:0:
314,297,41859,1,2,0:0:0:0:
314,297,42068,1,10,0:0:0:0:
211,361,42488,1,2,0:0:0:0:
117,283,42908,2,0,L|171:240,1,60.5000018463135,2|2,0:0|3:2,0:0:0:0:
222,227,43327,2,0,P|212:198|204:158,1,60.5000018463135,2|2,3:2|0:0,0:0:0:0:
236,116,43747,1,10,0:0:0:0:
194,2,44166,1,2,0:0:0:0:
77,35,44586,6,0,P|31:75|25:150,1,121.000003692627,2|0,3:2|0:0,0:0:0:0:
73,171,45215,1,0,0:0:0:0:
73,171,45425,2,0,L|54:305,1,121.000003692627,8|0,0:0|0:0,0:0:0:0:
158,354,46264,2,0,P|194:331|223:325,1,60.5000018463135,0|0,0:0|3:0,0:0:0:0:
266,351,46684,1,0,3:0:0:0:
338,253,47103,1,8,0:0:0:0:
249,169,47523,1,2,0:0:0:0:
311,65,47943,6,0,B|349:97|349:97|428:83,1,121.000003692627,2|2,3:2|0:0,0:0:0:0:
481,72,48572,1,2,0:0:0:0:
481,72,48782,1,10,0:0:0:0:
510,189,49201,1,2,0:0:0:0:
479,306,49621,2,0,L|395:287,1,60.5000018463135,2|2,0:0|3:2,0:0:0:0:
378,248,50040,2,0,L|294:267,1,60.5000018463135,2|2,3:2|0:0,0:0:0:0:
260,276,50460,2,0,P|279:305|292:350,2,60.5000018463135,10|2|2,0:0|3:2|0:0,0:0:0:0:
146,233,51299,6,0,P|153:178|186:107,1,121.000003692627,2|0,3:2|0:0,0:0:0:0:
271,39,52138,2,0,P|295:94|307:153,1,121.000003692627,10|0,0:0|0:0,0:0:0:0:
315,274,52977,2,0,B|354:251|354:251|449:268,2,121.000003692627,2|2|10,0:0|3:2|0:0,0:0:0:0:
222,352,54236,1,0,0:0:0:0:
125,278,54656,6,0,L|-10:266,1,121.000003692627,2|2,3:2|0:0,0:0:0:0:
65,162,55495,2,0,L|200:150,1,121.000003692627,10|2,0:0|0:0,0:0:0:0:
296,198,56334,2,0,P|313:167|320:137,1,60.5000018463135,2|0,0:0|3:0,0:0:0:0:
308,82,56754,2,0,P|365:105|436:91,2,121.000003692627,2|10|2,3:2|0:0|0:0,0:0:0:0:
261,43,57803,1,0,3:0:0:0:
261,43,58012,5,0,0:0:0:0:
144,11,58432,1,0,0:0:0:0:
52,90,58852,6,0,L|78:212,1,121.000003692627,14|0,0:0|0:0,0:0:0:0:
36,322,59691,2,0,L|113:312,1,60.5000018463135,0|0,0:0|3:0,0:0:0:0:
155,305,60110,1,0,3:0:0:0:
263,359,60530,1,8,0:0:0:0:
353,279,60950,1,2,0:0:0:0:
446,355,61369,6,0,P|467:322|471:289,1,60.5000018463135,2|2,3:2|0:0,0:0:0:0:
443,247,61789,2,0,P|429:219|429:183,1,60.5000018463135,2|2,0:0|0:0,0:0:0:0:
433,129,62208,2,0,B|403:144|403:144|306:129,1,121.000003692627,10|0,0:0|0:0,0:0:0:0:
209,186,63047,2,0,L|204:123,1,60.5000018463135,2|2,0:0|3:2,0:0:0:0:
154,90,63467,2,0,L|169:25,1,60.5000018463135,2|2,3:2|0:0,0:0:0:0:
226,16,63887,2,0,P|279:45|341:35,1,121.000003692627,10|0,0:0|0:0,0:0:0:0:
392,12,64516,1,0,3:0:0:0:
211,346,68082,6,0,L|92:333,1,110,6|0,3:2|0:0,0:0:0:0:
50,343,68712,1,0,0:0:0:0:
50,343,68922,2,0,P|72:296|70:231,1,110,8|0,0:0|0:0,0:0:0:0:
24,211,69551,1,0,3:0:0:0:
70,111,69970,1,0,3:0:0:0:
70,111,70180,2,0,B|97:126|97:126|181:101,1,110,0|8,3:0|0:0,0:0:0:0:
195,53,70810,2,0,L|313:60,1,110,0|0,3:0|3:0,0:0:0:0:
347,25,71439,5,2,3:2:0:0:
415,111,71859,1,2,0:0:0:0:
335,186,72278,2,0,L|351:299,1,110,10|2,0:0|0:0,0:0:0:0:
357,349,72908,1,0,3:0:0:0:
465,367,73327,1,8,0:0:0:0:
465,367,73537,2,0,L|449:258,1,110,2|10,3:2|0:0,0:0:0:0:
441,203,74166,1,2,3:2:0:0:
490,104,74586,1,2,3:2:0:0:
490,104,74796,6,0,L|376:91,1,110,6|0,3:2|0:0,0:0:0:0:
285,36,75635,2,0,P|239:3|172:4,1,110,8|0,0:0|0:0,0:0:0:0:
151,41,76264,1,0,3:0:0:0:
230,124,76684,1,0,3:0:0:0:
230,124,76894,2,0,L|215:241,1,110,0|8,3:0|0:0,0:0:0:0:
230,286,77523,2,0,P|204:257|126:247,1,110,0|0,3:0|3:0,0:0:0:0:
44,368,81509,6,0,B|22:342|22:342|44:251,1,110,6|0,3:2|0:0,0:0:0:0:
127,201,82348,2,0,L|108:92,1,110,8|0,0:0|0:0,0:0:0:0:
97,38,82977,1,0,3:0:0:0:
207,13,83397,1,2,3:2:0:0:
207,13,83607,2,0,L|217:73,1,55,2|2,3:2|0:0,0:0:0:0:
227,125,84026,1,10,0:0:0:0:
227,125,84236,2,0,P|277:146|345:138,1,110,0|0,3:2|3:0,0:0:0:0:
467,347,88222,6,0,L|348:323,1,110,6|0,3:2|0:0,0:0:0:0:
250,343,89061,2,0,B|276:315|276:315|256:235,1,110,8|2,0:0|0:0,0:0:0:0:
209,218,89691,1,2,3:2:0:0:
209,218,89901,2,0,L|224:162,1,55,2|2,0:0|3:2,0:0:0:0:
269,135,90320,2,0,L|335:145,1,55,2|2,3:2|0:0,0:0:0:0:
378,151,90740,1,10,0:0:0:0:
440,60,91159,1,2,0:0:0:0:
338,17,91579,6,0,L|283:8,1,55,2|2,3:2|0:0,0:0:0:0:
228,5,91998,1,2,0:0:0:0:
122,35,92418,2,0,P|133:65|143:100,1,55,10|2,0:0|0:0,0:0:0:0:
104,129,92838,1,2,0:0:0:0:
104,129,93047,2,0,P|85:179|71:234,1,110,2|2,3:2|3:2,0:0:0:0:
47,283,93677,1,2,3:2:0:0:
141,336,94096,2,0,L|253:309,1,110,10|2,0:0|0:0,0:0:0:0:
281,266,94726,1,2,3:2:0:0:
281,266,94936,6,0,L|396:277,1,110,2|0,3:2|0:0,0:0:0:0:
495,242,95775,1,8,0:0:0:0:
482,132,96194,2,0,P|489:105|501:80,2,55,2|2|2,0:0|3:2|0:0,0:0:0:0:
428,144,96823,1,2,3:2:0:0:
392,102,97033,2,0,P|367:87|330:84,1,55,2|2,3:2|0:0,0:0:0:0:
286,88,97453,1,10,0:0:0:0:
189,34,97873,1,2,0:0:0:0:
85,71,98292,6,0,B|135:139|66:204|66:204|181:212|135:263|236:253,1,330,2|0,0:0|0:0,0:0:0:0:
286,157,99970,2,0,P|254:112|246:43,2,110,2|0|0,0:0|0:0|0:0,0:0:0:0:
358,239,101229,1,0,0:0:0:0:
313,351,101649,6,0,P|266:319|188:314,1,121.000003692627,6|0,3:2|0:0,0:0:0:0:
150,334,102278,1,0,0:0:0:0:
150,334,102488,2,0,P|109:364|27:363,1,121.000003692627,8|0,0:0|0:0,0:0:0:0:
3,252,103327,2,0,L|23:183,1,60.5000018463135,0|0,0:0|3:0,0:0:0:0:
65,154,103747,2,0,L|58:82,1,60.5000018463135,0|0,3:0|0:0,0:0:0:0:
101,50,104166,1,8,0:0:0:0:
201,117,104586,1,2,0:0:0:0:
311,65,105005,6,0,B|351:86|351:86|441:65,1,121.000003692627,2|2,3:2|0:0,0:0:0:0:
484,48,105635,1,2,0:0:0:0:
484,48,105845,1,10,0:0:0:0:
434,158,106264,1,2,0:0:0:0:
486,267,106684,2,0,P|463:292|424:296,1,60.5000018463135,2|2,0:0|3:2,0:0:0:0:
384,325,107103,2,0,P|346:322|314:297,1,60.5000018463135,2|2,3:2|0:0,0:0:0:0:
304,254,107523,1,10,0:0:0:0:
182,263,107943,1,2,0:0:0:0:
183,383,108362,6,0,L|40:376,1,121.000003692627,2|0,3:2|0:0,0:0:0:0:
10,358,108991,1,0,0:0:0:0:
10,358,109201,2,0,P|-10:319|11:228,1,121.000003692627,8|0,0:0|0:0,0:0:0:0:
82,156,110040,2,0,L|152:166,1,60.5000018463135,0|0,0:0|3:0,0:0:0:0:
178,213,110460,2,0,L|243:213,1,60.5000018463135,0|0,3:0|0:0,0:0:0:0:
285,252,110880,1,8,0:0:0:0:
387,210,111299,1,2,0:0:0:0:
387,88,111719,6,0,P|357:60|265:52,1,121.000003692627,2|2,3:2|0:0,0:0:0:0:
238,90,112348,1,2,0:0:0:0:
238,90,112558,1,10,0:0:0:0:
137,22,112977,1,2,0:0:0:0:
39,93,113397,2,0,P|52:120|60:153,1,60.5000018463135,2|2,0:0|3:2,0:0:0:0:
108,185,113817,2,0,P|95:212|87:245,1,60.5000018463135,2|2,3:2|0:0,0:0:0:0:
76,300,114236,2,0,L|3:287,2,60.5000018463135,10|2|2,0:0|3:2|0:0,0:0:0:0:
172,373,115075,6,0,L|246:362,1,60.5000018463135,2|0,3:2|0:0,0:0:0:0:
292,371,115495,1,0,0:0:0:0:
332,256,115915,2,0,P|311:214|282:199,1,60.5000018463135,10|0,0:0|0:0,0:0:0:0:
268,155,116334,2,0,P|241:141|211:141,1,60.5000018463135,0|0,0:0|3:0,0:0:0:0:
160,175,116754,2,0,P|107:201|49:186,2,121.000003692627,2|2|10,0:0|3:2|0:0,0:0:0:0:
230,76,118012,1,0,0:0:0:0:
326,149,118432,6,0,B|359:157|359:157|406:146,1,60.5000018463135,2|0,3:2|0:0,0:0:0:0:
440,126,118852,1,2,0:0:0:0:
378,22,119271,2,0,L|314:32,1,60.5000018463135,10|0,0:0|0:0,0:0:0:0:
278,77,119691,2,0,L|215:62,1,60.5000018463135,2|0,0:0|3:0,0:0:0:0:
163,87,120110,1,2,0:0:0:0:
47,49,120530,2,0,P|25:104|27:165,2,121.000003692627,2|10|2,3:2|0:0|0:0,0:0:0:0:
163,87,121789,6,0,L|166:159,2,60.5000018463135
278,77,122628,6,0,P|342:79|410:110,1,121.000003692627,14|0,0:0|0:0,0:0:0:0:
422,217,123467,2,0,L|402:285,1,60.5000018463135,0|0,0:0|3:0,0:0:0:0:
384,332,123887,1,0,3:0:0:0:
273,282,124306,1,8,0:0:0:0:
165,337,124726,1,2,0:0:0:0:
56,283,125145,6,0,P|58:247|71:209,1,60.5000018463135,2|2,3:2|0:0,0:0:0:0:
103,177,125565,2,0,P|101:141|88:103,1,60.5000018463135,2|2,0:0|0:0,0:0:0:0:
53,72,125984,2,0,B|85:86|85:86|173:62,1,121.000003692627,10|0,0:0|0:0,0:0:0:0:
276,8,126824,2,0,L|340:20,1,60.5000018463135,2|2,0:0|3:2,0:0:0:0:
373,66,127243,2,0,L|437:54,1,60.5000018463135,2|2,3:2|0:0,0:0:0:0:
491,38,127663,2,0,P|456:87|466:163,1,121.000003692627,10|0,0:0|0:0,0:0:0:0:
474,198,128292,1,0,3:0:0:0:
