osu file format v14

[General]
AudioFilename: audio.mp3
AudioLeadIn: 0
PreviewTime: 98228
Countdown: 0
SampleSet: Soft
StackLeniency: 0.7
Mode: 0
LetterboxInBreaks: 0
WidescreenStoryboard: 0

[Editor]
Bookmarks: 17721,39329,64714,99958,101637,107511
DistanceSpacing: 0.1
BeatDivisor: 4
GridSize: 16
TimelineZoom: 2.3

[Metadata]
Title:Mine
TitleUnicode:Mine
Artist:Bazzi
ArtistUnicode:Bazzi
Creator:Le Mirai
Version::sweets_together:
Source:
Tags:xahlt Kuon- akane-_ english pop r&b sirmirai Mirai Cacturne sweets Cosmic
BeatmapID:2814117
BeatmapSetID:1359916

[Difficulty]
HPDrainRate:5.6
CircleSize:5
OverallDifficulty:8.6
ApproachRate:9
SliderMultiplier:1.8
SliderTickRate:1

[Events]
//Background and Video events
0,0,"rip wonjae.jpg",0,0
//Break Periods
//Storyboard Layer 0 (Background)
//Storyboard Layer 1 (Fail)
//Storyboard Layer 2 (Pass)
//Storyboard Layer 3 (Foreground)
//Storyboard Layer 4 (Overlay)
//Storyboard Sound Samples

[TimingPoints]
950,419.58041958042,4,2,1,80,1,0
11019,-100,4,2,1,10,0,0
11229,-100,4,2,1,20,0,0
11439,-100,4,2,1,30,0,0
11859,-100,4,2,1,40,0,0
12698,-100,4,2,1,50,0,0
14166,-100,4,2,1,50,0,0
14376,-100,4,2,1,50,0,0
17733,-125,4,2,1,50,0,0
18047,-125,4,2,1,5,0,0
18152,-125,4,2,1,50,0,0
18572,-250,4,2,1,50,0,0
18887,-250,4,2,1,5,0,0
18991,-125,4,2,1,50,0,0
21089,-125,4,2,1,50,0,0
21929,-142.857142857143,4,2,1,50,0,0
22768,-166.666666666667,4,2,1,50,0,0
23607,-200,4,2,1,50,0,0
24446,-125,4,2,1,50,0,0
24761,-125,4,2,1,5,0,0
24866,-125,4,2,1,50,0,0
25285,-250,4,2,1,50,0,0
25600,-250,4,2,1,5,0,0
25705,-125,4,2,1,50,0,0
27803,-125,4,2,1,50,0,0
28642,-142.857142857143,4,2,1,50,0,0
29481,-166.666666666667,4,2,1,50,0,0
30320,-200,4,2,1,50,0,0
31159,-125,4,2,1,50,0,0
31998,-100,4,2,1,50,0,0
32418,-125,4,2,1,50,0,0
32523,-125,4,2,1,5,0,0
32628,-125,4,2,1,50,0,0
34516,-83.3333333333333,4,2,1,50,0,0
37768,-83.3333333333333,4,2,1,5,0,0
37873,-71.4285714285714,4,2,1,80,0,1
38187,-71.4285714285714,4,2,1,5,0,1
38292,-250,4,2,1,80,0,1
38607,-250,4,2,1,5,0,1
38712,-83.3333333333333,4,2,1,80,0,1
39026,-83.3333333333333,4,2,1,5,0,1
39131,-83.3333333333333,4,2,1,80,0,1
40180,-111.111111111111,4,2,1,80,0,1
40390,-83.3333333333333,4,2,1,80,0,1
40810,-83.3333333333333,4,2,1,80,0,1
41019,-83.3333333333333,4,2,1,80,0,1
41229,-71.4285714285714,4,2,1,80,0,1
41544,-71.4285714285714,4,2,1,5,0,1
41649,-83.3333333333333,4,2,1,80,0,1
43537,-111.111111111111,4,2,1,80,0,1
43747,-83.3333333333333,4,2,1,80,0,1
44586,-71.4285714285714,4,2,1,80,0,1
44901,-71.4285714285714,4,2,1,5,0,1
45005,-250,4,2,1,80,0,1
45320,-250,4,2,1,5,0,1
45425,-83.3333333333333,4,2,1,80,0,1
45740,-83.3333333333333,4,2,1,5,0,1
45845,-83.3333333333333,4,2,1,80,0,1
46894,-111.111111111111,4,2,1,80,0,1
47103,-83.3333333333333,4,2,1,80,0,1
47523,-83.3333333333333,4,2,1,80,0,1
47733,-83.3333333333333,4,2,1,80,0,1
47943,-71.4285714285714,4,2,1,80,0,1
48257,-71.4285714285714,4,2,1,5,0,1
48362,-83.3333333333333,4,2,1,80,0,1
51299,-71.4285714285714,4,2,1,80,0,1
51614,-71.4285714285714,4,2,1,5,0,1
51719,-250,4,2,1,80,0,1
52033,-250,4,2,1,80,0,1
52138,-71.4285714285714,4,2,1,80,0,1
52453,-71.4285714285714,4,2,1,5,0,1
52558,-71.4285714285714,4,2,1,80,0,1
53607,-83.3333333333333,4,2,1,80,0,1
54656,-71.4285714285714,4,2,1,80,0,1
54970,-71.4285714285714,4,2,1,5,0,1
55075,-71.4285714285714,4,2,1,80,0,1
58012,-83.3333333333333,4,2,1,80,0,0
58327,-83.3333333333333,4,2,1,80,0,0
58432,-83.3333333333333,4,2,1,80,0,0
58747,-83.3333333333333,4,2,1,80,0,0
58852,-71.4285714285714,4,2,1,80,0,1
59166,-71.4285714285714,4,2,1,5,0,1
59271,-71.4285714285714,4,2,1,80,0,1
60950,-71.4285714285714,4,2,1,80,0,1
61159,-71.4285714285714,4,2,1,80,0,1
62208,-71.4285714285714,4,2,1,80,0,1
62523,-71.4285714285714,4,2,1,5,0,1
62628,-83.3333333333333,4,2,1,80,0,1
64306,-83.3333333333333,4,2,1,80,0,1
64726,-125,4,2,1,60,0,0
68082,-125,4,2,1,60,0,0
68397,-125,4,2,1,5,0,0
68502,-125,4,2,1,60,0,0
72278,-250,4,2,1,60,0,0
72593,-250,4,2,1,5,0,0
72698,-250,4,2,1,60,0,0
73852,-250,4,2,1,60,0,0
73956,-250,4,2,1,60,0,0
74796,-125,4,2,1,60,0,0
75110,-125,4,2,1,5,0,0
75215,-125,4,2,1,60,0,0
81509,-125,4,2,1,60,0,0
81824,-125,4,2,1,5,0,0
81929,-125,4,2,1,60,0,0
83397,-100,4,2,1,60,0,0
84866,-125,4,2,1,60,0,0
85705,-142.857142857143,4,2,1,60,0,0
86544,-166.666666666667,4,2,1,60,0,0
87383,-200,4,2,1,60,0,0
88222,-200,4,2,1,60,0,1
88537,-200,4,2,1,60,0,1
88642,-200,4,2,1,60,0,1
89901,-90.9090909090909,4,2,1,60,0,1
90005,-90.9090909090909,4,2,1,5,0,1
90110,-90.9090909090909,4,2,1,60,0,1
90215,-90.9090909090909,4,2,1,5,0,1
90320,-90.9090909090909,4,2,1,60,0,1
91159,-90.9090909090909,4,2,1,60,0,1
91369,-90.9090909090909,4,2,1,60,0,1
92418,-90.9090909090909,4,2,1,60,0,1
92523,-90.9090909090909,4,2,1,5,0,1
92628,-90.9090909090909,4,2,1,60,0,1
92733,-90.9090909090909,4,2,1,5,0,1
92838,-90.9090909090909,4,2,1,60,0,1
94411,-83.3333333333333,4,2,1,60,0,1
94516,-83.3333333333333,4,2,1,60,0,1
97873,-83.3333333333333,4,2,1,60,0,1
98082,-83.3333333333333,4,2,1,60,0,1
98292,-500,4,2,1,60,0,0
99918,-500,4,2,1,5,0,0
99970,-142.857142857143,4,2,1,60,0,0
101596,-125,4,2,1,60,0,0
101649,-71.4285714285714,4,2,1,80,0,1
101963,-83.3333333333333,4,2,1,5,0,1
102068,-100,4,2,1,80,0,1
102383,-100,4,2,1,5,0,1
102488,-166.666666666667,4,2,1,80,0,1
102803,-166.666666666667,4,2,1,5,0,1
102908,-166.666666666667,4,2,1,80,0,1
103956,-83.3333333333333,4,2,1,80,0,1
104586,-83.3333333333333,4,2,1,80,0,1
104796,-83.3333333333333,4,2,1,80,0,1
105005,-71.4285714285714,4,2,1,80,0,1
105320,-71.4285714285714,4,2,1,5,0,1
105425,-83.3333333333333,4,2,1,80,0,1
108362,-71.4285714285714,4,2,1,80,0,1
108677,-83.3333333333333,4,2,1,5,0,1
108782,-100,4,2,1,80,0,1
109096,-100,4,2,1,5,0,1
109201,-166.666666666667,4,2,1,80,0,1
109516,-166.666666666667,4,2,1,5,0,1
109621,-166.666666666667,4,2,1,80,0,1
110670,-83.3333333333333,4,2,1,80,0,1
111299,-83.3333333333333,4,2,1,80,0,1
111509,-83.3333333333333,4,2,1,80,0,1
111719,-71.4285714285714,4,2,1,80,0,1
112033,-71.4285714285714,4,2,1,5,0,1
112138,-83.3333333333333,4,2,1,80,0,1
115075,-71.4285714285714,4,2,1,80,0,1
115390,-71.4285714285714,4,2,1,5,0,1
115495,-333.333333333333,4,2,1,80,0,1
115810,-333.333333333333,4,2,1,80,0,1
115915,-83.3333333333333,4,2,1,80,0,1
116334,-100,4,2,1,80,0,1
117383,-71.4285714285714,4,2,1,80,0,1
118432,-71.4285714285714,4,2,1,80,0,1
118747,-71.4285714285714,4,2,1,5,0,1
118852,-83.3333333333333,4,2,1,80,0,1
121789,-83.3333333333333,4,2,1,80,0,0
121894,-83.3333333333333,4,2,1,5,0,0
121998,-76.9230769230769,4,2,1,80,0,0
122103,-76.9230769230769,4,2,1,5,0,0
122208,-71.4285714285714,4,2,1,80,0,0
122313,-71.4285714285714,4,2,1,5,0,0
122628,-71.4285714285714,4,2,1,80,0,1
122943,-71.4285714285714,4,2,1,5,0,1
123047,-83.3333333333333,4,2,1,80,0,1
123467,-166.666666666667,4,2,1,80,0,1
124726,-166.666666666667,4,2,1,80,0,1
124936,-166.666666666667,4,2,1,80,0,1
128082,-166.666666666667,4,2,1,40,0,1
128292,-166.666666666667,4,2,1,40,0,0

[Colours]
Combo1 : 255,123,123
Combo2 : 0,128,192
Combo3 : 255,128,192
Combo4 : 255,148,96

[HitObjects]
256,192,11019,12,0,13956,0:0:0:0:
469,341,17733,6,0,L|360:330,1,108,6|0,3:2|0:0,0:0:0:0:
361,330,18152,2,0,L|279:321,1,72
168,197,18572,6,0,L|176:265,1,54,8|0,0:0|0:0,0:0:0:0:
175,251,18991,5,0,0:0:0:0:
238,209,19201,1,0,3:0:0:0:
203,116,19411,5,0,0:0:0:0:
301,167,19621,1,0,3:0:0:0:
365,124,19831,1,0,3:0:0:0:
370,200,20040,1,0,0:0:0:0:
296,90,20250,5,8,0:0:0:0:
293,87,20460,1,0,3:0:0:0:
296,84,20670,1,0,0:0:0:0:
298,87,20880,1,0,3:0:0:0:
203,205,21089,6,0,L|115:196,1,72,2|2,0:0|0:0,0:0:0:0:
131,197,21929,6,0,L|193:203,1,62.9999980773926,2|2,0:0|0:0,0:0:0:0:
193,203,22768,6,0,L|139:197,1,53.9999983520508,2|2,0:0|0:0,0:0:0:0:
139,197,23607,6,0,L|183:201,1,45,2|2,0:0|0:0,0:0:0:0:
47,47,24446,6,0,L|156:58,1,108,6|0,3:2|0:0,0:0:0:0:
154,57,24865,2,0,L|236:66,1,72
392,15,25285,2,0,L|384:83,1,54,8|0,0:0|0:0,0:0:0:0:
385,68,25705,5,0,0:0:0:0:
458,53,25915,1,0,3:0:0:0:
472,177,26124,5,0,0:0:0:0:
356,144,26334,1,0,3:0:0:0:
409,198,26544,1,0,3:0:0:0:
429,125,26754,1,0,0:0:0:0:
336,217,26963,5,8,0:0:0:0:
332,213,27173,1,0,3:0:0:0:
336,210,27383,1,0,0:0:0:0:
338,213,27593,1,0,3:0:0:0:
448,344,27803,6,0,L|361:335,1,72,2|2,0:0|0:0,0:0:0:0:
376,336,28643,6,0,L|438:342,1,62.9999980773926,2|2,0:0|0:0,0:0:0:0:
438,342,29482,6,0,L|363:334,1,53.9999983520508,2|2,0:0|0:0,0:0:0:0:
384,336,30321,6,0,L|428:341,1,45,2|2,0:0|0:0,0:0:0:0:
199,363,31159,6,0,L|213:217,1,144,6|0,3:2|0:0,0:0:0:0:
224,145,31789,1,0,0:0:0:0:
106,52,31998,2,0,L|117:168,1,90,10|0,0:0|0:0,0:0:0:0:
224,145,32418,6,0,L|227:109,1,36,10|0,0:0|0:0,0:0:0:0:
179,69,32628,1,0,3:0:0:0:
32,78,32838,5,0,0:0:0:0:
84,173,33048,1,0,3:0:0:0:
23,219,33257,1,0,3:0:0:0:
13,143,33467,1,0,0:0:0:0:
108,261,33677,5,8,0:0:0:0:
103,256,33887,1,0,3:0:0:0:
108,253,34097,1,0,0:0:0:0:
110,256,34307,1,0,3:0:0:0:
28,362,34516,5,2,0:0:0:0:
256,192,36194,12,0,37768,0:0:0:0:
28,362,37873,6,0,P|172:320|253:340,1,188.999994232178,6|0,3:2|0:0,0:0:0:0:
287,339,38292,2,0,P|276:313|268:285,1,54
321,213,38712,6,0,P|287:255|184:217,1,161.999995056153,8|0,0:0|0:0,0:0:0:0:
190,162,39131,5,0,0:0:0:0:
252,195,39341,1,0,3:0:0:0:
123,184,39551,5,0,0:0:0:0:
182,73,39761,1,0,3:0:0:0:
251,127,39970,1,0,3:0:0:0:
316,94,40180,2,0,L|312:51,1,40.4999987640381
429,171,40390,5,8,0:0:0:0:
444,103,40600,1,0,3:0:0:0:
429,171,40810,5,2,0:0:0:0:
444,103,41020,1,0,3:0:0:0:
487,45,41229,6,0,P|445:189|465:270,1,188.999994232178,2|0,3:2|0:0,0:0:0:0:
512,309,41649,2,0,P|480:298|449:301,1,53.9999983520508,2|0,0:0|0:0,0:0:0:0:
449,224,41859,2,0,P|416:233|393:254,1,53.9999983520508,2|0,0:0|0:0,0:0:0:0:
404,363,42068,5,10,0:0:0:0:
398,357,42278,1,0,0:0:0:0:
404,354,42488,1,2,0:0:0:0:
406,357,42698,1,0,3:0:0:0:
331,251,42908,5,2,0:0:0:0:
268,288,43117,1,2,3:2:0:0:
195,237,43327,1,2,3:2:0:0:
144,353,43537,2,0,L|150:406,1,40.4999987640381,2|0,0:0|0:0,0:0:0:0:
23,291,43747,5,10,0:0:0:0:
38,223,43957,1,0,3:0:0:0:
38,223,44166,5,2,0:0:0:0:
53,155,44376,1,0,3:0:0:0:
15,96,44586,6,0,P|159:138|240:118,1,188.999994232178,2|0,3:2|0:0,0:0:0:0:
234,54,45005,2,0,P|207:57|181:63,1,54
105,13,45425,6,0,P|143:81|150:173,1,161.999995056153,8|0,0:0|0:0,0:0:0:0:
126,229,45845,5,0,0:0:0:0:
196,219,46054,1,0,3:0:0:0:
269,297,46264,5,0,0:0:0:0:
251,175,46473,1,0,3:0:0:0:
314,116,46684,1,0,3:0:0:0:
382,158,46894,2,0,L|372:216,1,40.4999987640381
455,346,47103,5,8,0:0:0:0:
387,331,47313,1,0,3:0:0:0:
455,346,47523,5,2,0:0:0:0:
387,331,47733,1,0,3:0:0:0:
338,377,47943,6,0,P|380:233|360:152,1,188.999994232178,2|0,3:2|0:0,0:0:0:0:
433,116,48362,2,0,P|401:126|370:123,1,53.9999983520508,2|0,0:0|0:0,0:0:0:0:
375,197,48572,2,0,P|342:187|319:166,1,53.9999983520508,2|0,0:0|0:0,0:0:0:0:
271,74,48782,5,10,0:0:0:0:
265,80,48992,1,0,0:0:0:0:
271,83,49202,1,2,0:0:0:0:
273,80,49412,1,0,3:0:0:0:
199,166,49621,5,2,0:0:0:0:
134,123,49831,1,2,3:2:0:0:
61,178,50040,1,2,3:2:0:0:
89,273,50250,2,0,L|82:335,1,53.9999983520508,2|0,0:0|0:0,0:0:0:0:
222,275,50460,5,10,0:0:0:0:
204,177,50670,1,2,3:2:0:0:
192,177,50880,5,2,0:0:0:0:
208,274,51089,1,0,3:0:0:0:
299,321,51299,6,0,P|239:288|144:359,1,188.999994232178,2|0,3:2|0:0,0:0:0:0:
146,347,51719,2,0,P|174:342|193:345,1,36
352,377,52138,6,0,P|304:295|365:223,1,188.999994232178,10|0,0:0|0:0,0:0:0:0:
428,244,52558,5,0,0:0:0:0:
381,302,52768,1,0,3:0:0:0:
407,172,52977,5,2,0:0:0:0:
508,236,53187,1,0,3:0:0:0:
467,328,53397,1,2,3:2:0:0:
496,172,53607,2,0,L|489:110,1,53.9999983520508
331,36,53817,5,10,0:0:0:0:
323,109,54026,1,0,3:0:0:0:
333,116,54236,5,0,0:0:0:0:
341,43,54445,1,0,3:0:0:0:
363,176,54656,6,0,P|304:132|197:152,1,188.999994232178,2|0,3:2|0:0,0:0:0:0:
117,236,55075,2,0,P|130:201|128:170,1,62.9999980773926,2|0,0:0|0:0,0:0:0:0:
196,152,55285,2,0,P|185:116|166:92,1,62.9999980773926
45,35,55495,5,10,0:0:0:0:
39,41,55705,1,0,0:0:0:0:
45,44,55915,1,2,0:0:0:0:
47,41,56125,1,0,3:0:0:0:
13,142,56334,5,2,0:0:0:0:
61,193,56544,1,0,3:0:0:0:
20,302,56754,5,2,3:2:0:0:
109,244,56964,1,0,0:0:0:0:
178,330,57173,5,10,0:0:0:0:
174,359,57383,1,0,3:0:0:0:
240,303,57593,1,2,0:0:0:0:
237,289,57803,1,0,3:0:0:0:
299,334,58012,6,0,L|296:366,4,26.9999991760254
368,270,58432,6,0,L|365:238,4,26.9999991760254
330,90,58852,6,0,P|367:175|367:269,1,188.999994232178,14|0,0:0|0:0,0:0:0:0:
395,343,59271,5,0,0:0:0:0:
442,287,59481,1,0,3:0:0:0:
297,259,59691,5,0,0:0:0:0:
275,167,59901,1,0,3:0:0:0:
450,126,60110,5,0,3:0:0:0:
427,197,60320,1,0,0:0:0:0:
226,111,60530,5,8,0:0:0:0:
294,96,60740,1,0,3:0:0:0:
226,111,60950,5,2,0:0:0:0:
294,96,61160,1,0,3:0:0:0:
160,170,61369,5,2,3:2:0:0:
115,118,61579,1,2,0:0:0:0:
59,245,61789,5,2,0:0:0:0:
89,183,61999,1,2,0:0:0:0:
142,273,62208,6,0,P|94:270|40:382,1,188.999994232178,10|0,0:0|0:0,0:0:0:0:
115,350,62628,5,0,0:0:0:0:
205,328,62838,1,0,3:0:0:0:
287,361,63047,5,2,0:0:0:0:
232,253,63257,1,2,3:2:0:0:
316,203,63467,5,2,3:2:0:0:
372,267,63677,2,0,L|365:326,1,53.9999983520508,2|0,0:0|0:0,0:0:0:0:
452,213,63887,5,10,0:0:0:0:
448,196,64096,1,0,3:0:0:0:
389,132,64306,1,0,0:0:0:0:
393,149,64516,1,0,3:0:0:0:
485,32,64726,5,2,0:0:0:0:
454,123,68082,6,0,L|333:112,1,108,6|0,3:2|0:0,0:0:0:0:
346,113,68502,2,0,L|424:120,1,72
487,219,68922,5,8,0:0:0:0:
423,268,69131,1,0,0:0:0:0:
310,235,69341,5,0,0:0:0:0:
355,311,69551,1,0,3:0:0:0:
310,235,69761,5,0,0:0:0:0:
355,311,69971,1,0,3:0:0:0:
296,377,70180,5,0,3:0:0:0:
214,341,70390,1,0,0:0:0:0:
176,224,70600,5,8,0:0:0:0:
172,241,70809,1,0,3:0:0:0:
124,304,71019,1,0,0:0:0:0:
120,287,71229,1,0,3:0:0:0:
44,143,71439,5,2,3:2:0:0:
117,119,71649,1,2,0:0:0:0:
190,143,71859,1,2,0:0:0:0:
263,119,72068,1,2,0:0:0:0:
199,17,72278,6,0,L|207:85,1,54,10|0,0:0|0:0,0:0:0:0:
206,70,72698,5,2,0:0:0:0:
294,51,72908,1,0,3:0:0:0:
206,70,73117,6,0,L|211:115,1,36,2|8,0:0|0:0,0:0:0:0:
371,96,73537,2,0,L|366:131,1,36,2|0,3:2|0:0,0:0:0:0:
440,25,73956,5,10,0:0:0:0:
468,111,74166,1,2,3:2:0:0:
497,245,74376,5,2,0:0:0:0:
416,226,74586,1,2,3:2:0:0:
506,227,74796,6,0,P|493:270|487:343,1,108,6|0,3:2|0:0,0:0:0:0:
421,368,75215,5,0,0:0:0:0:
424,355,75425,1,0,0:0:0:0:
323,239,75635,5,8,0:0:0:0:
338,304,75845,1,0,0:0:0:0:
249,384,76054,5,0,0:0:0:0:
272,285,76264,1,0,3:0:0:0:
249,384,76474,5,0,0:0:0:0:
272,285,76684,1,0,3:0:0:0:
172,313,76894,5,0,3:0:0:0:
175,326,77104,1,0,0:0:0:0:
71,216,77313,5,8,0:0:0:0:
126,164,77523,1,0,3:0:0:0:
176,208,77733,1,0,0:0:0:0:
123,150,77943,1,0,3:0:0:0:
56,353,78152,5,0,0:0:0:0:
56,353,81299,5,0,0:0:0:0:
76,324,81404,1,0,0:0:0:0:
73,318,81509,6,0,P|126:337|185:319,1,108,6|0,3:2|0:0,0:0:0:0:
174,325,81929,2,0,P|123:337|78:318,1,72
35,190,82348,5,8,0:0:0:0:
44,256,82558,1,0,0:0:0:0:
149,148,82768,5,0,0:0:0:0:
132,266,82978,1,0,3:0:0:0:
35,190,83187,1,0,0:0:0:0:
149,148,83397,6,0,P|177:137|208:143,1,45,2|0,3:2|0:0,0:0:0:0:
287,202,83607,2,0,P|263:183|253:153,1,45,2|0,3:2|0:0,0:0:0:0:
265,56,83817,2,0,P|260:85|239:109,1,45,2|0,0:0|0:0,0:0:0:0:
190,214,84026,5,10,0:0:0:0:
318,141,84236,1,0,3:2:0:0:
395,207,84446,1,0,0:0:0:0:
463,167,84656,1,0,3:0:0:0:
482,353,84866,6,0,L|395:344,1,72,2|2,0:0|0:0,0:0:0:0:
410,345,85705,6,0,L|472:351,1,62.9999980773926,2|2,0:0|0:0,0:0:0:0:
472,351,86545,6,0,L|397:343,1,53.9999983520508,2|2,0:0|0:0,0:0:0:0:
418,345,87384,6,0,L|462:350,1,45,2|2,0:0|0:0,0:0:0:0:
472,65,88222,5,6,3:2:0:0:
428,118,88432,1,0,0:0:0:0:
361,100,88642,1,0,0:0:0:0:
348,32,88852,1,0,0:0:0:0:
249,120,89061,5,8,0:0:0:0:
259,114,89271,1,0,0:0:0:0:
265,124,89481,1,2,0:0:0:0:
254,130,89691,1,2,3:2:0:0:
136,88,89901,6,0,P|144:77|141:86,1,49.5000015106202,2|0,0:0|0:0,0:0:0:0:
50,129,90110,2,0,P|35:119|52:124,1,49.5000015106202,2|0,3:2|0:0,0:0:0:0:
113,206,90320,5,2,3:2:0:0:
119,186,90530,1,2,0:0:0:0:
43,320,90740,5,10,0:0:0:0:
30,244,90950,1,0,3:0:0:0:
43,320,91160,5,2,0:0:0:0:
30,244,91370,1,0,3:0:0:0:
121,346,91579,5,2,3:2:0:0:
188,309,91789,1,2,0:0:0:0:
261,355,91998,1,2,0:0:0:0:
311,269,92208,1,2,0:0:0:0:
404,347,92418,6,0,P|414:362|409:345,1,49.5000015106202,10|0,0:0|0:0,0:0:0:0:
454,248,92628,2,0,P|465:240|456:243,1,49.5000015106202,2|0,0:0|0:0,0:0:0:0:
338,169,92838,5,2,0:0:0:0:
340,185,93047,1,2,3:2:0:0:
432,108,93257,5,2,0:0:0:0:
438,98,93467,1,2,3:2:0:0:
448,105,93677,1,2,3:2:0:0:
440,115,93887,1,2,0:0:0:0:
274,54,94096,5,10,0:0:0:0:
286,125,94306,1,0,0:0:0:0:
136,188,94516,5,2,0:0:0:0:
153,84,94726,1,2,3:2:0:0:
60,226,94936,5,2,3:2:0:0:
116,272,95146,1,0,0:0:0:0:
187,258,95355,1,0,0:0:0:0:
222,194,95565,1,0,0:0:0:0:
42,325,95775,5,8,0:0:0:0:
52,319,95985,1,0,0:0:0:0:
58,329,96195,1,2,0:0:0:0:
47,335,96405,1,2,3:2:0:0:
116,272,96614,5,2,0:0:0:0:
60,226,96824,1,2,3:2:0:0:
100,130,97033,1,2,3:2:0:0:
36,30,97243,1,2,0:0:0:0:
146,179,97453,5,10,0:0:0:0:
165,107,97663,1,2,3:2:0:0:
146,179,97873,5,2,0:0:0:0:
165,107,98083,1,0,3:0:0:0:
17,195,98292,6,0,P|40:240|29:327,1,139.5,2|0,0:0|0:0,0:0:0:0:
29,325,99970,6,0,B|96:175|282:285|193:381|358:369,1,377.999988464356,2|0,0:0|0:0,0:0:0:0:
339,369,101649,6,0,B|346:303|446:304|446:216,1,188.999994232178,6|0,3:2|0:0,0:0:0:0:
498,181,102068,2,0,P|468:212|356:187,1,135
383,65,102488,6,0,P|422:105|422:144,1,80.9999975280763,8|0,0:0|0:0,0:0:0:0:
381,211,102908,5,0,0:0:0:0:
334,144,103117,1,0,3:0:0:0:
214,235,103327,5,0,0:0:0:0:
305,208,103537,1,0,3:0:0:0:
171,146,103747,5,0,3:0:0:0:
105,223,103956,2,0,L|111:284,1,53.9999983520508
49,156,104166,5,8,0:0:0:0:
62,83,104376,1,0,3:0:0:0:
49,156,104586,5,2,0:0:0:0:
62,83,104796,1,0,3:0:0:0:
15,21,105005,6,0,P|74:43|234:29,1,188.999994232178,2|0,3:2|0:0,0:0:0:0:
303,1,105425,2,0,P|262:-3|240:3,1,53.9999983520508,2|0,0:0|0:0,0:0:0:0:
198,41,105635,2,0,P|181:78|181:101,1,53.9999983520508,2|0,0:0|0:0,0:0:0:0:
257,167,105845,5,10,0:0:0:0:
281,158,106054,1,0,0:0:0:0:
272,134,106264,1,2,0:0:0:0:
248,143,106474,1,0,3:0:0:0:
298,253,106684,5,2,0:0:0:0:
192,208,106894,1,2,3:2:0:0:
113,242,107103,1,2,3:2:0:0:
31,196,107313,2,0,L|44:249,1,53.9999983520508,2|0,0:0|0:0,0:0:0:0:
155,356,107523,5,10,0:0:0:0:
116,244,107733,1,0,3:0:0:0:
155,356,107943,5,2,0:0:0:0:
116,244,108153,1,0,3:0:0:0:
65,348,108362,6,0,P|120:276|212:294,1,188.999994232178,2|0,3:2|0:0,0:0:0:0:
256,344,108782,2,0,P|217:312|253:219,1,135
340,238,109201,6,0,P|300:277|261:277,1,80.9999975280763,8|0,0:0|0:0,0:0:0:0:
228,235,109621,5,0,0:0:0:0:
277,279,109831,1,0,3:0:0:0:
271,134,110040,5,0,0:0:0:0:
180,177,110250,1,0,3:0:0:0:
257,65,110460,5,0,3:0:0:0:
332,168,110670,2,0,L|327:227,1,53.9999983520508
425,155,110880,5,8,0:0:0:0:
412,82,111090,1,0,3:0:0:0:
425,155,111299,5,2,0:0:0:0:
412,82,111510,1,0,3:0:0:0:
486,34,111719,6,0,P|427:56|267:42,1,188.999994232178,2|0,3:2|0:0,0:0:0:0:
186,26,112138,2,0,P|210:12|264:33,1,53.9999983520508,2|0,0:0|0:0,0:0:0:0:
302,54,112348,2,0,P|322:73|319:131,1,53.9999983520508,2|0,0:0|0:0,0:0:0:0:
208,178,112558,5,10,0:0:0:0:
232,169,112768,1,0,0:0:0:0:
241,193,112978,1,2,0:0:0:0:
217,202,113187,1,0,3:0:0:0:
314,259,113397,5,2,0:0:0:0:
301,164,113607,1,2,3:2:0:0:
397,226,113817,5,2,3:2:0:0:
407,154,114027,1,2,0:0:0:0:
481,312,114236,5,10,0:0:0:0:
389,298,114446,1,2,3:2:0:0:
481,312,114656,5,2,0:0:0:0:
389,298,114866,1,0,3:0:0:0:
512,375,115075,6,0,P|454:335|334:363,1,188.999994232178,2|0,3:2|0:0,0:0:0:0:
342,355,115495,2,0,P|341:337|346:319,1,26.9999991760254
208,378,115915,6,0,P|225:287|201:173,1,161.999995056153,10|0,0:0|0:0,0:0:0:0:
171,116,116334,5,0,0:0:0:0:
216,218,116544,1,0,3:0:0:0:
49,206,116754,5,2,0:0:0:0:
159,117,116963,1,0,3:0:0:0:
3,139,117173,5,2,3:2:0:0:
120,218,117383,2,0,L|115:285,1,62.9999980773926
36,326,117593,5,10,0:0:0:0:
115,280,117803,1,0,3:0:0:0:
36,326,118012,5,0,0:0:0:0:
115,280,118222,1,0,3:0:0:0:
94,379,118432,6,0,P|161:313|281:352,1,188.999994232178,2|0,3:2|0:0,0:0:0:0:
359,350,118852,2,0,P|335:323|338:278,1,53.9999983520508,2|0,0:0|0:0,0:0:0:0:
278,254,119061,2,0,P|296:222|339:211,1,53.9999983520508
412,231,119271,5,10,0:0:0:0:
436,222,119481,1,0,0:0:0:0:
445,246,119691,1,2,0:0:0:0:
421,255,119900,1,0,3:0:0:0:
333,143,120110,5,2,0:0:0:0:
214,170,120320,1,0,3:0:0:0:
146,55,120530,5,2,3:2:0:0:
263,99,120740,1,0,0:0:0:0:
77,176,120950,5,10,0:0:0:0:
56,88,121159,1,0,3:0:0:0:
77,176,121369,5,2,0:0:0:0:
56,88,121578,1,0,3:0:0:0:
13,261,121789,6,0,L|76:253,1,53.9999983520508
140,242,121998,6,0,L|203:234,1,58.4999973220826
271,224,122208,6,0,L|334:216,1,62.9999980773926
334,226,122628,6,0,L|141:252,1,188.999994232178,14|0,0:0|0:0,0:0:0:0:
207,308,123047,6,0,L|287:297,1,53.9999983520508
366,350,123257,1,0,3:0:0:0:
445,217,123467,5,0,0:0:0:0:
431,299,123677,1,0,3:0:0:0:
509,163,123887,5,0,3:0:0:0:
389,108,124096,1,0,0:0:0:0:
268,199,124306,5,8,0:0:0:0:
281,132,124516,1,0,3:0:0:0:
268,199,124726,5,2,0:0:0:0:
281,132,124936,1,0,3:0:0:0:
173,73,125145,5,2,3:2:0:0:
190,149,125355,1,2,0:0:0:0:
91,41,125565,5,2,0:0:0:0:
72,162,125775,1,2,0:0:0:0:
241,208,125984,5,10,0:0:0:0:
157,219,126194,1,0,0:0:0:0:
241,208,126404,5,0,0:0:0:0:
157,219,126614,1,0,3:0:0:0:
310,338,126824,5,2,0:0:0:0:
336,267,127033,1,2,3:2:0:0:
209,265,127243,5,2,3:2:0:0:
240,363,127452,1,2,0:0:0:0:
307,197,127663,6,0,L|300:133,1,53.9999983520508,10|0,0:0|3:0,0:0:0:0:
457,299,128082,2,0,L|462:245,1,54,0|0,0:0|3:0,0:0:0:0:
