osu file format v14

[General]
AudioFilename: audio.mp3
AudioLeadIn: 0
PreviewTime: 98228
Countdown: 0
SampleSet: Soft
StackLeniency: 0.7
Mode: 0
LetterboxInBreaks: 0
WidescreenStoryboard: 1

[Editor]
Bookmarks: 17721,37861,39329,49189,64714,78140,78245,78350,78455,78560,78665,78770,78875,78979,79084,79189,79294,79399,79504,79609,79714,79819,79924,80028,80133,80238,80343,80448,80553,80658,80763,99958,101637,104154,107511,121777
DistanceSpacing: 1.2
BeatDivisor: 3
GridSize: 32
TimelineZoom: 1.8

[Metadata]
Title:Mine
TitleUnicode:Mine
Artist:Bazzi
ArtistUnicode:Bazzi
Creator:Le Mirai
Version::akane-_hard:
Source:
Tags:xahlt Kuon- akane-_ english pop r&b sirmirai Mirai Cacturne sweets Cosmic
BeatmapID:2870670
BeatmapSetID:1359916

[Difficulty]
HPDrainRate:5
CircleSize:3.7
OverallDifficulty:6
ApproachRate:7.7
SliderMultiplier:1.4
SliderTickRate:1

[Events]
//Background and Video events
0,0,"rip wonjae.jpg",0,0
//Break Periods
2,78143,80714
2,98492,100854
//Storyboard Layer 0 (Background)
//Storyboard Layer 1 (Fail)
//Storyboard Layer 2 (Pass)
//Storyboard Layer 3 (Foreground)
//Storyboard Layer 4 (Overlay)
//Storyboard Sound Samples

[TimingPoints]
950,419.58041958042,4,2,1,80,1,0
11019,-100,4,2,1,10,0,0
11229,-100,4,2,1,20,0,0
11439,-100,4,2,1,30,0,0
11859,-100,4,2,1,40,0,0
12698,-100,4,2,1,50,0,0
13956,-100,4,2,1,50,0,0
14166,-100,4,2,1,50,0,0
14376,-100,4,2,1,50,0,0
17733,-90.9090909090909,4,2,1,50,0,1
18047,-90.9090909090909,4,2,1,50,0,1
18152,-90.9090909090909,4,2,1,50,0,1
18572,-90.9090909090909,4,2,1,50,0,0
18887,-90.9090909090909,4,2,1,50,0,0
18991,-90.9090909090909,4,2,1,50,0,0
21089,-90.9090909090909,4,2,1,50,0,0
24446,-90.9090909090909,4,2,1,50,0,1
24761,-90.9090909090909,4,2,1,50,0,1
24866,-90.9090909090909,4,2,1,50,0,1
25285,-90.9090909090909,4,2,1,50,0,0
25600,-90.9090909090909,4,2,1,50,0,0
25705,-90.9090909090909,4,2,1,50,0,0
27803,-90.9090909090909,4,2,1,50,0,0
31159,-90.9090909090909,4,2,1,50,0,1
31474,-90.9090909090909,4,2,1,50,0,1
31579,-90.9090909090909,4,2,1,50,0,1
31998,-90.9090909090909,4,2,1,50,0,0
32313,-90.9090909090909,4,2,1,50,0,0
32418,-90.9090909090909,4,2,1,50,0,0
34516,-90.9090909090909,4,2,1,50,0,0
37768,-90.9090909090909,4,2,1,50,0,0
37873,-90.9090909090909,4,2,1,80,0,1
38187,-90.9090909090909,4,2,1,80,0,1
38292,-90.9090909090909,4,2,1,80,0,1
38607,-90.9090909090909,4,2,1,80,0,1
38712,-90.9090909090909,4,2,1,80,0,1
39026,-90.9090909090909,4,2,1,80,0,1
39131,-90.9090909090909,4,2,1,80,0,1
40810,-90.9090909090909,4,2,1,80,0,1
41019,-90.9090909090909,4,2,1,80,0,1
41544,-90.9090909090909,4,2,1,80,0,1
41649,-90.9090909090909,4,2,1,80,0,1
44901,-90.9090909090909,4,2,1,80,0,1
45005,-90.9090909090909,4,2,1,80,0,1
45320,-90.9090909090909,4,2,1,80,0,1
45425,-90.9090909090909,4,2,1,80,0,1
45740,-90.9090909090909,4,2,1,80,0,1
45845,-90.9090909090909,4,2,1,80,0,1
47523,-90.9090909090909,4,2,1,80,0,1
47733,-90.9090909090909,4,2,1,80,0,1
48257,-90.9090909090909,4,2,1,80,0,1
48362,-90.9090909090909,4,2,1,80,0,1
51614,-90.9090909090909,4,2,1,80,0,1
51719,-90.9090909090909,4,2,1,80,0,1
52033,-90.9090909090909,4,2,1,80,0,1
52138,-90.9090909090909,4,2,1,80,0,1
52453,-90.9090909090909,4,2,1,80,0,1
52558,-90.9090909090909,4,2,1,80,0,1
54970,-90.9090909090909,4,2,1,80,0,1
55075,-90.9090909090909,4,2,1,80,0,1
58012,-90.9090909090909,4,2,1,80,0,0
58327,-90.9090909090909,4,2,1,80,0,0
58432,-90.9090909090909,4,2,1,80,0,0
58747,-90.9090909090909,4,2,1,80,0,0
58852,-90.9090909090909,4,2,1,80,0,1
59166,-90.9090909090909,4,2,1,80,0,1
59271,-90.9090909090909,4,2,1,80,0,1
60950,-90.9090909090909,4,2,1,80,0,1
61159,-90.9090909090909,4,2,1,80,0,1
62523,-90.9090909090909,4,2,1,80,0,1
62628,-90.9090909090909,4,2,1,80,0,1
64306,-90.9090909090909,4,2,1,80,0,1
64726,-90.9090909090909,4,2,1,60,0,0
68082,-90.9090909090909,4,2,1,60,0,0
68397,-90.9090909090909,4,2,1,60,0,0
68502,-90.9090909090909,4,2,1,60,0,0
68922,-90.9090909090909,4,2,1,60,0,0
72593,-90.9090909090909,4,2,1,60,0,0
72698,-90.9090909090909,4,2,1,60,0,0
73852,-90.9090909090909,4,2,1,60,0,0
73956,-90.9090909090909,4,2,1,60,0,0
74796,-90.9090909090909,4,2,1,60,0,0
75110,-90.9090909090909,4,2,1,60,0,0
75215,-90.9090909090909,4,2,1,60,0,0
75635,-90.9090909090909,4,2,1,60,0,0
81509,-90.9090909090909,4,2,1,60,0,0
81824,-90.9090909090909,4,2,1,60,0,0
81929,-90.9090909090909,4,2,1,60,0,0
82348,-90.9090909090909,4,2,1,60,0,0
84866,-90.9090909090909,4,2,1,60,0,0
88222,-90.9090909090909,4,2,1,60,0,0
88537,-90.9090909090909,4,2,1,60,0,0
88642,-90.9090909090909,4,2,1,60,0,0
90005,-90.9090909090909,4,2,1,60,0,0
90110,-90.9090909090909,4,2,1,60,0,0
90215,-90.9090909090909,4,2,1,60,0,0
90320,-90.9090909090909,4,2,1,60,0,0
91159,-90.9090909090909,4,2,1,60,0,0
91369,-90.9090909090909,4,2,1,60,0,0
92523,-90.9090909090909,4,2,1,60,0,0
92628,-90.9090909090909,4,2,1,60,0,0
92733,-90.9090909090909,4,2,1,60,0,0
92838,-90.9090909090909,4,2,1,60,0,0
94411,-90.9090909090909,4,2,1,60,0,0
94516,-90.9090909090909,4,2,1,60,0,0
97873,-90.9090909090909,4,2,1,60,0,0
98082,-90.9090909090909,4,2,1,60,0,0
98292,-90.9090909090909,4,2,1,60,0,0
99918,-90.9090909090909,4,2,1,60,0,0
99970,-90.9090909090909,4,2,1,60,0,0
101596,-90.9090909090909,4,2,1,60,0,0
101649,-90.9090909090909,4,2,1,80,0,1
101963,-90.9090909090909,4,2,1,80,0,1
102068,-90.9090909090909,4,2,1,80,0,1
102383,-90.9090909090909,4,2,1,80,0,1
102488,-90.9090909090909,4,2,1,80,0,1
102803,-90.9090909090909,4,2,1,80,0,1
102908,-90.9090909090909,4,2,1,80,0,1
104586,-90.9090909090909,4,2,1,80,0,1
104796,-90.9090909090909,4,2,1,80,0,1
105320,-90.9090909090909,4,2,1,80,0,1
105425,-90.9090909090909,4,2,1,80,0,1
108677,-90.9090909090909,4,2,1,80,0,1
108782,-90.9090909090909,4,2,1,80,0,1
109096,-90.9090909090909,4,2,1,80,0,1
109201,-90.9090909090909,4,2,1,80,0,1
109516,-90.9090909090909,4,2,1,80,0,1
109621,-90.9090909090909,4,2,1,80,0,1
111299,-90.9090909090909,4,2,1,80,0,1
111509,-90.9090909090909,4,2,1,80,0,1
112033,-90.9090909090909,4,2,1,80,0,1
112138,-90.9090909090909,4,2,1,80,0,1
115390,-90.9090909090909,4,2,1,80,0,1
115495,-90.9090909090909,4,2,1,80,0,1
115810,-90.9090909090909,4,2,1,80,0,1
115915,-90.9090909090909,4,2,1,80,0,1
118747,-90.9090909090909,4,2,1,80,0,1
118852,-90.9090909090909,4,2,1,80,0,1
121789,-90.9090909090909,4,2,1,80,0,0
121894,-90.9090909090909,4,2,1,80,0,0
121998,-90.9090909090909,4,2,1,80,0,0
122103,-90.9090909090909,4,2,1,80,0,0
122208,-90.9090909090909,4,2,1,80,0,0
122313,-90.9090909090909,4,2,1,80,0,0
122628,-90.9090909090909,4,2,1,80,0,1
122943,-90.9090909090909,4,2,1,80,0,1
123047,-90.9090909090909,4,2,1,80,0,1
124726,-90.9090909090909,4,2,1,80,0,1
124936,-90.9090909090909,4,2,1,80,0,1
128082,-90.9090909090909,4,2,1,40,0,1
128292,-90.9090909090909,4,2,1,40,0,0

[Colours]
Combo1 : 255,123,123
Combo2 : 0,128,192
Combo3 : 255,128,192
Combo4 : 255,148,96

[HitObjects]
256,192,11019,12,0,13956,0:0:0:0:
68,160,14376,5,2,0:0:0:0:
89,65,14586,1,0,0:0:0:0:
188,19,15215,5,2,0:0:0:0:
212,93,15425,1,0,0:0:0:0:
295,69,16054,5,2,0:0:0:0:
311,39,16264,1,0,0:0:0:0:
393,17,16894,5,2,0:0:0:0:
399,35,17103,1,0,0:0:0:0:
491,73,17733,6,0,P|476:114|466:146,1,77.0000023498536,6|0,3:2|0:0,0:0:0:0:
384,188,18152,2,0,P|402:229|419:277,1,77.0000023498536
473,331,18572,2,0,P|453:296|329:283,1,154.000004699707,8|0,0:0|0:0,0:0:0:0:
271,322,19201,2,0,P|235:338|184:328,1,77.0000023498536,0|0,3:0|0:0,0:0:0:0:
128,273,19621,5,0,3:0:0:0:
64,340,19831,2,0,P|24:344|-16:315,1,77.0000023498536,0|0,3:0|0:0,0:0:0:0:
41,247,20250,2,0,L|29:163,1,77.0000023498536,8|0,0:0|3:0,0:0:0:0:
26,80,20670,2,0,B|59:76|59:76|69:67|69:67|115:61,1,77.0000023498536,0|0,0:0|3:0,0:0:0:0:
162,141,21089,5,2,0:0:0:0:
248,85,21299,1,2,0:0:0:0:
336,172,21929,5,2,0:0:0:0:
259,163,22138,1,2,0:0:0:0:
248,85,22768,5,2,0:0:0:0:
267,51,22977,1,2,0:0:0:0:
170,18,23607,5,2,0:0:0:0:
177,44,23817,1,2,0:0:0:0:
76,33,24446,6,0,P|33:105|49:180,1,154.000004699707,6|0,3:2|0:0,0:0:0:0:
93,255,25075,1,0,0:0:0:0:
93,255,25285,2,0,B|196:256|147:212|256:218,1,154.000004699707,8|0,0:0|0:0,0:0:0:0:
320,261,25915,2,0,B|291:292|291:292|299:333,1,77.0000023498536,0|0,3:0|0:0,0:0:0:0:
389,318,26334,5,0,3:0:0:0:
470,274,26544,2,0,L|452:192,1,77.0000023498536,0|0,3:0|0:0,0:0:0:0:
419,112,26963,2,0,P|384:140|342:137,1,77.0000023498536,8|0,0:0|3:0,0:0:0:0:
274,91,27383,2,0,L|287:14,1,77.0000023498536,0|0,0:0|3:0,0:0:0:0:
162,36,27803,5,2,0:0:0:0:
195,128,28012,1,2,0:0:0:0:
117,188,28642,5,2,0:0:0:0:
190,217,28852,1,2,0:0:0:0:
257,269,29481,5,2,0:0:0:0:
241,299,29691,1,2,0:0:0:0:
302,353,30320,5,2,0:0:0:0:
318,341,30530,1,2,0:0:0:0:
461,348,31159,6,0,P|478:258|496:180,1,154.000004699707,6|0,3:2|0:0,0:0:0:0:
487,113,31789,1,0,0:0:0:0:
487,113,31998,2,0,P|449:94|415:106,1,77.0000023498536,10|0,0:0|0:0,0:0:0:0:
340,155,32418,2,0,P|308:178|267:171,1,77.0000023498536,10|0,0:0|3:0,0:0:0:0:
192,137,32838,1,0,0:0:0:0:
192,137,33047,5,0,3:0:0:0:
112,184,33257,2,0,P|117:226|123:269,1,77.0000023498536,0|0,3:0|0:0,0:0:0:0:
108,352,33677,2,0,P|148:354|186:329,1,77.0000023498536,8|0,0:0|3:0,0:0:0:0:
232,260,34096,2,0,L|310:283,1,77.0000023498536,0|0,0:0|3:0,0:0:0:0:
382,357,34516,5,2,0:0:0:0:
433,277,34726,1,2,0:0:0:0:
486,187,35355,5,2,0:0:0:0:
409,192,35565,1,2,0:0:0:0:
332,119,36194,5,2,0:0:0:0:
309,152,36404,1,2,0:0:0:0:
216,130,37033,5,2,0:0:0:0:
233,162,37243,1,2,0:0:0:0:
352,283,37873,6,0,B|254:282|306:319|194:314,1,154.000004699707,6|0,3:2|0:0,0:0:0:0:
101,346,38502,1,0,0:0:0:0:
27,266,38712,2,0,B|7:230|7:230|21:187,1,77.0000023498536,8|0,0:0|0:0,0:0:0:0:
113,146,39131,2,0,B|133:110|133:110|119:67,1,77.0000023498536,0|0,0:0|3:0,0:0:0:0:
220,30,39551,5,0,0:0:0:0:
274,129,39761,1,0,3:0:0:0:
274,129,39970,2,0,P|274:172|302:207,1,77.0000023498536,0|0,3:0|0:0,0:0:0:0:
289,300,40390,2,0,P|326:322|370:317,1,77.0000023498536,8|0,0:0|3:0,0:0:0:0:
457,295,40810,2,0,B|450:260|450:260|456:248|456:248|448:208,1,77.0000023498536,2|0,0:0|3:0,0:0:0:0:
485,118,41229,6,0,P|452:82|336:97,1,154.000004699707,2|2,3:2|0:0,0:0:0:0:
269,152,41859,1,2,0:0:0:0:
176,97,42068,2,0,P|151:61|154:25,1,77.0000023498536,10|0,0:0|0:0,0:0:0:0:
60,115,42488,2,0,P|92:147|97:184,1,77.0000023498536,2|0,0:0|3:0,0:0:0:0:
37,266,42908,5,2,0:0:0:0:
113,342,43117,1,2,3:2:0:0:
113,342,43327,2,0,P|136:297|191:283,1,77.0000023498536,2|2,3:2|0:0,0:0:0:0:
242,230,43747,2,0,L|394:252,1,154.000004699707,10|2,0:0|0:0,0:0:0:0:
447,336,44376,1,0,3:0:0:0:
505,257,44586,6,0,P|520:179|477:116,1,154.000004699707,2|0,3:2|0:0,0:0:0:0:
392,58,45215,1,0,0:0:0:0:
304,121,45425,2,0,L|223:108,1,77.0000023498536,8|0,0:0|0:0,0:0:0:0:
170,16,45845,2,0,L|90:27,1,77.0000023498536,0|0,0:0|3:0,0:0:0:0:
29,113,46264,6,0,B|28:204|75:174|60:278,1,154.000004699707,0|0,0:0|3:0,0:0:0:0:
128,346,46894,1,0,0:0:0:0:
206,272,47103,2,0,P|225:229|218:196,1,77.0000023498536,8|0,0:0|3:0,0:0:0:0:
145,122,47523,2,0,P|134:83|145:38,1,77.0000023498536,2|0,0:0|3:0,0:0:0:0:
247,31,47943,6,0,L|406:51,1,154.000004699707,2|2,3:2|0:0,0:0:0:0:
471,131,48572,1,2,0:0:0:0:
407,218,48782,2,0,B|435:250|435:250|428:298,1,77.0000023498536,10|0,0:0|0:0,0:0:0:0:
335,348,49201,2,0,B|307:316|307:316|314:268,1,77.0000023498536,2|0,0:0|3:0,0:0:0:0:
332,178,49621,5,2,0:0:0:0:
403,111,49831,1,2,3:2:0:0:
403,111,50040,2,0,P|415:64|394:19,1,77.0000023498536,2|2,3:2|0:0,0:0:0:0:
304,28,50460,2,0,L|222:42,1,77.0000023498536,10|2,0:0|3:2,0:0:0:0:
133,89,50880,1,2,0:0:0:0:
50,38,51089,1,0,3:0:0:0:
13,139,51299,6,0,P|-8:215|33:286,1,154.000004699707,2|0,3:2|0:0,0:0:0:0:
110,345,51929,1,0,0:0:0:0:
110,345,52138,2,0,B|217:349|166:307|261:310,1,154.000004699707,10|0,0:0|0:0,0:0:0:0:
359,342,52768,1,0,3:0:0:0:
359,342,52977,6,0,L|445:357,1,77.0000023498536,2|0,0:0|3:0,0:0:0:0:
503,270,53397,2,0,L|426:255,1,77.0000023498536,2|0,3:2|0:0,0:0:0:0:
356,173,53817,2,0,L|192:199,1,154.000004699707,10|0,0:0|0:0,0:0:0:0:
113,256,54446,1,0,3:0:0:0:
27,190,54656,6,0,B|17:148|17:148|41:97,1,77.0000023498536,2|0,3:2|0:0,0:0:0:0:
117,51,55075,2,0,B|152:72|152:72|196:65,1,77.0000023498536,2|0,0:0|0:0,0:0:0:0:
291,35,55495,2,0,L|256:192,1,154.000004699707,10|2,0:0|0:0,0:0:0:0:
198,275,56124,1,0,3:0:0:0:
278,346,56334,6,0,P|316:361|352:355,1,77.0000023498536,2|0,0:0|3:0,0:0:0:0:
443,298,56754,2,0,P|456:253|438:215,1,77.0000023498536,2|0,3:2|0:0,0:0:0:0:
374,145,57173,2,0,B|272:151|327:104|219:115,1,154.000004699707,10|2,0:0|0:0,0:0:0:0:
137,175,57803,1,0,3:0:0:0:
39,130,58012,6,0,P|30:87|109:25,1,154.000004699707
106,24,58852,6,0,L|79:177,1,154.000004699707,14|0,0:0|0:0,0:0:0:0:
28,270,59481,1,0,3:0:0:0:
107,343,59691,2,0,B|149:353|149:353|188:329,1,77.0000023498536,0|0,0:0|3:0,0:0:0:0:
243,249,60110,2,0,B|285:239|285:239|324:263,1,77.0000023498536,0|0,3:0|0:0,0:0:0:0:
402,318,60530,2,0,P|450:251|437:178,1,154.000004699707,8|2,0:0|0:0,0:0:0:0:
365,106,61159,1,0,3:0:0:0:
272,160,61369,6,0,P|231:169|192:155,1,77.0000023498536,2|2,3:2|0:0,0:0:0:0:
153,60,61789,2,0,P|199:48|230:54,1,77.0000023498536,2|2,0:0|0:0,0:0:0:0:
298,134,62208,2,0,L|272:288,1,154.000004699707,10|0,0:0|0:0,0:0:0:0:
182,345,62838,1,0,3:0:0:0:
100,274,63047,6,0,P|110:226|90:193,1,77.0000023498536,2|2,0:0|3:2,0:0:0:0:
22,125,63467,2,0,P|6:168|18:207,1,77.0000023498536,2|2,3:2|0:0,0:0:0:0:
96,265,63887,2,0,L|255:237,1,154.000004699707,10|0,0:0|0:0,0:0:0:0:
336,299,64516,1,0,3:0:0:0:
416,239,64726,5,2,0:0:0:0:
502,281,64936,1,0,0:0:0:0:
394,165,65565,5,0,0:0:0:0:
454,120,65775,1,0,0:0:0:0:
314,151,66404,5,0,0:0:0:0:
301,102,66614,1,0,0:0:0:0:
237,187,67243,5,0,0:0:0:0:
222,175,67453,1,0,0:0:0:0:
30,327,68082,6,0,B|123:320|85:278|175:284,1,154.000004699707,6|0,3:2|0:0,0:0:0:0:
249,338,68712,1,0,0:0:0:0:
309,267,68922,2,0,P|297:189|280:112,1,154.000004699707,8|0,0:0|0:0,0:0:0:0:
233,42,69551,1,0,3:0:0:0:
233,42,69761,6,0,P|276:27|314:39,1,77.0000023498536,0|0,0:0|3:0,0:0:0:0:
378,91,70180,2,0,P|430:86|458:83,1,77.0000023498536,0|0,3:0|0:0,0:0:0:0:
507,160,70600,2,0,P|503:203|497:253,1,77.0000023498536,8|0,0:0|3:0,0:0:0:0:
447,314,71019,1,0,0:0:0:0:
346,309,71229,1,0,3:0:0:0:
272,237,71439,6,0,L|277:150,2,77.0000023498536,2|2|2,3:2|0:0|0:0,0:0:0:0:
189,302,72068,1,2,0:0:0:0:
77,278,72278,2,0,P|39:198|81:131,1,154.000004699707,10|2,0:0|0:0,0:0:0:0:
122,61,72908,1,0,3:0:0:0:
212,101,73117,6,0,P|237:135|243:179,1,77.0000023498536,2|8,0:0|0:0,0:0:0:0:
190,244,73537,2,0,P|165:278|159:322,1,77.0000023498536,2|0,3:2|0:0,0:0:0:0:
241,363,73956,1,10,0:0:0:0:
241,363,74166,1,2,3:2:0:0:
320,315,74376,2,0,L|396:331,1,77.0000023498536,2|2,0:0|3:2,0:0:0:0:
480,294,74796,6,0,B|485:222|434:248|449:135,1,154.000004699707,6|0,3:2|0:0,0:0:0:0:
491,65,75425,1,0,0:0:0:0:
393,29,75635,2,0,B|363:66|363:66|234:48,1,154.000004699707,8|0,0:0|0:0,0:0:0:0:
154,56,76264,6,0,P|135:89|139:127,1,77.0000023498536,0|0,3:0|0:0,0:0:0:0:
162,231,76683,1,0,3:0:0:0:
162,231,76894,2,0,P|205:222|257:233,1,77.0000023498536,0|0,3:0|0:0,0:0:0:0:
322,166,77313,1,8,0:0:0:0:
322,166,77523,1,0,3:0:0:0:
373,255,77733,1,0,0:0:0:0:
373,255,77943,1,0,3:0:0:0:
55,331,81509,6,0,P|74:224|83:172,1,154.000004699707,6|0,3:2|0:0,0:0:0:0:
24,106,82138,1,0,0:0:0:0:
98,49,82348,2,0,B|204:45|154:91|253:85,1,154.000004699707,8|0,0:0|0:0,0:0:0:0:
328,49,82977,2,0,P|358:81|362:123,1,77.0000023498536,0|0,3:0|0:0,0:0:0:0:
323,198,83397,5,2,3:2:0:0:
323,198,83607,1,2,3:2:0:0:
387,271,83817,1,2,0:0:0:0:
387,271,84026,2,0,P|384:314|379:361,1,77.0000023498536,10|0,0:0|3:2,0:0:0:0:
289,365,84446,2,0,P|249:360|208:355,1,77.0000023498536,0|0,0:0|3:0,0:0:0:0:
159,268,84866,5,2,0:0:0:0:
85,338,85075,1,2,0:0:0:0:
149,190,85705,5,2,0:0:0:0:
74,169,85915,1,2,0:0:0:0:
207,141,86544,5,2,0:0:0:0:
197,93,86754,1,2,0:0:0:0:
270,194,87383,5,2,0:0:0:0:
291,184,87593,1,2,0:0:0:0:
484,89,88222,6,0,P|405:97|319:106,1,154.000004699707,6|0,3:2|0:0,0:0:0:0:
252,154,88852,1,0,0:0:0:0:
186,89,89061,2,0,P|146:96|102:102,1,77.0000023498536,8|0,0:0|0:0,0:0:0:0:
30,149,89481,2,0,P|35:191|41:235,1,77.0000023498536,2|2,0:0|3:2,0:0:0:0:
16,318,89901,5,2,0:0:0:0:
16,318,90110,1,2,3:2:0:0:
111,336,90320,1,2,3:2:0:0:
111,336,90530,1,2,0:0:0:0:
191,290,90740,6,0,L|171:135,1,154.000004699707,10|2,0:0|0:0,0:0:0:0:
231,53,91369,1,0,3:0:0:0:
320,106,91579,2,0,B|319:193,2,77.0000023498536,2|2|2,3:2|0:0|0:0,0:0:0:0:
408,53,92208,1,2,0:0:0:0:
492,112,92418,5,10,0:0:0:0:
492,112,92628,1,2,0:0:0:0:
447,195,92838,1,2,0:0:0:0:
447,195,93047,1,2,3:2:0:0:
363,156,93257,6,0,P|326:140|284:146,1,77.0000023498536,2|2,0:0|3:2,0:0:0:0:
228,213,93677,2,0,L|239:296,1,77.0000023498536,2|2,3:2|0:0,0:0:0:0:
156,332,94096,2,0,L|134:173,1,154.000004699707,10|2,0:0|0:0,0:0:0:0:
59,125,94726,1,2,3:2:0:0:
108,46,94936,6,0,P|131:83|241:88,1,154.000004699707,2|0,3:2|0:0,0:0:0:0:
308,40,95565,1,0,0:0:0:0:
389,84,95775,2,0,P|406:124|394:172,1,77.0000023498536,8|0,0:0|0:0,0:0:0:0:
480,204,96194,2,0,P|454:244|420:257,1,77.0000023498536,2|2,0:0|3:2,0:0:0:0:
339,227,96614,6,0,P|301:205|255:205,1,77.0000023498536,2|2,0:0|3:2,0:0:0:0:
195,258,97033,1,2,3:2:0:0:
195,258,97243,1,2,0:0:0:0:
123,199,97453,2,0,L|152:46,1,154.000004699707,10|2,0:0|0:0,0:0:0:0:
243,39,98082,5,0,3:0:0:0:
334,19,98292,1,2,0:0:0:0:
411,341,101649,6,0,B|418:286|418:286|401:243|401:243|410:186,1,154.000004699707,6|0,3:2|0:0,0:0:0:0:
479,109,102278,1,0,0:0:0:0:
393,43,102488,2,0,L|233:61,1,154.000004699707,8|0,0:0|0:0,0:0:0:0:
137,27,103117,1,0,3:0:0:0:
51,93,103327,6,0,P|29:130|26:170,1,77.0000023498536,0|0,0:0|3:0,0:0:0:0:
63,264,103747,2,0,L|146:256,1,77.0000023498536,0|0,3:0|0:0,0:0:0:0:
210,175,104166,2,0,L|293:183,1,77.0000023498536,8|0,0:0|3:0,0:0:0:0:
359,262,104586,1,2,0:0:0:0:
359,262,104796,1,0,3:0:0:0:
445,198,105005,6,0,P|477:123|438:57,1,154.000004699707,2|2,3:2|0:0,0:0:0:0:
343,28,105635,1,2,0:0:0:0:
251,84,105845,2,0,P|233:126|249:163,1,77.0000023498536,10|0,0:0|0:0,0:0:0:0:
315,233,106264,2,0,P|333:275|317:312,1,77.0000023498536,2|0,0:0|3:0,0:0:0:0:
230,357,106684,5,2,0:0:0:0:
230,357,106894,1,2,3:2:0:0:
131,314,107103,1,2,3:2:0:0:
131,314,107313,1,2,0:0:0:0:
25,337,107523,2,0,L|11:257,1,77.0000023498536,10|0,0:0|3:0,0:0:0:0:
91,187,107943,2,0,L|105:107,1,77.0000023498536,2|0,0:0|3:0,0:0:0:0:
165,22,108362,6,0,B|272:23|221:66|322:61,1,154.000004699707,2|0,3:2|0:0,0:0:0:0:
412,27,108991,1,0,0:0:0:0:
489,101,109201,2,0,P|466:186|446:254,1,154.000004699707,8|0,0:0|0:0,0:0:0:0:
508,339,109831,2,0,P|472:284|373:271,1,154.000004699707,0|0,3:0|3:0,0:0:0:0:
319,338,110460,6,0,L|236:352,1,77.0000023498536,0|0,3:0|0:0,0:0:0:0:
204,259,110880,2,0,P|194:221|204:185,1,77.0000023498536,8|0,0:0|3:0,0:0:0:0:
296,118,111299,2,0,P|306:80|296:44,1,77.0000023498536,2|0,0:0|3:0,0:0:0:0:
204,80,111719,6,0,L|42:55,1,154.000004699707,2|2,3:2|0:0,0:0:0:0:
31,162,112348,1,2,0:0:0:0:
99,245,112558,2,0,P|123:278|121:327,1,77.0000023498536,10|0,0:0|0:0,0:0:0:0:
207,242,112977,2,0,P|183:209|185:160,1,77.0000023498536,2|0,0:0|3:0,0:0:0:0:
235,80,113397,5,2,0:0:0:0:
235,80,113607,1,2,3:2:0:0:
329,131,113817,1,2,3:2:0:0:
329,131,114026,1,2,0:0:0:0:
424,81,114236,2,0,L|401:6,2,77.0000023498536,10|2|2,0:0|3:2|0:0,0:0:0:0:
498,159,114866,1,0,3:0:0:0:
498,159,115075,6,0,P|478:240|461:312,1,154.000004699707,2|0,3:2|0:0,0:0:0:0:
371,368,115705,1,0,0:0:0:0:
292,293,115915,2,0,B|233:298|233:298|204:320|204:320|127:327,1,154.000004699707,10|0,0:0|0:0,0:0:0:0:
45,365,116544,1,0,3:0:0:0:
4,265,116754,6,0,P|21:230|52:203,1,77.0000023498536,2|0,0:0|3:0,0:0:0:0:
10,104,117173,2,0,P|46:88|85:90,1,77.0000023498536,2|0,3:2|0:0,0:0:0:0:
170,153,117593,2,0,L|334:133,1,154.000004699707,10|0,0:0|0:0,0:0:0:0:
406,202,118222,1,0,3:0:0:0:
491,136,118432,6,0,P|503:97|489:61,1,77.0000023498536,2|0,3:2|0:0,0:0:0:0:
412,129,118852,2,0,P|397:173|411:210,1,77.0000023498536,2|0,0:0|0:0,0:0:0:0:
475,283,119271,2,0,B|371:281|440:331|311:322,1,154.000004699707,10|2,0:0|0:0,0:0:0:0:
233,368,119901,1,0,3:0:0:0:
158,291,120110,2,0,L|172:207,1,77.0000023498536,2|0,0:0|3:0,0:0:0:0:
75,162,120530,2,0,L|60:239,1,77.0000023498536,2|0,3:2|0:0,0:0:0:0:
172,204,120950,6,0,P|202:155|303:144,1,154.000004699707,10|2,0:0|0:0,0:0:0:0:
380,186,121579,1,0,3:0:0:0:
466,122,121789,2,0,L|450:40,2,77.0000023498536
269,32,122628,6,0,L|107:45,1,154.000004699707,14|0,0:0|0:0,0:0:0:0:
40,122,123257,1,0,3:0:0:0:
111,203,123467,2,0,P|128:242|120:282,1,77.0000023498536,0|0,0:0|3:0,0:0:0:0:
196,354,123887,2,0,P|224:323|268:318,1,77.0000023498536,0|0,3:0|0:0,0:0:0:0:
354,355,124306,2,0,P|405:313|388:216,1,154.000004699707,8|2,0:0|0:0,0:0:0:0:
333,150,124936,1,0,3:0:0:0:
409,84,125145,6,0,L|489:95,1,77.0000023498536,2|2,3:2|0:0,0:0:0:0:
337,20,125565,2,0,L|245:33,1,77.0000023498536,2|2,0:0|0:0,0:0:0:0:
166,81,125984,2,0,B|164:165|222:138|201:243,1,154.000004699707,10|0,0:0|0:0,0:0:0:0:
155,322,126614,1,0,3:0:0:0:
253,365,126824,6,0,P|296:367|325:344,1,77.0000023498536,2|2,0:0|3:2,0:0:0:0:
429,354,127243,2,0,P|447:317|445:274,1,77.0000023498536,2|2,3:2|0:0,0:0:0:0:
391,188,127663,2,0,L|231:211,1,154.000004699707,10|0,0:0|0:0,0:0:0:0:
131,221,128292,1,0,3:0:0:0:
