osu file format v14

[General]
AudioFilename: audio.mp3
AudioLeadIn: 0
PreviewTime: 98228
Countdown: 0
SampleSet: Soft
StackLeniency: 0.7
Mode: 0
LetterboxInBreaks: 0
WidescreenStoryboard: 0

[Editor]
Bookmarks: 44481,50460,71439,107523
DistanceSpacing: 1.2
BeatDivisor: 2
GridSize: 32
TimelineZoom: 1.6

[Metadata]
Title:Mine
TitleUnicode:Mine
Artist:Bazzi
ArtistUnicode:Bazzi
Creator:Le Mirai
Version::insane:
Source:
Tags:xahlt Kuon- akane-_ english pop r&b sirmirai Mirai Cacturne sweets Cosmic
BeatmapID:2814116
BeatmapSetID:1359916

[Difficulty]
HPDrainRate:5.3
CircleSize:4.5
OverallDifficulty:8
ApproachRate:8.5
SliderMultiplier:1.6
SliderTickRate:1

[Events]
//Background and Video events
0,0,"rip wonjae.jpg",0,0
//Break Periods
2,64926,67407
2,78352,80834
2,85065,87547
//Storyboard Layer 0 (Background)
//Storyboard Layer 1 (Fail)
//Storyboard Layer 2 (Pass)
//Storyboard Layer 3 (Foreground)
//Storyboard Layer 4 (Overlay)
//Storyboard Sound Samples

[TimingPoints]
950,419.58041958042,4,2,1,80,1,0
11019,-100,4,2,1,10,0,0
11229,-100,4,2,1,20,0,0
11439,-100,4,2,1,30,0,0
11859,-100,4,2,1,40,0,0
12698,-100,4,2,1,50,0,0
14166,-100,4,2,1,50,0,0
14376,-133.333333333333,4,2,1,50,0,0
17523,-133.333333333333,4,2,1,5,0,0
17733,-100,4,2,1,50,0,0
18047,-100,4,2,1,50,0,0
18152,-100,4,2,1,50,0,0
18887,-100,4,2,1,50,0,0
18991,-100,4,2,1,50,0,0
21089,-133.333333333333,4,2,1,50,0,0
24236,-133.333333333333,4,2,1,5,0,0
24446,-100,4,2,1,50,0,0
24761,-100,4,2,1,50,0,0
24866,-100,4,2,1,50,0,0
25600,-100,4,2,1,50,0,0
25705,-100,4,2,1,50,0,0
27803,-133.333333333333,4,2,1,50,0,0
28642,-133.333333333333,4,2,1,50,0,0
30321,-133.333333333333,4,2,1,50,0,0
30950,-133.333333333333,4,2,1,5,0,0
31159,-100,4,2,1,50,0,0
31474,-100,4,2,1,50,0,0
31579,-100,4,2,1,50,0,0
32313,-100,4,2,1,50,0,0
32418,-100,4,2,1,50,0,0
34096,-66.6666666666667,4,2,1,50,0,0
34516,-133.333333333333,4,2,1,50,0,0
37663,-133.333333333333,4,2,1,50,0,0
37768,-133.333333333333,4,2,1,5,0,0
37873,-71.4285714285714,4,2,1,80,0,1
38187,-71.4285714285714,4,2,1,5,0,1
38292,-250,4,2,1,80,0,1
38607,-250,4,2,1,5,0,1
38712,-100,4,2,1,80,0,1
39026,-100,4,2,1,5,0,1
39131,-142.857142857143,4,2,1,80,0,1
39970,-100,4,2,1,80,0,1
40810,-100,4,2,1,80,0,1
41019,-100,4,2,1,80,0,1
41229,-100,4,2,1,80,0,1
41544,-100,4,2,1,80,0,1
41649,-100,4,2,1,80,0,1
41859,-133.333333333333,4,2,1,80,0,1
41963,-133.333333333333,4,2,1,80,0,1
42068,-66.6666666666667,4,2,1,80,0,1
42383,-133.333333333333,4,2,1,80,0,1
42488,-66.6666666666667,4,2,1,80,0,1
42908,-100,4,2,1,80,0,1
44061,-100,4,2,1,5,0,1
44166,-133.333333333333,4,2,1,80,0,1
44481,-133.333333333333,4,2,1,5,0,1
44586,-100,4,2,1,80,0,1
44901,-100,4,2,1,80,0,1
45005,-100,4,2,1,80,0,1
45320,-100,4,2,1,80,0,1
45425,-100,4,2,1,80,0,1
45740,-100,4,2,1,80,0,1
45845,-100,4,2,1,80,0,1
47523,-100,4,2,1,80,0,1
47733,-100,4,2,1,80,0,1
47943,-100,4,2,1,80,0,1
48257,-100,4,2,1,80,0,1
48362,-100,4,2,1,80,0,1
48572,-133.333333333333,4,2,1,80,0,1
48677,-133.333333333333,4,2,1,80,0,1
48782,-100,4,2,1,80,0,1
49096,-133.333333333333,4,2,1,80,0,1
49201,-66.6666666666667,4,2,1,80,0,1
49411,-100,4,2,1,80,0,1
51614,-100,4,2,1,5,0,1
51719,-100,4,2,1,80,0,1
52033,-100,4,2,1,80,0,1
52138,-100,4,2,1,80,0,1
52453,-100,4,2,1,5,0,1
52558,-100,4,2,1,80,0,1
52977,-100,4,2,1,80,0,1
54970,-100,4,2,1,80,0,1
55075,-100,4,2,1,80,0,1
57593,-166.666666666667,4,2,1,80,0,1
57908,-100,4,2,1,5,0,1
58012,-125,4,2,1,80,0,0
58327,-125,4,2,1,5,0,0
58432,-100,4,2,1,80,0,0
58747,-100,4,2,1,5,0,0
58852,-66.6666666666667,4,2,1,80,0,1
59166,-66.6666666666667,4,2,1,80,0,1
59271,-100,4,2,1,80,0,1
59691,-100,4,2,1,80,0,1
60110,-100,4,2,1,80,0,1
60530,-100,4,2,1,80,0,1
60950,-100,4,2,1,80,0,1
61159,-100,4,2,1,80,0,1
62523,-100,4,2,1,80,0,1
62628,-100,4,2,1,80,0,1
64201,-100,4,2,1,5,0,1
64306,-100,4,2,1,80,0,1
64726,-100,4,2,1,60,0,0
68082,-166.666666666667,4,2,1,60,0,0
68397,-117.647058823529,4,2,1,5,0,0
68502,-117.647058823529,4,2,1,60,0,0
68817,-117.647058823529,4,2,1,5,0,0
68922,-100,4,2,1,60,0,0
69236,-100,4,2,1,5,0,0
69341,-100,4,2,1,60,0,0
70180,-117.647058823529,4,2,1,60,0,0
71019,-117.647058823529,4,2,1,60,0,0
71439,-117.647058823529,4,2,1,60,0,0
72593,-117.647058823529,4,2,1,60,0,0
72698,-117.647058823529,4,2,1,60,0,0
73852,-117.647058823529,4,2,1,60,0,0
73956,-117.647058823529,4,2,1,60,0,0
74796,-117.647058823529,4,2,1,60,0,0
75110,-117.647058823529,4,2,1,60,0,0
75215,-117.647058823529,4,2,1,60,0,0
77313,-181.818181818182,4,2,1,60,0,0
77733,-142.857142857143,4,2,1,60,0,0
78152,-117.647058823529,4,2,1,60,0,0
81509,-117.647058823529,4,2,1,60,0,0
81824,-117.647058823529,4,2,1,5,0,0
81929,-117.647058823529,4,2,1,60,0,0
82243,-100,4,2,1,5,0,0
82348,-100,4,2,1,60,0,0
82663,-100,4,2,1,5,0,0
82768,-100,4,2,1,60,0,0
83502,-117.647058823529,4,2,1,60,0,0
83607,-117.647058823529,4,2,1,60,0,0
83712,-117.647058823529,4,2,1,60,0,0
83817,-117.647058823529,4,2,1,60,0,0
83922,-117.647058823529,4,2,1,60,0,0
84026,-117.647058823529,4,2,1,60,0,0
84446,-117.647058823529,4,2,1,60,0,0
84866,-117.647058823529,4,2,1,60,0,0
88222,-117.647058823529,4,2,1,60,0,0
88537,-117.647058823529,4,2,1,60,0,0
88642,-117.647058823529,4,2,1,60,0,0
88956,-117.647058823529,4,2,1,60,0,0
89061,-117.647058823529,4,2,1,60,0,0
90005,-117.647058823529,4,2,1,60,0,0
90110,-117.647058823529,4,2,1,60,0,0
90215,-117.647058823529,4,2,1,60,0,0
90320,-117.647058823529,4,2,1,60,0,0
91054,-117.647058823529,4,2,1,60,0,0
91159,-117.647058823529,4,2,1,60,0,0
91369,-117.647058823529,4,2,1,60,0,0
92523,-117.647058823529,4,2,1,60,0,0
92628,-117.647058823529,4,2,1,60,0,0
92733,-117.647058823529,4,2,1,60,0,0
92838,-117.647058823529,4,2,1,60,0,0
94411,-117.647058823529,4,2,1,60,0,0
94516,-117.647058823529,4,2,1,60,0,0
97768,-117.647058823529,4,2,1,60,0,0
97873,-117.647058823529,4,2,1,60,0,0
98082,-117.647058823529,4,2,1,60,0,0
98292,-200,4,2,1,60,0,0
99551,-100,4,2,1,60,0,0
99918,-200,4,2,1,60,0,0
99970,-200,4,2,1,60,0,0
101544,-117.647058823529,4,2,1,5,0,0
101596,-117.647058823529,4,2,1,60,0,0
101649,-100,4,2,1,80,0,1
101963,-100,4,2,1,80,0,1
102068,-100,4,2,1,80,0,1
102383,-100,4,2,1,80,0,1
102488,-100,4,2,1,80,0,1
102803,-100,4,2,1,80,0,1
102908,-100,4,2,1,80,0,1
104586,-100,4,2,1,80,0,1
104796,-100,4,2,1,80,0,1
105005,-100,4,2,1,80,0,1
105320,-100,4,2,1,80,0,1
105425,-100,4,2,1,80,0,1
105635,-133.333333333333,4,2,1,80,0,1
105740,-133.333333333333,4,2,1,80,0,1
105845,-100,4,2,1,80,0,1
106579,-100,4,2,1,5,0,1
106684,-100,4,2,1,80,0,1
107838,-100,4,2,1,5,0,1
107943,-133.333333333333,4,2,1,80,0,1
108258,-133.333333333333,4,2,1,5,0,1
108362,-100,4,2,1,80,0,1
108363,-100,4,2,1,80,0,1
108677,-100,4,2,1,80,0,1
108782,-100,4,2,1,80,0,1
109096,-100,4,2,1,80,0,1
109201,-100,4,2,1,80,0,1
109516,-100,4,2,1,80,0,1
109621,-100,4,2,1,80,0,1
111299,-100,4,2,1,80,0,1
111509,-100,4,2,1,80,0,1
111719,-100,4,2,1,80,0,1
112033,-100,4,2,1,80,0,1
112138,-100,4,2,1,80,0,1
113292,-100,4,2,1,80,0,1
113397,-100,4,2,1,80,0,1
115390,-100,4,2,1,80,0,1
115495,-100,4,2,1,80,0,1
115810,-100,4,2,1,80,0,1
115914,-100,4,2,1,80,0,1
116753,-100,4,2,1,80,0,1
118747,-100,4,2,1,80,0,1
118852,-100,4,2,1,80,0,1
121789,-133.333333333333,4,2,1,80,0,0
121894,-100,4,2,1,5,0,0
121998,-100,4,2,1,80,0,0
122103,-100,4,2,1,5,0,0
122208,-100,4,2,1,80,0,0
122313,-100,4,2,1,80,0,0
122522,-100,4,2,1,5,0,0
122628,-66.6666666666667,4,2,1,80,0,1
122943,-66.6666666666667,4,2,1,80,0,1
123047,-100,4,2,1,80,0,1
123467,-100,4,2,1,80,0,1
123886,-100,4,2,1,80,0,1
124306,-100,4,2,1,80,0,1
124726,-100,4,2,1,80,0,1
124936,-100,4,2,1,80,0,1
125145,-100,4,2,1,80,0,1
126824,-100,4,2,1,80,0,1
128082,-100,4,2,1,40,0,1
128292,-100,4,2,1,40,0,0

[Colours]
Combo1 : 255,123,123
Combo2 : 0,128,192
Combo3 : 255,128,192
Combo4 : 255,148,96

[HitObjects]
256,192,11019,12,0,13956,0:0:0:0:
325,245,14376,5,2,0:0:0:0:
302,168,14586,1,0,0:0:0:0:
302,168,15215,5,2,0:0:0:0:
325,245,15425,1,0,0:0:0:0:
325,245,16054,5,2,0:0:0:0:
302,168,16264,1,0,0:0:0:0:
337,365,16894,5,2,0:0:0:0:
401,305,17103,2,0,P|324:289|253:305,1,120.000004577637
269,302,17733,6,0,B|270:224|310:224|307:130,1,160,6|0,3:2|0:0,0:0:0:0:
196,85,18362,1,0,0:0:0:0:
131,152,18572,2,0,P|92:142|52:143,1,80,8|0,0:0|0:0,0:0:0:0:
196,85,18991,1,0,0:0:0:0:
274,144,19201,2,0,P|312:154|352:153,1,80,0|0,3:0|0:0,0:0:0:0:
196,85,19621,5,0,3:0:0:0:
129,22,19831,2,0,P|90:12|50:13,1,80,0|0,3:0|0:0,0:0:0:0:
0,68,20250,2,0,P|15:99|29:142,1,80,8|0,0:0|3:0,0:0:0:0:
120,227,20670,5,0,0:0:0:0:
249,258,20880,1,0,3:0:0:0:
378,182,21089,5,2,0:0:0:0:
417,112,21299,1,2,0:0:0:0:
417,112,21929,5,2,0:0:0:0:
378,182,22138,1,0,0:0:0:0:
378,182,22768,5,2,0:0:0:0:
417,112,22977,1,0,0:0:0:0:
321,28,23607,5,2,0:0:0:0:
321,101,23817,2,0,B|381:101|370:52|457:53,1,120.000004577637
452,56,24446,6,0,P|437:125|417:227,1,160,6|0,3:2|0:0,0:0:0:0:
354,259,25075,1,0,0:0:0:0:
412,304,25285,2,0,P|453:314|510:292,1,80,8|0,0:0|0:0,0:0:0:0:
354,259,25705,1,0,0:0:0:0:
297,312,25915,2,0,P|256:322|199:300,1,80,0|0,3:0|0:0,0:0:0:0:
354,259,26334,5,0,3:0:0:0:
303,197,26544,2,0,P|262:187|205:209,1,80,0|0,3:0|0:0,0:0:0:0:
354,259,26963,5,8,0:0:0:0:
377,151,27173,1,0,3:0:0:0:
293,83,27383,1,0,0:0:0:0:
162,90,27593,1,0,3:0:0:0:
68,196,27803,5,2,0:0:0:0:
91,273,28012,1,0,0:0:0:0:
91,273,28642,5,2,0:0:0:0:
68,196,28852,1,0,0:0:0:0:
68,196,29481,5,2,0:0:0:0:
91,273,29691,1,0,0:0:0:0:
123,371,30320,5,2,0:0:0:0:
144,302,30530,2,0,B|83:290|79:336|5:323,1,120.000004577637
14,323,31159,6,0,P|-11:260|53:190,1,160,6|0,3:2|0:0,0:0:0:0:
135,195,31789,1,0,0:0:0:0:
206,159,31998,2,0,P|220:120|206:70,1,80,10|0,0:0|0:0,0:0:0:0:
135,195,32418,1,10,0:0:0:0:
97,267,32628,2,0,P|90:306|104:343,1,80,0|0,3:0|0:0,0:0:0:0:
135,195,33047,5,0,3:0:0:0:
97,267,33257,2,0,P|90:306|104:343,1,80,0|0,3:0|0:0,0:0:0:0:
140,194,33677,5,8,0:0:0:0:
275,88,33887,1,0,3:0:0:0:
230,223,34096,5,0,0:0:0:0:
209,155,34306,1,0,3:0:0:0:
392,241,34516,5,2,0:0:0:0:
315,264,34726,1,0,0:0:0:0:
315,264,35355,5,2,0:0:0:0:
392,241,35565,1,0,0:0:0:0:
256,192,36194,12,0,37768,0:0:0:0:
0,161,37873,6,0,B|86:154|63:235|161:240,1,167.999994873047,6|0,3:2|0:0,0:0:0:0:
209,208,38292,2,0,P|215:182|216:155,1,48
167,107,38712,6,0,B|221:159|296:118,1,120,8|0,0:0|0:0,0:0:0:0:
345,80,39131,2,0,P|349:43|352:4,1,55.9999982910157,0|0,0:0|3:0,0:0:0:0:
446,186,39551,2,0,P|442:149|439:110,1,55.9999982910157,0|0,0:0|3:0,0:0:0:0:
390,284,39970,2,0,P|347:301|295:276,1,80,0|0,3:0|0:0,0:0:0:0:
278,127,40390,5,8,0:0:0:0:
383,84,40600,1,0,3:0:0:0:
425,189,40810,1,2,0:0:0:0:
321,234,41019,1,0,3:0:0:0:
120,256,41229,6,0,B|205:254|171:326|252:352,1,160,2|2,3:2|0:0,0:0:0:0:
318,306,41859,6,0,P|324:280|328:267,1,30.0000011444092,2|0,0:0|0:0,0:0:0:0:
393,371,42068,2,0,B|400:306|473:305|470:201,1,180.000006866455,10|0,0:0|0:0,0:0:0:0:
512,150,42488,2,0,P|465:182|399:145,1,120.000004577637,2|0,0:0|3:0,0:0:0:0:
403,1,42908,5,2,0:0:0:0:
500,47,43118,1,2,3:2:0:0:
451,147,43328,1,2,3:2:0:0:
352,101,43537,1,2,0:0:0:0:
495,73,43747,6,0,P|484:134|473:205,1,120,10|0,0:0|0:0,0:0:0:0:
505,254,44166,2,0,P|458:229|405:240,1,90.0000034332277,2|0,0:0|0:0,0:0:0:0:
305,189,44586,6,0,P|382:251|366:302,1,160,2|0,3:2|0:0,0:0:0:0:
289,380,45215,1,0,0:0:0:0:
99,324,45425,2,0,P|80:254|74:231,1,80,8|0,0:0|0:0,0:0:0:0:
126,114,45845,6,0,P|153:149|147:196,1,80,0|0,0:0|3:0,0:0:0:0:
240,17,46264,2,0,P|205:44|158:38,1,80,0|0,0:0|3:0,0:0:0:0:
344,125,46684,2,0,P|317:90|323:43,1,80,0|0,3:0|0:0,0:0:0:0:
240,243,47103,2,0,P|270:218|309:216,1,80,8|0,0:0|3:0,0:0:0:0:
153,251,47523,1,2,0:0:0:0:
202,321,47733,1,0,3:0:0:0:
131,126,47943,6,0,B|209:122|199:68|276:67,1,160,2|2,3:2|0:0,0:0:0:0:
351,111,48572,6,0,P|336:138|331:151,1,30.0000011444092,2|0,0:0|0:0,0:0:0:0:
430,78,48782,2,0,P|442:157|450:215,1,120,10|0,0:0|0:0,0:0:0:0:
512,238,49201,2,0,P|450:224|402:263,1,120.000004577637,2|0,0:0|3:0,0:0:0:0:
297,366,49621,6,0,P|266:341|227:332,1,80,2|2,0:0|3:2,0:0:0:0:
406,255,50040,2,0,P|381:291|315:298,1,80,2|2,3:2|0:0,0:0:0:0:
248,66,50460,5,10,0:0:0:0:
305,207,50670,1,2,3:2:0:0:
383,63,50880,5,2,0:0:0:0:
372,146,51089,1,0,3:0:0:0:
512,23,51299,6,0,P|477:50|466:143,1,120,2|0,3:2|0:0,0:0:0:0:
468,137,51719,1,0,0:0:0:0:
311,44,51929,1,0,0:0:0:0:
175,135,52138,6,0,B|133:128|113:162|148:177|58:212,1,120,10|0,0:0|0:0,0:0:0:0:
21,170,52558,2,0,P|18:152|8:124,1,40
2,126,52768,1,0,3:0:0:0:
141,352,52977,6,0,P|155:302|159:275,1,80,2|0,0:0|3:0,0:0:0:0:
218,365,53397,2,0,P|223:323|236:288,1,80,2|0,3:2|0:0,0:0:0:0:
361,238,53817,6,0,P|285:255|213:223,1,160,10|0,0:0|0:0,0:0:0:0:
292,373,54446,1,0,3:0:0:0:
413,313,54656,6,0,B|423:241|372:242|372:153,1,160,2|2,3:2|0:0,0:0:0:0:
421,99,55285,1,0,0:0:0:0:
359,48,55495,2,0,B|289:37|289:37|270:47|270:47|179:34,1,160,10|2,0:0|0:0,0:0:0:0:
130,18,56124,1,0,3:0:0:0:
239,162,56334,6,0,P|286:133|304:103,1,80,2|0,0:0|3:0,0:0:0:0:
85,136,56754,2,0,P|134:160|169:160,1,80,2|0,3:2|0:0,0:0:0:0:
229,88,57173,1,10,0:0:0:0:
128,8,57593,2,0,P|139:64|143:90,1,71.9999978027344,2|0,0:0|0:0,0:0:0:0:
143,88,58012,6,0,P|91:122|99:174,1,96
165,207,58432,2,0,P|114:177|43:215,1,120
78,280,58852,6,0,B|124:302|180:269|162:215|180:269|196:217|147:242|208:253|162:215|242:171|303:235,1,240.000009155274,14|0,0:0|0:0,0:0:0:0:
414,364,59481,5,0,3:0:0:0:
359,203,59691,1,0,0:0:0:0:
304,365,59901,5,0,3:0:0:0:
337,288,60110,1,0,3:0:0:0:
337,288,60530,5,8,0:0:0:0:
446,199,60740,1,0,3:0:0:0:
244,181,60950,5,2,0:0:0:0:
330,207,61159,1,0,3:0:0:0:
192,254,61369,6,0,P|207:175|221:96,1,160,2|2,3:2|0:0,0:0:0:0:
309,44,61998,1,2,0:0:0:0:
451,46,62208,2,0,B|391:35|388:120|309:122,1,160,10|0,0:0|0:0,0:0:0:0:
213,83,62838,1,0,3:0:0:0:
301,223,63047,6,0,P|341:220|377:203,1,80,2|2,0:0|3:2,0:0:0:0:
451,46,63467,2,0,P|415:29|376:26,1,80,2|2,3:2|0:0,0:0:0:0:
270,103,63887,2,0,P|284:166|301:239,1,120,10|0,0:0|0:0,0:0:0:0:
353,279,64306,2,0,P|366:241|379:188,1,80,0|0,0:0|3:0,0:0:0:0:
282,298,64726,5,2,0:0:0:0:
257,275,68082,6,0,P|276:306|297:357,1,71.9999978027344,6|0,3:2|0:0,0:0:0:0:
359,375,68502,2,0,P|372:325|393:279,1,102.000001945496
365,209,68922,2,0,P|296:196|241:173,1,120,8|0,0:0|0:0,0:0:0:0:
186,231,69341,1,0,0:0:0:0:
41,199,69551,6,0,P|78:184|117:179,1,80,0|0,3:0|0:0,0:0:0:0:
257,275,69970,1,0,3:0:0:0:
41,199,70180,2,0,P|78:184|116:180,1,68.0000012969971,0|0,3:0|0:0,0:0:0:0:
186,231,70600,2,0,L|174:305,1,68.0000012969971,8|0,0:0|3:0,0:0:0:0:
204,140,71019,2,0,L|192:66,1,68.0000012969971,0|0,0:0|3:0,0:0:0:0:
105,180,71439,5,2,3:2:0:0:
21,160,71648,1,2,0:0:0:0:
42,80,71858,1,2,0:0:0:0:
122,98,72068,1,2,0:0:0:0:
273,192,72278,6,0,P|197:232|138:202,1,136.000002593994,10|2,0:0|0:0,0:0:0:0:
204,155,72908,1,0,3:0:0:0:
374,125,73117,6,0,P|357:191|342:258,1,136.000002593994,2|2,0:0|3:2,0:0:0:0:
383,323,73747,1,0,0:0:0:0:
493,276,73956,2,0,P|463:262|406:265,1,68.0000012969971,10|2,0:0|3:2,0:0:0:0:
277,274,74376,2,0,P|310:271|341:257,1,68.0000012969971,2|2,0:0|3:2,0:0:0:0:
378,125,74796,6,0,B|374:61|425:61|422:-16,2,136.000002593994,6|0|8,3:2|0:0|0:0,0:0:0:0:
428,259,76054,1,0,0:0:0:0:
512,134,76264,2,0,P|474:110|438:112,1,68.0000012969971,0|0,3:0|0:0,0:0:0:0:
378,125,76684,1,0,3:0:0:0:
271,40,76894,2,0,P|309:16|345:18,1,68.0000012969971,0|0,3:0|0:0,0:0:0:0:
385,81,77313,2,0,L|374:142,1,44.0000013427735,8|0,0:0|3:0,0:0:0:0:
417,181,77733,6,0,L|394:301,1,111.999996582031
195,36,81509,6,0,P|237:64|224:123,1,102.000001945496,6|0,3:2|0:0,0:0:0:0:
162,150,81929,2,0,L|276:141,1,102.000001945496
310,207,82348,2,0,L|186:218,1,120,8|0,0:0|0:0,0:0:0:0:
122,223,82768,1,0,0:0:0:0:
337,365,82977,6,0,P|352:324|342:282,1,80,0|0,3:0|0:0,0:0:0:0:
271,281,83397,2,0,L|279:322,1,40,2|0,3:2|0:0,0:0:0:0:
206,337,83607,2,0,L|199:303,1,34.0000006484985,2|0,3:2|0:0,0:0:0:0:
126,318,83817,2,0,L|132:351,1,34.0000006484985,2|0,0:0|0:0,0:0:0:0:
76,245,84026,2,0,P|107:232|144:234,1,68.0000012969971,10|0,0:0|3:2,0:0:0:0:
351,226,84446,6,0,P|290:195|216:228,1,136.000002593994,0|2,0:0|0:0,0:0:0:0:
46,42,88222,6,0,P|65:89|77:128,1,68.0000012969971,6|0,3:2|0:0,0:0:0:0:
92,235,88642,2,0,P|103:202|116:171,1,68.0000012969971
216,79,89061,2,0,P|184:91|151:101,1,68.0000012969971,8|0,0:0|0:0,0:0:0:0:
116,171,89481,5,2,0:0:0:0:
183,208,89691,1,2,3:2:0:0:
225,324,89901,2,0,L|237:257,1,68.0000012969971,2|2,0:0|3:2,0:0:0:0:
295,199,90320,1,2,3:2:0:0:
347,255,90530,1,2,0:0:0:0:
225,324,90740,6,0,B|180:322|176:285|129:287,1,102.000001945496,10|0,0:0|0:0,0:0:0:0:
111,306,91159,2,0,P|120:357|123:387,1,68.0000012969971,2|0,0:0|3:0,0:0:0:0:
8,302,91579,5,2,3:2:0:0:
8,206,91789,1,2,0:0:0:0:
82,147,91998,1,2,0:0:0:0:
175,168,92208,1,2,0:0:0:0:
83,141,92418,5,10,0:0:0:0:
23,78,92627,1,2,0:0:0:0:
84,22,92837,1,2,0:0:0:0:
141,81,93047,1,2,3:2:0:0:
157,248,93257,6,0,P|196:249|229:228,1,68.0000012969971,2|2,0:0|3:2,0:0:0:0:
340,188,93677,2,0,P|309:173|275:175,1,68.0000012969971,2|2,3:2|0:0,0:0:0:0:
294,254,94096,1,10,0:0:0:0:
486,131,94516,5,2,0:0:0:0:
460,206,94726,1,2,3:2:0:0:
493,99,94936,2,0,P|435:72|345:95,1,136.000002593994,2|0,3:2|0:0,0:0:0:0:
287,71,95565,1,0,0:0:0:0:
228,122,95775,2,0,P|203:181|231:263,1,136.000002593994,8|2,0:0|0:0,0:0:0:0:
342,189,96404,6,0,B|310:179|310:179|257:195,1,68.0000012969971,2|2,3:2|0:0,0:0:0:0:
219,248,96824,1,2,3:2:0:0:
279,301,97033,2,0,B|307:311|307:311|342:298,1,68.0000012969971,2|2,3:2|0:0,0:0:0:0:
276,188,97453,5,10,0:0:0:0:
197,169,97663,1,2,3:2:0:0:
342,298,97873,5,2,0:0:0:0:
421,279,98083,1,0,3:0:0:0:
325,131,98292,6,0,B|325:247|244:236|250:366,1,240,2|0,0:0|0:0,0:0:0:0:
249,353,99970,2,0,P|177:316|105:340,1,160,2|0,0:0|0:0,0:0:0:0:
105,339,101229,2,0,P|96:304|88:279,1,60
7,240,101649,6,0,P|84:253|158:194,1,160,6|0,3:2|0:0,0:0:0:0:
176,136,102278,1,0,0:0:0:0:
45,95,102488,6,0,L|66:172,1,80,8|0,0:0|0:0,0:0:0:0:
211,273,102908,2,0,L|232:195,1,80,0|0,0:0|3:0,0:0:0:0:
25,264,103327,2,0,P|62:277|100:269,1,80,0|0,0:0|3:0,0:0:0:0:
266,124,103747,2,0,P|227:116|188:131,1,80,0|0,3:0|0:0,0:0:0:0:
411,131,104166,5,8,0:0:0:0:
267,215,104376,1,0,3:0:0:0:
449,205,104586,5,2,0:0:0:0:
342,202,104796,1,0,3:0:0:0:
417,36,105005,6,0,B|344:31|344:98|287:139,1,160,2|2,3:2|0:0,0:0:0:0:
214,116,105635,6,0,P|205:90|197:63,1,30.0000011444092,2|0,0:0|0:0,0:0:0:0:
124,194,105845,2,0,L|136:116,1,80,10|0,0:0|0:0,0:0:0:0:
219,313,106264,6,0,L|200:189,1,120,2|0,0:0|0:0,0:0:0:0:
206,188,106684,2,0,P|242:174|285:189,1,80,2|2,0:0|3:2,0:0:0:0:
465,261,107103,2,0,P|426:270|388:260,1,80,2|2,3:2|0:0,0:0:0:0:
448,64,107523,6,0,B|449:125|410:126|412:196,1,120,10|0,0:0|0:0,0:0:0:0:
391,188,107943,2,0,B|371:188|346:203|346:203|333:184|304:174,1,90.0000034332277,2|0,0:0|0:0,0:0:0:0:
317,86,108362,6,0,B|236:78|270:164|159:157,1,160,2|0,3:2|0:0,0:0:0:0:
119,83,108991,1,0,0:0:0:0:
39,194,109201,6,0,P|80:173|126:181,1,80,8|0,0:0|0:0,0:0:0:0:
233,289,109621,2,0,P|274:310|320:302,1,80,0|0,0:0|3:0,0:0:0:0:
310,135,110040,2,0,P|264:127|223:149,1,80,0|0,0:0|3:0,0:0:0:0:
154,285,110460,2,0,P|121:317|75:324,1,80,0|0,3:0|0:0,0:0:0:0:
125,56,110880,5,8,0:0:0:0:
275,198,111090,1,0,3:0:0:0:
213,76,111300,5,2,0:0:0:0:
178,187,111510,1,0,3:0:0:0:
298,53,111719,6,0,B|346:56|363:90|363:90|391:61|443:67,1,160,2|2,3:2|0:0,0:0:0:0:
301,164,112348,6,0,P|303:137|294:113,1,40,2|0,0:0|0:0,0:0:0:0:
207,40,112558,2,0,P|217:84|229:141,1,80,10|0,0:0|0:0,0:0:0:0:
195,181,112977,2,0,P|245:150|302:165,1,120,2|0,0:0|0:0,0:0:0:0:
307,176,113397,2,0,L|293:266,1,80,2|2,0:0|3:2,0:0:0:0:
72,295,113817,5,2,3:2:0:0:
189,348,114026,1,2,0:0:0:0:
98,203,114236,6,0,P|54:211|7:214,1,80,10|2,0:0|3:2,0:0:0:0:
161,66,114656,2,0,P|192:89|203:127,1,80,2|0,0:0|3:0,0:0:0:0:
307,176,115075,2,0,P|387:142|466:120,1,160,2|0,3:2|0:0,0:0:0:0:
125,308,115915,6,0,P|90:226|150:151,1,160,10|0,0:0|0:0,0:0:0:0:
217,109,116544,1,0,3:0:0:0:
349,58,116754,2,0,P|322:34|264:29,1,80,2|0,0:0|3:0,0:0:0:0:
120,168,117173,2,0,L|36:149,1,80,2|0,3:2|0:0,0:0:0:0:
335,247,117593,2,0,B|444:236|382:215|488:208,1,160,10|0,0:0|0:0,0:0:0:0:
108,347,118432,6,0,P|76:321|81:263,1,80,2|0,3:2|0:0,0:0:0:0:
180,115,118852,2,0,P|175:154|170:208,1,80,2|0,0:0|0:0,0:0:0:0:
251,278,119271,2,0,B|284:282|336:262|297:197|407:211,1,160,10|2,0:0|0:0,0:0:0:0:
447,264,119901,1,0,3:0:0:0:
391,363,120110,6,0,P|371:327|381:281,1,80,2|0,0:0|3:0,0:0:0:0:
512,294,120530,2,0,P|504:340|497:376,1,80,2|0,3:2|0:0,0:0:0:0:
339,198,120950,2,0,P|403:160|479:196,1,160,10|2,0:0|0:0,0:0:0:0:
410,242,121579,1,0,3:0:0:0:
343,309,121789,6,0,L|343:266,1,30.0000011444092
269,274,121998,2,0,L|271:319,1,40
195,314,122208,2,0,L|197:193,1,120
123,155,122628,6,0,B|245:196|206:34|354:79,1,240.000009155274,14|0,0:0|0:0,0:0:0:0:
294,198,123257,1,0,3:0:0:0:
160,78,123467,1,0,0:0:0:0:
196,194,123677,1,0,3:0:0:0:
329,66,123887,1,0,3:0:0:0:
329,66,124306,5,8,0:0:0:0:
422,214,124516,1,0,3:0:0:0:
294,198,124726,1,2,0:0:0:0:
416,107,124936,1,0,3:0:0:0:
436,292,125145,6,0,P|389:287|356:245,1,80,2|2,3:2|0:0,0:0:0:0:
224,313,125565,1,2,0:0:0:0:
291,363,125774,1,2,0:0:0:0:
314,214,125984,2,0,P|303:134|289:55,1,160,10|0,0:0|0:0,0:0:0:0:
212,15,126614,1,0,3:0:0:0:
124,123,126824,6,0,P|163:116|195:93,1,80,2|2,0:0|3:2,0:0:0:0:
365,87,127243,1,2,3:2:0:0:
289,55,127452,1,2,0:0:0:0:
328,215,127663,2,0,B|307:187|300:157|300:157|282:190|256:213|256:213|283:197|310:198,1,160,10|0,0:0|0:0,0:0:0:0:
374,159,128292,1,0,3:0:0:0:
