osu file format v14

[General]
AudioFilename: audio.mp3
AudioLeadIn: 0
PreviewTime: 14364
Countdown: 0
SampleSet: Normal
StackLeniency: 0.7
Mode: 1
LetterboxInBreaks: 0
WidescreenStoryboard: 1

[Editor]
DistanceSpacing: 1.2
BeatDivisor: 4
GridSize: 32
TimelineZoom: 1.6

[Metadata]
Title:Mine
TitleUnicode:Mine
Artist:Bazzi
ArtistUnicode:Bazzi
Creator:Finana Ryugu
Version::tadas_futsuu:
Source:
Tags:andrew cosmic pop electronic alternative r&b rnb rhythm and blues soul english [Zeth] tadahitotsu
BeatmapID:3278500
BeatmapSetID:1598413

[Difficulty]
HPDrainRate:7
CircleSize:2
OverallDifficulty:4
ApproachRate:10
SliderMultiplier:1.4
SliderTickRate:1

[Events]
//Background and Video events
0,0,"anime wallpaper.jpg",0,-100
//Break Periods
2,7641,10557
2,14354,17271
2,21277,23984
2,27991,30697
2,64914,67620
2,78340,81047
//Storyboard Layer 0 (Background)
//Storyboard Layer 1 (Fail)
//Storyboard Layer 2 (Pass)
//Storyboard Layer 3 (Foreground)
//Storyboard Layer 4 (Overlay)
//Storyboard Sound Samples

[TimingPoints]
938,839.160839160839,4,1,0,55,1,0
938,-58.8235294117647,4,1,0,55,0,0
3875,-58.8235294117647,4,1,0,55,0,0
7651,-58.8235294117647,4,1,0,55,0,0
11007,-58.8235294117647,4,1,0,55,0,0
14364,-58.8235294117647,4,1,0,55,0,0
17721,-55.5555555555556,4,1,0,75,0,1
18140,-55.5555555555556,4,1,0,75,0,0
18560,-55.5555555555556,4,1,0,75,0,0
19189,-55.5555555555556,4,1,0,75,0,0
19819,-55.5555555555556,4,1,0,75,0,0
20238,-55.5555555555556,4,1,0,75,0,0
21077,-55.5555555555556,4,1,0,75,0,0
24434,-55.5555555555556,4,1,0,75,0,1
24854,-55.5555555555556,4,1,0,75,0,0
25273,-55.5555555555556,4,1,0,75,0,0
25902,-55.5555555555556,4,1,0,75,0,0
26532,-55.5555555555556,4,1,0,75,0,0
26951,-55.5555555555556,4,1,0,75,0,0
27791,-55.5555555555556,4,1,0,75,0,0
31147,-55.5555555555556,4,1,0,75,0,1
31567,-55.5555555555556,4,1,0,75,0,0
31986,-55.5555555555556,4,1,0,75,0,0
32616,-55.5555555555556,4,1,0,75,0,0
33245,-55.5555555555556,4,1,0,75,0,0
33664,-55.5555555555556,4,1,0,75,0,0
34504,-55.5555555555556,4,1,0,75,0,0
36182,-55.5555555555556,4,1,0,75,0,0
37861,-50,4,1,0,75,0,1
38280,-50,4,1,0,75,0,1
40798,-50,4,1,0,75,0,1
40903,-50,4,1,0,75,0,1
44469,-50,4,1,0,75,0,1
44784,-50,4,1,0,75,0,1
47511,-50,4,1,0,75,0,1
47616,-50,4,1,0,75,0,1
51287,-50,4,1,0,75,0,1
51497,-50,4,1,0,75,0,1
58000,-50,4,1,0,75,0,0
58840,-50,4,1,0,75,0,1
59049,-50,4,1,0,75,0,1
60937,-50,4,1,0,75,0,1
61357,-50,4,1,0,75,0,1
62196,-50,4,1,0,75,0,1
62826,-50,4,1,0,75,0,1
63455,-50,4,1,0,75,0,1
63875,-50,4,1,0,75,0,1
64504,-50,4,1,0,75,0,1
64714,-50,4,1,0,75,0,0
68070,-55.5555555555556,4,1,0,75,0,1
68490,-55.5555555555556,4,1,0,75,0,0
68909,-55.5555555555556,4,1,0,75,0,0
69538,-55.5555555555556,4,1,0,75,0,0
70168,-55.5555555555556,4,1,0,75,0,0
70587,-55.5555555555556,4,1,0,75,0,0
71427,-55.5555555555556,4,1,0,75,0,0
72266,-55.5555555555556,4,1,0,75,0,0
73944,-55.5555555555556,4,1,0,75,0,0
74784,-55.5555555555556,4,1,0,75,0,1
75203,-55.5555555555556,4,1,0,75,0,0
75623,-55.5555555555556,4,1,0,75,0,0
76252,-55.5555555555556,4,1,0,75,0,0
76882,-55.5555555555556,4,1,0,75,0,0
77301,-55.5555555555556,4,1,0,75,0,0
78140,-55.5555555555556,4,1,0,75,0,0
81497,-55.5555555555556,4,1,0,75,0,1
81917,-55.5555555555556,4,1,0,75,0,0
82336,-55.5555555555556,4,1,0,75,0,0
82965,-55.5555555555556,4,1,0,75,0,0
83595,-55.5555555555556,4,1,0,75,0,0
84014,-55.5555555555556,4,1,0,75,0,0
84854,-55.5555555555556,4,1,0,75,0,0
88210,-55.5555555555556,4,1,0,75,0,0
89049,-55.5555555555556,4,1,0,75,0,0
89679,-55.5555555555556,4,1,0,75,0,0
90308,-55.5555555555556,4,1,0,75,0,0
90728,-55.5555555555556,4,1,0,75,0,0
91147,-55.5555555555556,4,1,0,75,0,0
91567,-55.5555555555556,4,1,0,75,0,0
92406,-55.5555555555556,4,1,0,75,0,0
93035,-55.5555555555556,4,1,0,75,0,0
93665,-55.5555555555556,4,1,0,75,0,0
94084,-55.5555555555556,4,1,0,75,0,0
94504,-55.5555555555556,4,1,0,75,0,0
94924,-55.5555555555556,4,1,0,75,0,0
96182,-55.5555555555556,4,1,0,75,0,0
96602,-55.5555555555556,4,1,0,75,0,0
97021,-55.5555555555556,4,1,0,75,0,0
97441,-55.5555555555556,4,1,0,75,0,0
97861,-55.5555555555556,4,1,0,75,0,0
98280,-55.5555555555556,4,1,0,75,0,0
99958,-55.5555555555556,4,1,0,75,0,0
101637,-47.6190476190476,4,1,0,75,0,1
102056,-47.6190476190476,4,1,0,75,0,1
104574,-47.6190476190476,4,1,0,75,0,1
104679,-47.6190476190476,4,1,0,75,0,1
108245,-47.6190476190476,4,1,0,75,0,1
108560,-47.6190476190476,4,1,0,75,0,1
111287,-47.6190476190476,4,1,0,75,0,1
111392,-47.6190476190476,4,1,0,75,0,1
115063,-47.6190476190476,4,1,0,75,0,1
115273,-47.6190476190476,4,1,0,75,0,1
121777,-47.6190476190476,4,1,0,75,0,0
122616,-47.6190476190476,4,1,0,75,0,1
122825,-47.6190476190476,4,1,0,75,0,1
124713,-47.6190476190476,4,1,0,75,0,1
125133,-47.6190476190476,4,1,0,75,0,1
125972,-47.6190476190476,4,1,0,75,0,1
126602,-47.6190476190476,4,1,0,75,0,1
127231,-47.6190476190476,4,1,0,75,0,1
127651,-47.6190476190476,4,1,0,75,0,1
128280,-47.6190476190476,4,1,0,75,0,0

[HitObjects]
214,203,4294,5,8,0:0:0:0:
328,154,5763,1,0,0:0:0:0:
182,147,6182,1,0,0:0:0:0:
182,147,6392,1,8,0:0:0:0:
237,111,7021,1,8,0:0:0:0:
128,142,7441,1,0,0:0:0:0:
275,179,11007,5,8,0:0:0:0:
300,155,12476,1,0,0:0:0:0:
300,155,12896,1,0,0:0:0:0:
238,120,13105,1,8,0:0:0:0:
297,148,13735,1,8,0:0:0:0:
297,148,14154,1,8,0:0:0:0:
238,166,17721,5,4,0:0:0:0:
207,133,18140,1,0,0:0:0:0:
273,124,18560,1,8,0:0:0:0:
223,84,18979,1,8,0:0:0:0:
172,122,19189,1,0,0:0:0:0:
201,109,19609,1,0,0:0:0:0:
236,131,19819,1,0,0:0:0:0:
171,94,20238,1,8,0:0:0:0:
171,94,20658,1,0,0:0:0:0:
171,94,21077,1,8,0:0:0:0:
190,131,24434,5,12,0:0:0:0:
143,46,24854,1,0,0:0:0:0:
365,131,25273,1,8,0:0:0:0:
125,127,25693,1,8,0:0:0:0:
125,127,25903,1,0,0:0:0:0:
297,155,26322,1,0,0:0:0:0:
305,155,26532,1,0,0:0:0:0:
159,120,26951,1,8,0:0:0:0:
189,114,27371,1,0,0:0:0:0:
159,120,27791,1,8,0:0:0:0:
192,129,31147,5,12,0:0:0:0:
192,129,31567,1,0,0:0:0:0:
251,102,31986,1,8,0:0:0:0:
251,102,32196,1,8,0:0:0:0:
251,102,32406,1,8,0:0:0:0:
224,113,32616,1,0,0:0:0:0:
161,116,33035,1,0,0:0:0:0:
161,116,33245,1,0,0:0:0:0:
156,126,33665,1,8,0:0:0:0:
156,126,34084,1,8,0:0:0:0:
155,126,34504,1,0,0:0:0:0:
263,199,37861,1,4,0:0:0:0:
288,177,38700,1,8,0:0:0:0:
288,177,39119,1,8,0:0:0:0:
281,98,39329,1,0,0:0:0:0:
288,177,39539,1,8,0:0:0:0:
281,98,39749,1,0,0:0:0:0:
288,177,39958,1,0,0:0:0:0:
288,177,40378,1,8,0:0:0:0:
206,117,40798,1,0,0:0:0:0:
230,78,41007,1,0,0:0:0:0:
206,117,41217,1,8,0:0:0:0:
215,99,41637,1,8,0:0:0:0:
215,99,41847,1,0,0:0:0:0:
215,99,42056,1,8,0:0:0:0:
228,155,42476,1,0,0:0:0:0:
150,169,42896,1,8,0:0:0:0:
294,175,43105,1,8,0:0:0:0:
150,169,43315,1,0,0:0:0:0:
150,169,43735,1,8,0:0:0:0:
170,111,44154,1,0,0:0:0:0:
263,199,44574,1,6,0:0:0:0:
288,177,45413,1,8,0:0:0:0:
288,177,45832,1,8,0:0:0:0:
281,98,46042,1,0,0:0:0:0:
288,177,46252,1,8,0:0:0:0:
281,98,46462,1,8,0:0:0:0:
288,177,46671,1,0,0:0:0:0:
288,177,47091,1,8,0:0:0:0:
206,117,47301,1,0,0:0:0:0:
206,117,47511,1,0,0:0:0:0:
206,117,47931,1,8,0:0:0:0:
215,99,48350,1,0,0:0:0:0:
215,99,48560,1,0,0:0:0:0:
215,99,48769,1,8,0:0:0:0:
228,155,49189,1,8,0:0:0:0:
150,169,49609,1,8,0:0:0:0:
294,175,49818,1,8,0:0:0:0:
150,169,50028,1,0,0:0:0:0:
150,169,50448,1,8,0:0:0:0:
170,111,50867,1,0,0:0:0:0:
263,199,51287,1,12,0:0:0:0:
288,177,52126,1,8,0:0:0:0:
288,177,52545,1,0,0:0:0:0:
288,177,52965,1,8,0:0:0:0:
281,98,53175,1,8,0:0:0:0:
288,177,53384,1,0,0:0:0:0:
288,177,53805,1,8,0:0:0:0:
206,117,54224,1,0,0:0:0:0:
230,78,54433,1,0,0:0:0:0:
206,117,54643,1,8,0:0:0:0:
215,99,55063,1,0,0:0:0:0:
215,99,55483,1,8,0:0:0:0:
228,155,55902,1,0,0:0:0:0:
150,169,56322,1,8,0:0:0:0:
294,175,56531,1,0,0:0:0:0:
150,169,56741,1,0,0:0:0:0:
150,169,57161,1,8,0:0:0:0:
170,111,57580,1,0,0:0:0:0:
170,111,58000,1,0,0:0:0:0:
239,149,58840,1,12,0:0:0:0:
217,122,59259,1,8,0:0:0:0:
184,138,59469,1,0,0:0:0:0:
217,122,59679,1,8,0:0:0:0:
184,138,59889,1,0,0:0:0:0:
217,122,60098,1,0,0:0:0:0:
217,122,60518,1,8,0:0:0:0:
216,129,60937,1,0,0:0:0:0:
216,129,61357,1,8,0:0:0:0:
180,99,61567,1,8,0:0:0:0:
180,99,61777,1,0,0:0:0:0:
292,155,62196,1,8,0:0:0:0:
192,131,62616,1,0,0:0:0:0:
241,124,63035,1,8,0:0:0:0:
241,124,63245,1,0,0:0:0:0:
241,124,63455,1,0,0:0:0:0:
241,124,63665,1,8,0:0:0:0:
241,124,63875,1,8,0:0:0:0:
167,159,64294,1,0,0:0:0:0:
157,159,64714,1,8,0:0:0:0:
253,192,68070,5,4,0:0:0:0:
148,160,68490,1,0,0:0:0:0:
148,160,68910,1,8,0:0:0:0:
201,146,69329,1,8,0:0:0:0:
201,146,69539,1,0,0:0:0:0:
201,146,69958,1,0,0:0:0:0:
201,146,70168,1,0,0:0:0:0:
247,109,70588,1,8,0:0:0:0:
247,109,71007,1,0,0:0:0:0:
247,109,71217,1,0,0:0:0:0:
247,109,71427,1,8,0:0:0:0:
203,159,71847,1,0,0:0:0:0:
311,131,72266,1,8,0:0:0:0:
130,131,72686,1,8,0:0:0:0:
219,138,72896,1,0,0:0:0:0:
234,135,73105,1,8,0:0:0:0:
230,136,73315,1,8,0:0:0:0:
230,136,73525,1,0,0:0:0:0:
204,124,73944,1,8,0:0:0:0:
204,124,74364,1,8,0:0:0:0:
204,124,74784,1,4,0:0:0:0:
272,52,75623,1,8,0:0:0:0:
272,52,76042,1,8,0:0:0:0:
272,52,76252,1,0,0:0:0:0:
272,52,76672,1,0,0:0:0:0:
272,52,76882,1,0,0:0:0:0:
303,113,77301,1,8,0:0:0:0:
217,146,77511,1,0,0:0:0:0:
303,113,77721,1,0,0:0:0:0:
303,113,78140,1,8,0:0:0:0:
286,157,81497,5,12,0:0:0:0:
286,157,81917,1,0,0:0:0:0:
286,157,82126,1,0,0:0:0:0:
286,157,82336,1,8,0:0:0:0:
148,151,82756,1,8,0:0:0:0:
148,151,82965,1,0,0:0:0:0:
254,144,83385,1,0,0:0:0:0:
254,144,83595,1,0,0:0:0:0:
219,140,84014,1,8,0:0:0:0:
219,140,84434,1,8,0:0:0:0:
219,140,84854,1,0,0:0:0:0:
225,162,88210,5,0,0:0:0:0:
280,125,88630,1,0,0:0:0:0:
299,151,88840,1,0,0:0:0:0:
280,125,89049,1,8,0:0:0:0:
162,122,89469,1,8,0:0:0:0:
177,142,89679,1,0,0:0:0:0:
317,84,90098,1,0,0:0:0:0:
162,122,90308,1,0,0:0:0:0:
137,124,90728,1,8,0:0:0:0:
137,124,91147,1,8,0:0:0:0:
137,124,91567,1,0,0:0:0:0:
130,158,91777,1,8,0:0:0:0:
220,153,91986,1,8,0:0:0:0:
220,153,92406,1,8,0:0:0:0:
110,135,92826,1,8,0:0:0:0:
110,135,93035,1,0,0:0:0:0:
110,135,93245,1,8,0:0:0:0:
88,123,93665,1,0,0:0:0:0:
88,123,94084,1,8,0:0:0:0:
268,109,94924,1,0,0:0:0:0:
268,109,95343,1,0,0:0:0:0:
268,109,95763,1,8,0:0:0:0:
249,96,96182,1,8,0:0:0:0:
249,96,96392,1,0,0:0:0:0:
195,126,96602,1,8,0:0:0:0:
195,126,96812,1,0,0:0:0:0:
195,126,97021,1,0,0:0:0:0:
268,108,97441,1,8,0:0:0:0:
268,108,97861,1,8,0:0:0:0:
268,108,98280,1,0,0:0:0:0:
263,199,101637,1,12,0:0:0:0:
288,177,102476,1,8,0:0:0:0:
288,177,102895,1,8,0:0:0:0:
281,98,103105,1,0,0:0:0:0:
288,177,103315,1,8,0:0:0:0:
281,98,103525,1,8,0:0:0:0:
288,177,103734,1,0,0:0:0:0:
288,177,104154,1,8,0:0:0:0:
206,117,104364,1,0,0:0:0:0:
206,117,104574,1,0,0:0:0:0:
206,117,104994,1,8,0:0:0:0:
215,99,105413,1,0,0:0:0:0:
215,99,105623,1,0,0:0:0:0:
215,99,105832,1,8,0:0:0:0:
228,155,106252,1,8,0:0:0:0:
150,169,106672,1,8,0:0:0:0:
294,175,106881,1,8,0:0:0:0:
150,169,107091,1,0,0:0:0:0:
248,157,107301,1,0,0:0:0:0:
150,169,107511,1,8,0:0:0:0:
170,111,107930,1,0,0:0:0:0:
263,199,108350,1,12,0:0:0:0:
288,177,109189,1,8,0:0:0:0:
288,177,109608,1,8,0:0:0:0:
281,98,109818,1,0,0:0:0:0:
288,177,110028,1,8,0:0:0:0:
281,98,110238,1,0,0:0:0:0:
288,177,110447,1,0,0:0:0:0:
288,177,110867,1,8,0:0:0:0:
206,117,111287,1,0,0:0:0:0:
230,78,111496,1,0,0:0:0:0:
206,117,111706,1,8,0:0:0:0:
215,99,112126,1,8,0:0:0:0:
215,99,112336,1,0,0:0:0:0:
215,99,112545,1,8,0:0:0:0:
228,155,112965,1,0,0:0:0:0:
150,169,113385,1,8,0:0:0:0:
294,175,113594,1,8,0:0:0:0:
150,169,113804,1,0,0:0:0:0:
276,130,114014,1,0,0:0:0:0:
150,169,114224,1,8,0:0:0:0:
170,111,114643,1,0,0:0:0:0:
263,199,115063,1,12,0:0:0:0:
288,177,115902,1,8,0:0:0:0:
288,177,116321,1,0,0:0:0:0:
288,177,116741,1,8,0:0:0:0:
281,98,116951,1,8,0:0:0:0:
288,177,117160,1,0,0:0:0:0:
288,177,117581,1,8,0:0:0:0:
207,168,117791,1,0,0:0:0:0:
206,117,118000,1,0,0:0:0:0:
230,78,118209,1,0,0:0:0:0:
206,117,118419,1,8,0:0:0:0:
215,99,118839,1,0,0:0:0:0:
215,99,119259,1,8,0:0:0:0:
228,155,119678,1,0,0:0:0:0:
150,169,120098,1,8,0:0:0:0:
294,175,120307,1,0,0:0:0:0:
150,169,120517,1,0,0:0:0:0:
150,169,120937,1,8,0:0:0:0:
170,111,121356,1,0,0:0:0:0:
228,145,121567,1,0,0:0:0:0:
170,111,121776,1,8,0:0:0:0:
239,149,122616,1,12,0:0:0:0:
217,122,123035,1,8,0:0:0:0:
184,138,123245,1,0,0:0:0:0:
217,122,123455,1,8,0:0:0:0:
184,138,123665,1,0,0:0:0:0:
217,122,123874,1,0,0:0:0:0:
217,122,124294,1,8,0:0:0:0:
216,129,124713,1,0,0:0:0:0:
216,129,125133,1,8,0:0:0:0:
180,99,125343,1,8,0:0:0:0:
180,99,125553,1,0,0:0:0:0:
292,155,125972,1,8,0:0:0:0:
192,131,126392,1,0,0:0:0:0:
166,173,126602,1,0,0:0:0:0:
241,124,126811,1,8,0:0:0:0:
241,124,127021,1,0,0:0:0:0:
241,124,127231,1,0,0:0:0:0:
241,124,127441,1,8,0:0:0:0:
241,124,127651,1,8,0:0:0:0:
167,159,128070,1,0,0:0:0:0:
157,159,128490,1,0,0:0:0:0:
