osu file format v14

[General]
AudioFilename: audio.mp3
AudioLeadIn: 0
PreviewTime: 14364
Countdown: 0
SampleSet: Normal
StackLeniency: 0.7
Mode: 1
LetterboxInBreaks: 0
WidescreenStoryboard: 0

[Editor]
DistanceSpacing: 1.2
BeatDivisor: 8
GridSize: 32
TimelineZoom: 1.6

[Metadata]
Title:Mine
TitleUnicode:Mine
Artist:Bazzi
ArtistUnicode:Bazzi
Creator:Finana Ryugu
Version::sparkling_heart:
Source:
Tags:andrew cosmic pop electronic alternative r&b rnb rhythm and blues soul english [Zeth] tadahitotsu
BeatmapID:3264362
BeatmapSetID:1598413

[Difficulty]
HPDrainRate:6
CircleSize:2
OverallDifficulty:6
ApproachRate:10
SliderMultiplier:1.4
SliderTickRate:1

[Events]
//Background and Video events
0,0,"anime wallpaper.jpg",0,-100
//Break Periods
2,7651,10483
2,14364,17196
2,21077,23910
2,27791,30623
2,64714,67546
2,78140,80972
//Storyboard Layer 0 (Background)
//Storyboard Layer 1 (Fail)
//Storyboard Layer 2 (Pass)
//Storyboard Layer 3 (Foreground)
//Storyboard Layer 4 (Overlay)
//Storyboard Sound Samples

[TimingPoints]
938,839.160839160839,4,1,0,55,1,0
938,-10,4,1,0,55,0,0
3875,-400,4,1,0,55,0,0
7651,-10,4,1,0,55,0,0
11007,-400,4,1,0,55,0,0
13735,-307.692307692308,4,1,0,55,0,0
14154,-266.666666666667,4,1,0,55,0,0
14364,-10,4,1,0,55,0,0
17721,-50,4,1,0,75,0,1
18140,-53.5503048886609,4,1,0,75,0,0
18350,-55.5214715410817,4,1,0,75,0,0
18560,-57.6432998022258,4,1,0,75,0,0
18979,-62.4137909512486,4,1,0,75,0,0
19189,-65.1078968065879,4,1,0,75,0,0
19294,-66.5441367295686,4,1,0,75,0,0
19399,-68.0451248049657,4,1,0,75,0,0
19609,-71.2598383114269,4,1,0,75,0,0
19819,-74.7933646318633,4,1,0,75,0,0
20238,-83.0275153185766,4,1,0,75,0,0
20448,-87.8640426948956,4,1,0,75,0,0
20868,-99.4505357897616,4,1,0,75,0,0
21077,-10,4,1,0,75,0,0
24434,-40,4,1,0,75,0,1
24854,-42.840239322713,4,1,0,75,0,0
25063,-44.41718216508,4,1,0,75,0,0
25273,-46.1146557909862,4,1,0,75,0,0
25692,-49.9310452265421,4,1,0,75,0,0
25902,-52.0863174452703,4,1,0,75,0,0
26007,-53.2352952136678,4,1,0,75,0,0
26112,-54.4360776193144,4,1,0,75,0,0
26322,-57.0078625243994,4,1,0,75,0,0
26532,-59.8347006559678,4,1,0,75,0,0
26637,-61.4439324116743,4,1,0,75,0,0
26742,-62.9565134179217,4,1,0,75,0,0
26951,-66.4220122548613,4,1,0,75,0,0
27161,-70.2912588602132,4,1,0,75,0,0
27581,-79.5604444564669,4,1,0,75,0,0
27791,-10,4,1,0,75,0,0
31147,-33.3333333333333,4,1,0,75,0,1
31567,-35.2826528603294,4,1,0,75,0,0
31776,-36.3453843724297,4,1,0,75,0,0
31986,-37.474124117297,4,1,0,75,0,0
32091,-38.0651919703761,4,1,0,75,0,0
32196,-38.6752190467719,4,1,0,75,0,0
32405,-39.9558567694411,4,1,0,75,0,0
32615,-41.3241924219696,4,1,0,75,0,0
32720,-42.044135410706,4,1,0,75,0,0
32825,-42.7895903196254,4,1,0,75,0,0
33035,-44.3627381391783,4,1,0,75,0,0
33245,-46.0559736670365,4,1,0,75,0,0
33455,-47.8835930699033,4,1,0,75,0,0
33560,-48.852909264026,4,1,0,75,0,0
33664,-49.8622555191284,4,1,0,75,0,0
33874,-52.0114924593738,4,1,0,75,0,0
34294,-56.9182414995452,4,1,0,75,0,0
34504,-10,4,1,0,75,0,0
36182,-10000,4,1,0,75,0,0
37861,-20,4,1,0,75,0,1
38280,-33.3333333333333,4,1,0,75,0,1
40798,-25,4,1,0,75,0,1
40903,-33.3333333333333,4,1,0,75,0,1
44469,-20,4,1,0,75,0,1
44784,-33.3333333333333,4,1,0,75,0,1
47511,-25,4,1,0,75,0,1
47616,-33.3333333333333,4,1,0,75,0,1
51287,-20,4,1,0,75,0,1
51497,-33.3333333333333,4,1,0,75,0,1
58000,-10,4,1,0,75,0,0
58840,-20,4,1,0,75,0,1
59049,-33.3333333333333,4,1,0,75,0,1
60937,-25,4,1,0,75,0,1
61147,-33.3333333333333,4,1,0,75,0,1
61357,-34.2198557290882,4,1,0,75,0,1
61567,-35.1548218353629,4,1,0,75,0,1
61672,-35.6417420400406,4,1,0,75,0,1
61777,-36.1423270381833,4,1,0,75,0,1
61986,-37.1869002450245,4,1,0,75,0,1
62196,-38.2936502617945,4,1,0,75,0,1
62616,-40.717292104632,4,1,0,75,0,1
62826,-42.0479363293329,4,1,0,75,0,1
63035,-43.4684710139195,4,1,0,75,0,1
63140,-44.2153499777597,4,1,0,75,0,1
63245,-44.9883435201939,4,1,0,75,0,1
63350,-45.7888456540433,4,1,0,75,0,1
63455,-46.6183514072682,4,1,0,75,0,1
63665,-48.3709159226414,4,1,0,75,0,1
63875,-50.2604243889715,4,1,0,75,0,1
64084,-52.3035257283658,4,1,0,75,0,1
64504,-56.9321431479034,4,1,0,75,0,1
64714,-10,4,1,0,75,0,0
68070,-50,4,1,0,75,0,1
68490,-53.3149077012318,4,1,0,75,0,0
68699,-55.1428420179633,4,1,0,75,0,0
68909,-57.1006026968615,4,1,0,75,0,0
69328,-61.4649683486145,4,1,0,75,0,0
69538,-63.9072782081933,4,1,0,75,0,0
69643,-65.2026923495725,4,1,0,75,0,0
69748,-66.5517096801458,4,1,0,75,0,0
69958,-69.4244367074767,4,1,0,75,0,0
70168,-72.5564089801616,4,1,0,75,0,0
70587,-79.7520667748105,4,1,0,75,0,0
70797,-83.9130325330827,4,1,0,75,0,0
71217,-93.6892776369316,4,1,0,75,0,0
71427,-100,4,1,0,75,0,0
71637,-103.208547319055,4,1,0,75,0,0
71847,-106.629815402464,4,1,0,75,0,0
72056,-110.285684035927,4,1,0,75,0,0
72266,-114.201140184184,4,1,0,75,0,0
72686,-122.929861138429,4,1,0,75,0,0
72896,-127.814638099243,4,1,0,75,0,0
73105,-133.103507942952,4,1,0,75,0,0
73525,-145.112817960323,4,1,0,75,0,0
73735,-151.968524279251,4,1,0,75,0,0
73944,-159.504133549621,4,1,0,75,0,0
74154,-167.826065066165,4,1,0,75,0,0
74364,-177.064169825787,4,1,0,75,0,0
74574,-187.378555273863,4,1,0,75,0,0
74784,-40,4,1,0,75,0,1
75203,-42.840239322713,4,1,0,75,0,0
75413,-44.41718216508,4,1,0,75,0,0
75623,-46.1146557909862,4,1,0,75,0,0
76042,-49.9310452265421,4,1,0,75,0,0
76252,-52.0863174452703,4,1,0,75,0,0
76357,-53.2352952136678,4,1,0,75,0,0
76462,-54.4360776193144,4,1,0,75,0,0
76672,-57.0078625243994,4,1,0,75,0,0
76882,-59.8347006559678,4,1,0,75,0,0
77092,-62.9565134179217,4,1,0,75,0,0
77197,-64.6428707640335,4,1,0,75,0,0
77301,-66.4220122548613,4,1,0,75,0,0
77511,-70.2912588602132,4,1,0,75,0,0
77931,-79.5604444564669,4,1,0,75,0,0
78140,-10,4,1,0,75,0,0
81497,-33.3333333333333,4,1,0,75,0,1
81917,-35.2826528603294,4,1,0,75,0,0
82126,-36.3453843724297,4,1,0,75,0,0
82336,-37.474124117297,4,1,0,75,0,0
82441,-38.0651919703761,4,1,0,75,0,0
82546,-38.6752190467719,4,1,0,75,0,0
82755,-39.9558567694411,4,1,0,75,0,0
82965,-41.3241924219696,4,1,0,75,0,0
83070,-42.044135410706,4,1,0,75,0,0
83175,-42.7895903196254,4,1,0,75,0,0
83385,-44.3627381391783,4,1,0,75,0,0
83490,-45.1935118386664,4,1,0,75,0,0
83595,-46.0559736670365,4,1,0,75,0,0
83700,-46.9520159787101,4,1,0,75,0,0
83805,-47.8835930699033,4,1,0,75,0,0
83910,-48.852909264026,4,1,0,75,0,0
84014,-49.8622555191284,4,1,0,75,0,0
84224,-52.0114924593738,4,1,0,75,0,0
84644,-56.9182414995452,4,1,0,75,0,0
84854,-10,4,1,0,75,0,0
88210,-100,4,1,0,75,0,0
88630,-102.218133496882,4,1,0,75,0,0
88840,-103.364514962014,4,1,0,75,0,0
89049,-104.536901526239,4,1,0,75,0,0
89469,-106.963197172749,4,1,0,75,0,0
89679,-108.219135091029,4,1,0,75,0,0
89889,-109.504917318312,4,1,0,75,0,0
90098,-110.821620411569,4,1,0,75,0,0
90308,-112.170373336654,4,1,0,75,0,0
90518,-113.552360696803,4,1,0,75,0,0
90728,-114.968826202775,4,1,0,75,0,0
90937,-116.421076405988,4,1,0,75,0,0
91147,-66.6666666666667,4,1,0,75,0,0
91567,-121.006629953255,4,1,0,75,0,0
91777,-122.616338381857,4,1,0,75,0,0
91986,-124.269605394295,4,1,0,75,0,0
92196,-125.968064576269,4,1,0,75,0,0
92406,-127.713594601291,4,1,0,75,0,0
92616,-129.508179736632,4,1,0,75,0,0
92826,-131.353917367878,4,1,0,75,0,0
93035,-133.253026176224,4,1,0,75,0,0
93245,-135.207855035546,4,1,0,75,0,0
93455,-137.22089270424,4,1,0,75,0,0
93665,-139.294778395937,4,1,0,75,0,0
93875,-141.43231332349,4,1,0,75,0,0
94084,-143.636267008329,4,1,0,75,0,0
94504,-148.257309455999,4,1,0,75,0,0
94714,-150.681154157368,4,1,0,75,0,0
94924,-153.185570531998,4,1,0,75,0,0
95133,-155.774643938108,4,1,0,75,0,0
95553,-161.224532569774,4,1,0,75,0,0
95763,-164.095024146583,4,1,0,75,0,0
96182,-170.153972329561,4,1,0,75,0,0
96392,-173.354089596328,4,1,0,75,0,0
96602,-176.677196627586,4,1,0,75,0,0
96812,-180.130198107192,4,1,0,75,0,0
97021,-183.720861871307,4,1,0,75,0,0
97231,-187.457587720778,4,1,0,75,0,0
97441,-191.349473023551,4,1,0,75,0,0
97651,-195.406386662342,4,1,0,75,0,0
97861,-100,4,1,0,75,0,0
98280,-200,4,1,0,75,0,0
99958,-10000,4,1,0,75,0,0
101637,-20,4,1,0,75,0,1
101847,-33.3333333333333,4,1,0,75,0,1
104574,-25,4,1,0,75,0,1
104679,-33.3333333333333,4,1,0,75,0,1
108350,-20,4,1,0,75,0,1
108560,-33.3333333333333,4,1,0,75,0,1
111287,-25,4,1,0,75,0,1
111497,-33.3333333333333,4,1,0,75,0,1
115063,-20,4,1,0,75,0,1
115273,-33.3333333333333,4,1,0,75,0,1
121777,-10,4,1,0,75,0,0
122616,-20,4,1,0,75,0,1
122826,-33.3333333333333,4,1,0,75,0,1
124714,-25,4,1,0,75,0,1
124924,-33.3333333333333,4,1,0,75,0,1
125132,-34.7826086956522,4,1,0,75,0,1
125342,-36.3636363636364,4,1,0,75,0,1
125447,-37.2093023255814,4,1,0,75,0,1
125552,-38.0952380952381,4,1,0,75,0,1
125762,-40,4,1,0,75,0,1
125971,-42.1052631578947,4,1,0,75,0,1
126391,-47.0588235294118,4,1,0,75,0,1
126601,-50,4,1,0,75,0,1
126811,-53.3333333333333,4,1,0,75,0,1
126916,-55.1724137931034,4,1,0,75,0,1
127020,-57.1428571428571,4,1,0,75,0,1
127125,-59.2592592592593,4,1,0,75,0,1
127230,-61.5384615384615,4,1,0,75,0,1
127440,-66.6666666666667,4,1,0,75,0,1
127650,-72.7272727272727,4,1,0,75,0,1
127860,-80,4,1,0,75,0,1
128280,-100,4,1,0,75,0,0

[HitObjects]
256,192,4294,5,0,0:0:0:0:
256,192,5763,1,0,0:0:0:0:
256,192,6182,1,0,0:0:0:0:
256,192,6392,1,0,0:0:0:0:
256,192,7021,1,0,0:0:0:0:
256,192,7441,1,0,0:0:0:0:
256,192,11007,5,0,0:0:0:0:
256,192,12476,1,0,0:0:0:0:
256,192,12896,1,0,0:0:0:0:
256,192,13105,1,0,0:0:0:0:
256,192,13735,1,0,0:0:0:0:
256,192,14154,1,0,0:0:0:0:
256,192,17721,5,4,0:0:0:0:
256,192,18140,1,2,0:0:0:0:
256,192,18350,1,0,0:0:0:0:
256,192,18560,1,2,0:0:0:0:
256,192,18979,1,0,0:0:0:0:
256,192,19189,1,2,0:0:0:0:
256,192,19294,1,2,0:0:0:0:
256,192,19399,1,0,0:0:0:0:
256,192,19609,1,2,0:0:0:0:
256,192,19819,1,0,0:0:0:0:
256,192,20238,1,2,0:0:0:0:
256,192,20448,1,0,0:0:0:0:
256,192,20868,1,2,0:0:0:0:
256,192,24434,5,4,0:0:0:0:
256,192,24854,1,2,0:0:0:0:
256,192,25063,1,0,0:0:0:0:
256,192,25273,1,2,0:0:0:0:
256,192,25692,1,0,0:0:0:0:
256,192,25902,1,2,0:0:0:0:
256,192,26007,1,2,0:0:0:0:
256,192,26112,1,0,0:0:0:0:
256,192,26322,1,2,0:0:0:0:
256,192,26532,1,0,0:0:0:0:
256,192,26637,1,0,0:0:0:0:
256,192,26742,1,0,0:0:0:0:
256,192,26951,1,2,0:0:0:0:
256,192,27161,1,0,0:0:0:0:
256,192,27581,1,2,0:0:0:0:
256,192,31147,5,4,0:0:0:0:
256,192,31567,1,2,0:0:0:0:
256,192,31776,1,0,0:0:0:0:
256,192,31986,1,2,0:0:0:0:
256,192,32091,1,2,0:0:0:0:
256,192,32196,1,2,0:0:0:0:
256,192,32405,1,0,0:0:0:0:
256,192,32615,1,2,0:0:0:0:
256,192,32720,1,2,0:0:0:0:
256,192,32825,1,0,0:0:0:0:
256,192,33035,1,2,0:0:0:0:
256,192,33245,1,0,0:0:0:0:
256,192,33455,1,0,0:0:0:0:
256,192,33560,1,0,0:0:0:0:
256,192,33664,1,2,0:0:0:0:
256,192,33874,1,0,0:0:0:0:
256,192,34294,1,2,0:0:0:0:
256,192,36182,12,2,37441,0:0:0:0:
256,192,37861,5,4,0:0:0:0:
256,192,38280,1,2,0:0:0:0:
256,192,38490,1,0,0:0:0:0:
256,192,38700,1,2,0:0:0:0:
256,192,38910,1,2,0:0:0:0:
256,192,39119,1,0,0:0:0:0:
256,192,39329,1,2,0:0:0:0:
256,192,39434,1,2,0:0:0:0:
256,192,39539,1,0,0:0:0:0:
256,192,39749,1,2,0:0:0:0:
256,192,39958,1,0,0:0:0:0:
256,192,40168,1,0,0:0:0:0:
256,192,40273,1,0,0:0:0:0:
256,192,40378,1,2,0:0:0:0:
256,192,40588,1,0,0:0:0:0:
256,192,40798,1,6,0:0:0:0:
256,192,41007,1,0,0:0:0:0:
256,192,41217,1,0,0:0:0:0:
256,192,41637,1,0,0:0:0:0:
256,192,41847,1,0,0:0:0:0:
256,192,42056,1,2,0:0:0:0:
256,192,42476,1,0,0:0:0:0:
256,192,42686,1,2,0:0:0:0:
256,192,42791,1,2,0:0:0:0:
256,192,42896,1,0,0:0:0:0:
256,192,43105,1,2,0:0:0:0:
256,192,43210,1,0,0:0:0:0:
256,192,43315,1,2,0:0:0:0:
256,192,43525,1,0,0:0:0:0:
256,192,43735,1,2,0:0:0:0:
256,192,43840,1,2,0:0:0:0:
256,192,43944,1,0,0:0:0:0:
256,192,44049,1,0,0:0:0:0:
256,192,44154,1,2,0:0:0:0:
256,192,44364,1,0,0:0:0:0:
256,192,44574,1,6,0:0:0:0:
256,192,44993,1,2,0:0:0:0:
256,192,45203,1,0,0:0:0:0:
256,192,45308,1,0,0:0:0:0:
256,192,45413,1,2,0:0:0:0:
256,192,45623,1,2,0:0:0:0:
256,192,45832,1,0,0:0:0:0:
256,192,46042,1,2,0:0:0:0:
256,192,46147,1,2,0:0:0:0:
256,192,46252,1,0,0:0:0:0:
256,192,46462,1,2,0:0:0:0:
256,192,46671,1,0,0:0:0:0:
256,192,46881,1,2,0:0:0:0:
256,192,46986,1,0,0:0:0:0:
256,192,47091,1,2,0:0:0:0:
256,192,47301,1,0,0:0:0:0:
256,192,47511,1,6,0:0:0:0:
256,192,47720,1,0,0:0:0:0:
256,192,47930,1,0,0:0:0:0:
256,192,48350,1,0,0:0:0:0:
256,192,48560,1,0,0:0:0:0:
256,192,48769,1,2,0:0:0:0:
256,192,49189,1,0,0:0:0:0:
256,192,49399,1,2,0:0:0:0:
256,192,49504,1,2,0:0:0:0:
256,192,49609,1,0,0:0:0:0:
256,192,49818,1,2,0:0:0:0:
256,192,49923,1,0,0:0:0:0:
256,192,50028,1,2,0:0:0:0:
256,192,50133,1,2,0:0:0:0:
256,192,50238,1,0,0:0:0:0:
256,192,50448,1,2,0:0:0:0:
256,192,50657,1,0,0:0:0:0:
256,192,50762,1,0,0:0:0:0:
256,192,50867,1,2,0:0:0:0:
256,192,51077,1,0,0:0:0:0:
256,192,51287,1,6,0:0:0:0:
256,192,51707,1,0,0:0:0:0:
256,192,51917,1,0,0:0:0:0:
256,192,52021,1,0,0:0:0:0:
256,192,52126,1,2,0:0:0:0:
256,192,52546,1,0,0:0:0:0:
256,192,52756,1,2,0:0:0:0:
256,192,52861,1,0,0:0:0:0:
256,192,52965,1,2,0:0:0:0:
256,192,53175,1,2,0:0:0:0:
256,192,53280,1,2,0:0:0:0:
256,192,53385,1,0,0:0:0:0:
256,192,53595,1,0,0:0:0:0:
256,192,53805,1,2,0:0:0:0:
256,192,54014,1,0,0:0:0:0:
256,192,54434,1,0,0:0:0:0:
256,192,54644,1,2,0:0:0:0:
256,192,54854,1,0,0:0:0:0:
256,192,54958,1,0,0:0:0:0:
256,192,55063,1,2,0:0:0:0:
256,192,55273,1,0,0:0:0:0:
256,192,55483,1,2,0:0:0:0:
256,192,55588,1,2,0:0:0:0:
256,192,55693,1,0,0:0:0:0:
256,192,55798,1,0,0:0:0:0:
256,192,55903,1,2,0:0:0:0:
256,192,56112,1,0,0:0:0:0:
256,192,56322,1,2,0:0:0:0:
256,192,56427,1,2,0:0:0:0:
256,192,56532,1,0,0:0:0:0:
256,192,56742,1,2,0:0:0:0:
256,192,56951,1,0,0:0:0:0:
256,192,57056,1,0,0:0:0:0:
256,192,57161,1,2,0:0:0:0:
256,192,57266,1,2,0:0:0:0:
256,192,57371,1,0,0:0:0:0:
256,192,57581,1,2,0:0:0:0:
256,192,57791,1,0,0:0:0:0:
256,192,57896,1,2,0:0:0:0:
256,192,58000,12,0,58630,0:0:0:0:
256,192,58840,5,6,0:0:0:0:
256,192,59259,1,2,0:0:0:0:
256,192,59469,1,0,0:0:0:0:
256,192,59574,1,0,0:0:0:0:
256,192,59678,1,2,0:0:0:0:
256,192,59888,1,2,0:0:0:0:
256,192,60098,1,0,0:0:0:0:
256,192,60203,1,2,0:0:0:0:
256,192,60308,1,0,0:0:0:0:
256,192,60413,1,0,0:0:0:0:
256,192,60517,1,2,0:0:0:0:
256,192,60727,1,0,0:0:0:0:
256,192,60937,1,6,0:0:0:0:
256,192,61147,5,0,0:0:0:0:
256,192,61357,1,0,0:0:0:0:
256,192,61567,1,2,0:0:0:0:
256,192,61672,1,2,0:0:0:0:
256,192,61777,1,0,0:0:0:0:
256,192,61986,1,0,0:0:0:0:
256,192,62196,1,2,0:0:0:0:
256,192,62616,1,2,0:0:0:0:
256,192,62826,1,0,0:0:0:0:
256,192,63035,1,2,0:0:0:0:
256,192,63140,1,0,0:0:0:0:
256,192,63245,1,2,0:0:0:0:
256,192,63350,1,2,0:0:0:0:
256,192,63455,1,0,0:0:0:0:
256,192,63665,1,0,0:0:0:0:
256,192,63875,1,2,0:0:0:0:
256,192,64084,1,0,0:0:0:0:
256,192,64504,1,0,0:0:0:0:
256,192,68070,5,4,0:0:0:0:
256,192,68490,1,2,0:0:0:0:
256,192,68699,1,0,0:0:0:0:
256,192,68909,1,2,0:0:0:0:
256,192,69328,1,0,0:0:0:0:
256,192,69538,1,2,0:0:0:0:
256,192,69643,1,2,0:0:0:0:
256,192,69748,1,0,0:0:0:0:
256,192,69958,1,2,0:0:0:0:
256,192,70168,1,0,0:0:0:0:
256,192,70587,1,2,0:0:0:0:
256,192,70797,1,0,0:0:0:0:
256,192,71217,1,2,0:0:0:0:
256,192,71427,5,0,0:0:0:0:
256,192,71637,1,0,0:0:0:0:
256,192,71847,1,2,0:0:0:0:
256,192,72056,1,0,0:0:0:0:
256,192,72266,1,2,0:0:0:0:
256,192,72686,1,0,0:0:0:0:
256,192,72896,1,0,0:0:0:0:
256,192,73105,1,2,0:0:0:0:
256,192,73525,1,2,0:0:0:0:
256,192,73735,1,2,0:0:0:0:
256,192,73944,1,0,0:0:0:0:
256,192,74154,1,0,0:0:0:0:
256,192,74364,1,2,0:0:0:0:
256,192,74574,1,0,0:0:0:0:
256,192,74784,5,6,0:0:0:0:
256,192,75203,1,2,0:0:0:0:
256,192,75413,1,0,0:0:0:0:
256,192,75623,1,2,0:0:0:0:
256,192,76042,1,0,0:0:0:0:
256,192,76252,1,2,0:0:0:0:
256,192,76357,1,2,0:0:0:0:
256,192,76462,1,0,0:0:0:0:
256,192,76672,1,2,0:0:0:0:
256,192,76882,1,0,0:0:0:0:
256,192,77092,1,0,0:0:0:0:
256,192,77197,1,0,0:0:0:0:
256,192,77301,1,2,0:0:0:0:
256,192,77511,1,0,0:0:0:0:
256,192,77931,1,2,0:0:0:0:
256,192,81497,5,4,0:0:0:0:
256,192,81917,1,2,0:0:0:0:
256,192,82126,1,0,0:0:0:0:
256,192,82336,1,2,0:0:0:0:
256,192,82441,1,2,0:0:0:0:
256,192,82546,1,2,0:0:0:0:
256,192,82755,1,0,0:0:0:0:
256,192,82965,1,2,0:0:0:0:
256,192,83070,1,2,0:0:0:0:
256,192,83175,1,0,0:0:0:0:
256,192,83385,1,0,0:0:0:0:
256,192,83490,1,2,0:0:0:0:
256,192,83595,1,0,0:0:0:0:
256,192,83700,1,2,0:0:0:0:
256,192,83805,1,0,0:0:0:0:
256,192,83910,1,0,0:0:0:0:
256,192,84014,1,2,0:0:0:0:
256,192,84224,1,0,0:0:0:0:
256,192,84644,1,2,0:0:0:0:
256,192,88210,1,0,0:0:0:0:
256,192,88630,1,2,0:0:0:0:
256,192,88840,1,0,0:0:0:0:
256,192,89049,1,2,0:0:0:0:
256,192,89469,1,0,0:0:0:0:
256,192,89679,1,2,0:0:0:0:
256,192,89889,1,0,0:0:0:0:
256,192,90098,1,2,0:0:0:0:
256,192,90308,1,0,0:0:0:0:
256,192,90518,1,0,0:0:0:0:
256,192,90728,1,2,0:0:0:0:
256,192,90937,1,0,0:0:0:0:
256,192,91147,1,6,0:0:0:0:
256,192,91567,1,0,0:0:0:0:
256,192,91777,1,0,0:0:0:0:
256,192,91986,1,2,0:0:0:0:
256,192,92196,1,0,0:0:0:0:
256,192,92406,1,2,0:0:0:0:
256,192,92616,1,2,0:0:0:0:
256,192,92826,1,0,0:0:0:0:
256,192,93035,1,2,0:0:0:0:
256,192,93245,1,0,0:0:0:0:
256,192,93455,1,0,0:0:0:0:
256,192,93665,1,2,0:0:0:0:
256,192,93875,1,0,0:0:0:0:
256,192,94084,1,2,0:0:0:0:
256,192,94504,1,2,0:0:0:0:
256,192,94714,1,2,0:0:0:0:
256,192,94924,1,0,0:0:0:0:
256,192,95133,1,0,0:0:0:0:
256,192,95553,1,0,0:0:0:0:
256,192,95763,1,2,0:0:0:0:
256,192,96182,1,2,0:0:0:0:
256,192,96392,1,2,0:0:0:0:
256,192,96602,1,0,0:0:0:0:
256,192,96812,1,2,0:0:0:0:
256,192,97021,1,0,0:0:0:0:
256,192,97231,1,0,0:0:0:0:
256,192,97441,1,2,0:0:0:0:
256,192,97651,1,0,0:0:0:0:
256,192,97861,1,6,0:0:0:0:
256,192,99958,12,0,101217,0:0:0:0:
256,192,101637,5,4,0:0:0:0:
256,192,102056,1,2,0:0:0:0:
256,192,102266,1,0,0:0:0:0:
256,192,102476,1,2,0:0:0:0:
256,192,102686,1,2,0:0:0:0:
256,192,102895,1,0,0:0:0:0:
256,192,103105,1,2,0:0:0:0:
256,192,103210,1,2,0:0:0:0:
256,192,103315,1,0,0:0:0:0:
256,192,103525,1,2,0:0:0:0:
256,192,103734,1,0,0:0:0:0:
256,192,103840,1,2,0:0:0:0:
256,192,103944,1,0,0:0:0:0:
256,192,104049,1,0,0:0:0:0:
256,192,104154,1,2,0:0:0:0:
256,192,104364,1,0,0:0:0:0:
256,192,104574,1,6,0:0:0:0:
256,192,104783,1,0,0:0:0:0:
256,192,104993,1,0,0:0:0:0:
256,192,105413,1,0,0:0:0:0:
256,192,105623,1,0,0:0:0:0:
256,192,105728,1,0,0:0:0:0:
256,192,105832,1,2,0:0:0:0:
256,192,106042,1,2,0:0:0:0:
256,192,106252,1,0,0:0:0:0:
256,192,106462,1,2,0:0:0:0:
256,192,106567,1,2,0:0:0:0:
256,192,106672,1,0,0:0:0:0:
256,192,106881,1,2,0:0:0:0:
256,192,106986,1,0,0:0:0:0:
256,192,107091,1,2,0:0:0:0:
256,192,107301,1,0,0:0:0:0:
256,192,107511,1,2,0:0:0:0:
256,192,107616,1,2,0:0:0:0:
256,192,107720,1,0,0:0:0:0:
256,192,107825,1,0,0:0:0:0:
256,192,107930,1,2,0:0:0:0:
256,192,108140,1,0,0:0:0:0:
256,192,108350,1,6,0:0:0:0:
256,192,108769,1,2,0:0:0:0:
256,192,108979,1,0,0:0:0:0:
256,192,109084,1,0,0:0:0:0:
256,192,109189,1,2,0:0:0:0:
256,192,109399,1,2,0:0:0:0:
256,192,109608,1,0,0:0:0:0:
256,192,109818,1,2,0:0:0:0:
256,192,109923,1,2,0:0:0:0:
256,192,110028,1,0,0:0:0:0:
256,192,110238,1,2,0:0:0:0:
256,192,110447,1,0,0:0:0:0:
256,192,110553,1,0,0:0:0:0:
256,192,110657,1,2,0:0:0:0:
256,192,110762,1,0,0:0:0:0:
256,192,110867,1,2,0:0:0:0:
256,192,111077,1,0,0:0:0:0:
256,192,111287,1,6,0:0:0:0:
256,192,111497,1,0,0:0:0:0:
256,192,111706,1,0,0:0:0:0:
256,192,112126,1,0,0:0:0:0:
256,192,112336,1,2,0:0:0:0:
256,192,112441,1,0,0:0:0:0:
256,192,112546,1,2,0:0:0:0:
256,192,112756,1,2,0:0:0:0:
256,192,112965,1,0,0:0:0:0:
256,192,113175,1,2,0:0:0:0:
256,192,113280,1,2,0:0:0:0:
256,192,113385,1,0,0:0:0:0:
256,192,113594,1,2,0:0:0:0:
256,192,113699,1,0,0:0:0:0:
256,192,113804,1,2,0:0:0:0:
256,192,113909,1,2,0:0:0:0:
256,192,114014,1,0,0:0:0:0:
256,192,114224,1,2,0:0:0:0:
256,192,114433,1,0,0:0:0:0:
256,192,114538,1,0,0:0:0:0:
256,192,114643,1,2,0:0:0:0:
256,192,114853,1,0,0:0:0:0:
256,192,115063,1,6,0:0:0:0:
256,192,115483,1,0,0:0:0:0:
256,192,115693,1,0,0:0:0:0:
256,192,115797,1,0,0:0:0:0:
256,192,115902,1,2,0:0:0:0:
256,192,116112,1,2,0:0:0:0:
256,192,116322,1,0,0:0:0:0:
256,192,116532,1,2,0:0:0:0:
256,192,116637,1,0,0:0:0:0:
256,192,116741,1,2,0:0:0:0:
256,192,116951,1,2,0:0:0:0:
256,192,117056,1,2,0:0:0:0:
256,192,117161,1,0,0:0:0:0:
256,192,117371,1,0,0:0:0:0:
256,192,117581,1,2,0:0:0:0:
256,192,117790,1,0,0:0:0:0:
256,192,118210,1,0,0:0:0:0:
256,192,118420,1,2,0:0:0:0:
256,192,118630,1,0,0:0:0:0:
256,192,118734,1,0,0:0:0:0:
256,192,118839,1,2,0:0:0:0:
256,192,119049,1,0,0:0:0:0:
256,192,119259,1,2,0:0:0:0:
256,192,119364,1,2,0:0:0:0:
256,192,119469,1,0,0:0:0:0:
256,192,119574,1,0,0:0:0:0:
256,192,119679,1,2,0:0:0:0:
256,192,119888,1,0,0:0:0:0:
256,192,120098,1,2,0:0:0:0:
256,192,120203,1,2,0:0:0:0:
256,192,120308,1,0,0:0:0:0:
256,192,120518,1,2,0:0:0:0:
256,192,120727,1,0,0:0:0:0:
256,192,120832,1,0,0:0:0:0:
256,192,120937,1,2,0:0:0:0:
256,192,121042,1,2,0:0:0:0:
256,192,121147,1,0,0:0:0:0:
256,192,121357,1,2,0:0:0:0:
256,192,121567,1,0,0:0:0:0:
256,192,121672,1,2,0:0:0:0:
256,192,121777,12,0,122406,0:0:0:0:
256,192,122616,5,6,0:0:0:0:
256,192,123035,1,2,0:0:0:0:
256,192,123245,1,0,0:0:0:0:
256,192,123350,1,0,0:0:0:0:
256,192,123454,1,2,0:0:0:0:
256,192,123664,1,2,0:0:0:0:
256,192,123874,1,0,0:0:0:0:
256,192,123979,1,2,0:0:0:0:
256,192,124084,1,0,0:0:0:0:
256,192,124189,1,0,0:0:0:0:
256,192,124293,1,2,0:0:0:0:
256,192,124503,1,0,0:0:0:0:
256,192,124714,1,6,0:0:0:0:
256,192,124924,5,0,0:0:0:0:
256,192,125133,1,0,0:0:0:0:
256,192,125343,1,2,0:0:0:0:
256,192,125448,1,2,0:0:0:0:
256,192,125553,1,0,0:0:0:0:
256,192,125763,1,0,0:0:0:0:
256,192,125972,1,2,0:0:0:0:
256,192,126392,1,0,0:0:0:0:
256,192,126602,1,2,0:0:0:0:
256,192,126812,1,0,0:0:0:0:
256,192,126917,1,2,0:0:0:0:
256,192,127021,1,0,0:0:0:0:
256,192,127126,1,0,0:0:0:0:
256,192,127231,1,2,0:0:0:0:
256,192,127441,1,0,0:0:0:0:
256,192,127651,1,2,0:0:0:0:
256,192,127861,1,0,0:0:0:0:
256,192,128280,1,0,0:0:0:0:
