osu file format v14

[General]
AudioFilename: audio.mp3
AudioLeadIn: 0
PreviewTime: 14364
Countdown: 0
SampleSet: Normal
StackLeniency: 0.7
Mode: 1
LetterboxInBreaks: 0
WidescreenStoryboard: 1

[Editor]
DistanceSpacing: 1.2
BeatDivisor: 8
GridSize: 32
TimelineZoom: 1.6

[Metadata]
Title:Mine
TitleUnicode:Mine
Artist:Bazzi
ArtistUnicode:Bazzi
Creator:Finana Ryugu
Version::muzukashii:
Source:
Tags:andrew cosmic pop electronic alternative r&b rnb rhythm and blues soul english [Zeth] tadahitotsu
BeatmapID:3272481
BeatmapSetID:1598413

[Difficulty]
HPDrainRate:6.5
CircleSize:2
OverallDifficulty:5
ApproachRate:10
SliderMultiplier:1.4
SliderTickRate:1

[Events]
//Background and Video events
0,0,"anime wallpaper.jpg",0,-100
//Break Periods
2,7651,10483
2,14364,17196
2,21077,23910
2,27791,30623
2,64714,67546
2,78140,80972
//Storyboard Layer 0 (Background)
//Storyboard Layer 1 (Fail)
//Storyboard Layer 2 (Pass)
//Storyboard Layer 3 (Foreground)
//Storyboard Layer 4 (Overlay)
//Storyboard Sound Samples

[TimingPoints]
938,839.160839160839,4,1,0,75,1,0
938,-10,4,1,0,75,0,0
3875,-133.333333333333,4,1,0,55,0,0
7651,-10,4,1,0,55,0,0
11007,-133.333333333333,4,1,0,55,0,0
13735,-121.212121212121,4,1,0,55,0,0
14154,-114.285714285714,4,1,0,55,0,0
14364,-10,4,1,0,55,0,0
17721,-50,4,1,0,75,0,1
18140,-51.714276553471,4,1,0,75,0,0
18350,-52.6162925297493,4,1,0,75,0,0
18560,-53.5503048886609,4,1,0,75,0,0
18979,-55.5214715410817,4,1,0,75,0,0
19189,-56.5624936367195,4,1,0,75,0,0
19609,-58.7662496025932,4,1,0,75,0,0
19819,-59.9337851541617,4,1,0,75,0,0
20238,-62.4137909512486,4,1,0,75,0,0
20448,-63.7323851653951,4,1,0,75,0,0
20868,-66.5441367295686,4,1,0,75,0,0
21077,-10,4,1,0,75,0,0
24434,-50,4,1,0,75,0,1
24854,-51.714276553471,4,1,0,75,0,0
25063,-52.6162925297493,4,1,0,75,0,0
25273,-53.5503048886609,4,1,0,75,0,0
25692,-55.5214715410817,4,1,0,75,0,0
25902,-56.5624936367195,4,1,0,75,0,0
26322,-58.7662496025932,4,1,0,75,0,0
26532,-59.9337851541617,4,1,0,75,0,0
26742,-61.1486529868977,4,1,0,75,0,0
26951,-62.4137909512486,4,1,0,75,0,0
27161,-63.7323851653951,4,1,0,75,0,0
27581,-66.5441367295686,4,1,0,75,0,0
27791,-10,4,1,0,75,0,0
31147,-50,4,1,0,75,0,1
31567,-51.714276553471,4,1,0,75,0,0
31776,-52.6162925297493,4,1,0,75,0,0
31986,-53.5503048886609,4,1,0,75,0,0
32196,-54.5180765586446,4,1,0,75,0,0
32405,-55.5214715410817,4,1,0,75,0,0
32616,-56.5624936367195,4,1,0,75,0,0
33035,-58.7662496025932,4,1,0,75,0,0
33245,-59.9337851541617,4,1,0,75,0,0
33455,-61.1486529868977,4,1,0,75,0,0
33664,-62.4137909512486,4,1,0,75,0,0
33874,-63.7323851653951,4,1,0,75,0,0
34294,-66.5441367295686,4,1,0,75,0,0
34504,-10,4,1,0,75,0,0
36182,-400,4,1,0,75,0,0
37861,-28.5714285714286,4,1,0,75,0,1
38280,-40,4,1,0,75,0,1
40798,-33.3333333333333,4,1,0,75,0,1
40903,-40,4,1,0,75,0,1
44469,-28.5714285714286,4,1,0,75,0,1
44784,-40,4,1,0,75,0,1
47511,-33.3333333333333,4,1,0,75,0,1
47616,-40,4,1,0,75,0,1
51287,-28.5714285714286,4,1,0,75,0,1
51497,-40,4,1,0,75,0,1
58000,-10,4,1,0,75,0,0
58840,-28.5714285714286,4,1,0,75,0,1
59049,-40,4,1,0,75,0,1
60937,-33.3333333333333,4,1,0,75,0,1
61357,-40,4,1,0,75,0,1
61567,-40.5375111832859,4,1,0,75,0,1
61672,-40.8117289644105,4,1,0,75,0,1
61777,-41.0896650452685,4,1,0,75,0,1
61986,-41.6570855369932,4,1,0,75,0,1
62196,-42.2403790144728,4,1,0,75,0,1
62616,-43.457382431484,4,1,0,75,0,1
63035,-44.7465933299833,4,1,0,75,0,1
63245,-45.4203356835329,4,1,0,75,0,1
63350,-45.7648519529922,4,1,0,75,0,1
63455,-46.1146557909862,4,1,0,75,0,1
63665,-46.8305329455141,4,1,0,75,0,1
63875,-47.5689869232855,4,1,0,75,0,1
64084,-48.3792936623125,4,1,0,75,0,1
64504,-49.9310452265421,4,1,0,75,0,1
64714,-10,4,1,0,75,0,0
68070,-50,4,1,0,75,0,1
68490,-51.7191978559289,4,1,0,75,0,0
68699,-52.6239069356731,4,1,0,75,0,0
68909,-53.5608311784026,4,1,0,75,0,0
69328,-55.5384620511243,4,1,0,75,0,0
69538,-56.5830727211309,4,1,0,75,0,0
69958,-58.7947891354285,4,1,0,75,0,0
70168,-59.9667784047638,4,1,0,75,0,0
70587,-62.4567487015242,4,1,0,75,0,0
70797,-63.780920192848,4,1,0,75,0,0
71427,-68.1132096034177,4,1,0,75,0,0
71847,-71.343876055711,4,1,0,75,0,0
72056,-73.0769258875741,4,1,0,75,0,0
72266,-74.896268667895,4,1,0,75,0,0
72686,-78.8209644848498,4,1,0,75,0,0
72896,-80.9417082099984,4,1,0,75,0,0
73105,-83.1797281021048,4,1,0,75,0,0
73525,-88.0487860713864,4,1,0,75,0,0
73735,-90.7035237411938,4,1,0,75,0,0
73944,-93.5233228462514,4,1,0,75,0,0
74154,-96.5240716556098,4,1,0,75,0,0
74364,-99.7237651704778,4,1,0,75,0,0
74784,-50,4,1,0,75,0,1
75203,-51.714276553471,4,1,0,75,0,0
75413,-52.6162925297493,4,1,0,75,0,0
75623,-53.5503048886609,4,1,0,75,0,0
76042,-55.5214715410817,4,1,0,75,0,0
76252,-56.5624936367195,4,1,0,75,0,0
76672,-58.7662496025932,4,1,0,75,0,0
76882,-59.9337851541617,4,1,0,75,0,0
77092,-61.1486529868977,4,1,0,75,0,0
77301,-62.4137909512486,4,1,0,75,0,0
77511,-63.7323851653951,4,1,0,75,0,0
77931,-66.5441367295686,4,1,0,75,0,0
78140,-10,4,1,0,75,0,0
81497,-50,4,1,0,75,0,1
81917,-51.714276553471,4,1,0,75,0,0
82126,-52.6162925297493,4,1,0,75,0,0
82336,-53.5503048886609,4,1,0,75,0,0
82546,-54.5180765586446,4,1,0,75,0,0
82755,-55.5214715410817,4,1,0,75,0,0
82965,-56.5624936367195,4,1,0,75,0,0
83385,-58.7662496025932,4,1,0,75,0,0
83595,-59.9337851541617,4,1,0,75,0,0
83805,-61.1486529868977,4,1,0,75,0,0
84014,-62.4137909512486,4,1,0,75,0,0
84224,-63.7323851653951,4,1,0,75,0,0
84644,-66.5441367295686,4,1,0,75,0,0
84854,-10,4,1,0,75,0,0
88210,-57.1428571428571,4,1,0,75,0,0
88630,-58.1799902723056,4,1,0,75,0,0
88840,-58.7128039708644,4,1,0,75,0,0
89049,-59.2554669093771,4,1,0,75,0,0
89469,-60.3714534789654,4,1,0,75,0,0
89679,-60.9453229035571,4,1,0,75,0,0
89889,-61.5302448842216,4,1,0,75,0,0
90098,-62.1265032284037,4,1,0,75,0,0
90308,-62.7344307258185,4,1,0,75,0,0
90518,-63.3543733207131,4,1,0,75,0,0
90728,-63.9866907683202,4,1,0,75,0,0
91147,-57.1428571428571,4,1,0,75,0,0
91567,-66.6474277758487,4,1,0,75,0,0
91777,-67.347550401223,4,1,0,75,0,0
91986,-68.0625385829516,4,1,0,75,0,0
92196,-68.7928235326491,4,1,0,75,0,0
92406,-69.5389981655612,4,1,0,75,0,0
92826,-71.0809854099169,4,1,0,75,0,0
93035,-71.8779110553977,4,1,0,75,0,0
93245,-72.6929088067459,4,1,0,75,0,0
93455,-73.5266004535121,4,1,0,75,0,0
93665,-74.3796366405991,4,1,0,75,0,0
93875,-75.2526985617704,4,1,0,75,0,0
94084,-76.1464997738449,4,1,0,75,0,0
94504,-77.9993479254513,4,1,0,75,0,0
94714,-78.9600020213761,4,1,0,75,0,0
94924,-79.9445504598011,4,1,0,75,0,0
95553,-83.0514428942431,4,1,0,75,0,0
95763,-84.1414417636046,4,1,0,75,0,0
96182,-86.4095866251785,4,1,0,75,0,0
96392,-87.5901412040666,4,1,0,75,0,0
96602,-88.8034008150376,4,1,0,75,0,0
96812,-90.0507435940152,4,1,0,75,0,0
97021,-91.3336262098281,4,1,0,75,0,0
97231,-92.6535895390391,4,1,0,75,0,0
97441,-94.0121764570947,4,1,0,75,0,0
97861,-80,4,1,0,75,0,0
98280,-99.8701687805852,4,1,0,75,0,0
99958,-400,4,1,0,75,0,0
101637,-28.5714285714286,4,1,0,75,0,1
101847,-40,4,1,0,75,0,1
104574,-33.3333333333333,4,1,0,75,0,1
104679,-40,4,1,0,75,0,1
108350,-28.5714285714286,4,1,0,75,0,1
108560,-40,4,1,0,75,0,1
111287,-33.3333333333333,4,1,0,75,0,1
111497,-40,4,1,0,75,0,1
115063,-28.5714285714286,4,1,0,75,0,1
115273,-40,4,1,0,75,0,1
121777,-10,4,1,0,75,0,0
122616,-28.5714285714286,4,1,0,75,0,1
122826,-40,4,1,0,75,0,1
124714,-33.3333333333333,4,1,0,75,0,1
125133,-40,4,1,0,75,0,1
125343,-40.5375111832859,4,1,0,75,0,1
125448,-40.8117289644105,4,1,0,75,0,1
125553,-41.0896650452685,4,1,0,75,0,1
125762,-41.6570855369932,4,1,0,75,0,1
125972,-42.2403790144728,4,1,0,75,0,1
126392,-43.457382431484,4,1,0,75,0,1
126811,-44.7465933299833,4,1,0,75,0,1
127021,-45.4203356835329,4,1,0,75,0,1
127126,-45.7648519529922,4,1,0,75,0,1
127231,-46.1146557909862,4,1,0,75,0,1
127441,-46.8305329455141,4,1,0,75,0,1
127651,-47.5689869232855,4,1,0,75,0,1
127861,-48.3792936623125,4,1,0,75,0,1
128280,-50,4,1,0,75,0,0

[HitObjects]
256,192,4294,5,0,0:0:0:0:
256,192,5763,1,0,0:0:0:0:
256,192,6182,1,0,0:0:0:0:
256,192,6392,1,0,0:0:0:0:
256,192,7021,1,0,0:0:0:0:
256,192,7441,1,0,0:0:0:0:
256,192,11007,5,0,0:0:0:0:
256,192,12476,1,0,0:0:0:0:
256,192,12896,1,0,0:0:0:0:
256,192,13105,1,0,0:0:0:0:
256,192,13735,1,0,0:0:0:0:
256,192,14154,1,0,0:0:0:0:
256,192,17721,5,4,0:0:0:0:
256,192,18140,1,2,0:0:0:0:
256,192,18350,1,0,0:0:0:0:
256,192,18560,1,2,0:0:0:0:
256,192,18979,1,0,0:0:0:0:
256,192,19189,1,2,0:0:0:0:
256,192,19609,1,2,0:0:0:0:
256,192,19819,1,0,0:0:0:0:
256,192,20238,1,2,0:0:0:0:
256,192,20448,1,0,0:0:0:0:
256,192,20868,1,2,0:0:0:0:
256,192,24434,5,4,0:0:0:0:
256,192,24854,1,2,0:0:0:0:
256,192,25063,1,0,0:0:0:0:
256,192,25273,1,2,0:0:0:0:
256,192,25692,1,0,0:0:0:0:
256,192,25902,1,2,0:0:0:0:
256,192,26322,1,2,0:0:0:0:
256,192,26532,1,0,0:0:0:0:
256,192,26742,1,0,0:0:0:0:
256,192,26951,1,2,0:0:0:0:
256,192,27161,1,0,0:0:0:0:
256,192,27581,1,2,0:0:0:0:
256,192,31147,5,4,0:0:0:0:
256,192,31567,1,2,0:0:0:0:
256,192,31776,1,0,0:0:0:0:
256,192,31986,1,2,0:0:0:0:
256,192,32196,1,2,0:0:0:0:
256,192,32405,1,0,0:0:0:0:
256,192,32616,1,0,0:0:0:0:
256,192,33035,1,2,0:0:0:0:
256,192,33245,1,0,0:0:0:0:
256,192,33455,1,0,0:0:0:0:
256,192,33664,1,2,0:0:0:0:
256,192,33874,1,0,0:0:0:0:
256,192,34294,1,2,0:0:0:0:
256,192,36182,12,2,37441,0:0:0:0:
256,192,37861,5,4,0:0:0:0:
256,192,38280,1,2,0:0:0:0:
256,192,38490,1,0,0:0:0:0:
256,192,38700,1,2,0:0:0:0:
256,192,39119,1,0,0:0:0:0:
256,192,39329,1,2,0:0:0:0:
256,192,39539,1,0,0:0:0:0:
256,192,39644,1,0,0:0:0:0:
256,192,39749,1,0,0:0:0:0:
256,192,39958,1,2,0:0:0:0:
256,192,40168,1,0,0:0:0:0:
256,192,40378,1,2,0:0:0:0:
256,192,40798,1,6,0:0:0:0:
256,192,41217,1,0,0:0:0:0:
256,192,41637,1,0,0:0:0:0:
256,192,41847,1,0,0:0:0:0:
256,192,42056,1,2,0:0:0:0:
256,192,42476,1,0,0:0:0:0:
256,192,42896,1,0,0:0:0:0:
256,192,43105,1,2,0:0:0:0:
256,192,43210,1,2,0:0:0:0:
256,192,43315,1,2,0:0:0:0:
256,192,43525,1,0,0:0:0:0:
256,192,43735,1,2,0:0:0:0:
256,192,44154,1,0,0:0:0:0:
256,192,44574,1,6,0:0:0:0:
256,192,45413,1,2,0:0:0:0:
256,192,45832,1,0,0:0:0:0:
256,192,46042,1,2,0:0:0:0:
256,192,46252,1,0,0:0:0:0:
256,192,46462,1,2,0:0:0:0:
256,192,46671,1,0,0:0:0:0:
256,192,46777,1,0,0:0:0:0:
256,192,46881,1,0,0:0:0:0:
256,192,47091,1,2,0:0:0:0:
256,192,47511,1,6,0:0:0:0:
256,192,47930,1,0,0:0:0:0:
256,192,48350,1,0,0:0:0:0:
256,192,48560,1,0,0:0:0:0:
256,192,48769,1,2,0:0:0:0:
256,192,49189,1,0,0:0:0:0:
256,192,49609,1,0,0:0:0:0:
256,192,49818,1,2,0:0:0:0:
256,192,49923,1,2,0:0:0:0:
256,192,50028,1,2,0:0:0:0:
256,192,50238,1,0,0:0:0:0:
256,192,50448,1,2,0:0:0:0:
256,192,50657,1,2,0:0:0:0:
256,192,50868,1,0,0:0:0:0:
256,192,51287,1,6,0:0:0:0:
256,192,52126,1,2,0:0:0:0:
256,192,52546,1,0,0:0:0:0:
256,192,52756,1,2,0:0:0:0:
256,192,52965,1,0,0:0:0:0:
256,192,53175,1,0,0:0:0:0:
256,192,53385,1,2,0:0:0:0:
256,192,53805,1,2,0:0:0:0:
256,192,54014,1,0,0:0:0:0:
256,192,54434,1,0,0:0:0:0:
256,192,54644,1,2,0:0:0:0:
256,192,55063,1,2,0:0:0:0:
256,192,55273,1,0,0:0:0:0:
256,192,55483,1,2,0:0:0:0:
256,192,55588,1,2,0:0:0:0:
256,192,55693,1,2,0:0:0:0:
256,192,55903,1,0,0:0:0:0:
256,192,56322,1,2,0:0:0:0:
256,192,56427,1,2,0:0:0:0:
256,192,56532,1,2,0:0:0:0:
256,192,56742,1,0,0:0:0:0:
256,192,56951,1,0,0:0:0:0:
256,192,57161,1,2,0:0:0:0:
256,192,57581,1,0,0:0:0:0:
256,192,57791,1,2,0:0:0:0:
256,192,58840,5,6,0:0:0:0:
256,192,59259,1,2,0:0:0:0:
256,192,59469,1,0,0:0:0:0:
256,192,59678,1,2,0:0:0:0:
256,192,59784,1,2,0:0:0:0:
256,192,59889,1,2,0:0:0:0:
256,192,60098,1,0,0:0:0:0:
256,192,60308,1,2,0:0:0:0:
256,192,60518,1,0,0:0:0:0:
256,192,60937,1,6,0:0:0:0:
256,192,61357,1,0,0:0:0:0:
256,192,61567,1,2,0:0:0:0:
256,192,61672,1,2,0:0:0:0:
256,192,61777,1,2,0:0:0:0:
256,192,61986,1,0,0:0:0:0:
256,192,62196,1,2,0:0:0:0:
256,192,62616,1,0,0:0:0:0:
256,192,63035,1,2,0:0:0:0:
256,192,63245,1,0,0:0:0:0:
256,192,63350,1,0,0:0:0:0:
256,192,63455,1,0,0:0:0:0:
256,192,63665,1,2,0:0:0:0:
256,192,63875,1,0,0:0:0:0:
256,192,64084,1,0,0:0:0:0:
256,192,64504,1,0,0:0:0:0:
256,192,68070,5,4,0:0:0:0:
256,192,68490,1,2,0:0:0:0:
256,192,68699,1,0,0:0:0:0:
256,192,68909,1,2,0:0:0:0:
256,192,69328,1,0,0:0:0:0:
256,192,69538,1,2,0:0:0:0:
256,192,69958,1,2,0:0:0:0:
256,192,70168,1,0,0:0:0:0:
256,192,70587,1,2,0:0:0:0:
256,192,70797,1,0,0:0:0:0:
256,192,71427,5,0,0:0:0:0:
256,192,71847,1,2,0:0:0:0:
256,192,72056,1,0,0:0:0:0:
256,192,72266,1,2,0:0:0:0:
256,192,72686,1,0,0:0:0:0:
256,192,72896,1,0,0:0:0:0:
256,192,73105,1,2,0:0:0:0:
256,192,73525,1,2,0:0:0:0:
256,192,73735,1,2,0:0:0:0:
256,192,73944,1,0,0:0:0:0:
256,192,74154,1,0,0:0:0:0:
256,192,74364,1,2,0:0:0:0:
256,192,74784,5,6,0:0:0:0:
256,192,75203,1,2,0:0:0:0:
256,192,75413,1,0,0:0:0:0:
256,192,75623,1,2,0:0:0:0:
256,192,76042,1,0,0:0:0:0:
256,192,76252,1,2,0:0:0:0:
256,192,76672,1,2,0:0:0:0:
256,192,76882,1,0,0:0:0:0:
256,192,77092,1,0,0:0:0:0:
256,192,77301,1,2,0:0:0:0:
256,192,77511,1,0,0:0:0:0:
256,192,77931,1,2,0:0:0:0:
256,192,81497,5,4,0:0:0:0:
256,192,81917,1,2,0:0:0:0:
256,192,82126,1,0,0:0:0:0:
256,192,82336,1,2,0:0:0:0:
256,192,82546,1,2,0:0:0:0:
256,192,82755,1,0,0:0:0:0:
256,192,82965,1,2,0:0:0:0:
256,192,83385,1,0,0:0:0:0:
256,192,83595,1,0,0:0:0:0:
256,192,83805,1,0,0:0:0:0:
256,192,84014,1,2,0:0:0:0:
256,192,84224,1,0,0:0:0:0:
256,192,84644,1,2,0:0:0:0:
256,192,88210,5,0,0:0:0:0:
256,192,88630,1,2,0:0:0:0:
256,192,88840,1,0,0:0:0:0:
256,192,89049,1,2,0:0:0:0:
256,192,89469,1,0,0:0:0:0:
256,192,89679,1,2,0:0:0:0:
256,192,89889,1,0,0:0:0:0:
256,192,90098,1,2,0:0:0:0:
256,192,90308,1,0,0:0:0:0:
256,192,90518,1,0,0:0:0:0:
256,192,90728,1,2,0:0:0:0:
256,192,91147,1,6,0:0:0:0:
256,192,91567,1,0,0:0:0:0:
256,192,91777,1,0,0:0:0:0:
256,192,91986,1,2,0:0:0:0:
256,192,92196,1,0,0:0:0:0:
256,192,92406,1,2,0:0:0:0:
256,192,92826,1,0,0:0:0:0:
256,192,93035,1,2,0:0:0:0:
256,192,93245,1,0,0:0:0:0:
256,192,93455,1,0,0:0:0:0:
256,192,93665,1,2,0:0:0:0:
256,192,93875,1,0,0:0:0:0:
256,192,94084,1,2,0:0:0:0:
256,192,94504,1,2,0:0:0:0:
256,192,94714,1,2,0:0:0:0:
256,192,94924,1,0,0:0:0:0:
256,192,95553,1,0,0:0:0:0:
256,192,95763,1,2,0:0:0:0:
256,192,96182,1,2,0:0:0:0:
256,192,96392,1,2,0:0:0:0:
256,192,96602,1,0,0:0:0:0:
256,192,96812,1,2,0:0:0:0:
256,192,97021,1,0,0:0:0:0:
256,192,97231,1,0,0:0:0:0:
256,192,97441,1,2,0:0:0:0:
256,192,97861,1,6,0:0:0:0:
256,192,99958,12,0,101217,0:0:0:0:
256,192,101637,5,4,0:0:0:0:
256,192,102056,1,2,0:0:0:0:
256,192,102266,1,0,0:0:0:0:
256,192,102476,1,2,0:0:0:0:
256,192,102895,1,0,0:0:0:0:
256,192,103105,1,2,0:0:0:0:
256,192,103315,1,0,0:0:0:0:
256,192,103525,1,2,0:0:0:0:
256,192,103734,1,0,0:0:0:0:
256,192,103840,1,0,0:0:0:0:
256,192,103944,1,0,0:0:0:0:
256,192,104154,1,2,0:0:0:0:
256,192,104574,1,6,0:0:0:0:
256,192,104993,1,0,0:0:0:0:
256,192,105413,1,0,0:0:0:0:
256,192,105623,1,0,0:0:0:0:
256,192,105832,1,2,0:0:0:0:
256,192,106252,1,0,0:0:0:0:
256,192,106672,1,0,0:0:0:0:
256,192,106881,1,2,0:0:0:0:
256,192,106986,1,2,0:0:0:0:
256,192,107091,1,2,0:0:0:0:
256,192,107301,1,0,0:0:0:0:
256,192,107511,1,2,0:0:0:0:
256,192,107930,1,0,0:0:0:0:
256,192,108350,1,6,0:0:0:0:
256,192,109189,1,2,0:0:0:0:
256,192,109608,1,0,0:0:0:0:
256,192,109818,1,2,0:0:0:0:
256,192,110028,1,0,0:0:0:0:
256,192,110133,1,0,0:0:0:0:
256,192,110238,1,0,0:0:0:0:
256,192,110447,1,2,0:0:0:0:
256,192,110657,1,0,0:0:0:0:
256,192,110867,1,2,0:0:0:0:
256,192,111287,1,6,0:0:0:0:
256,192,111706,1,0,0:0:0:0:
256,192,112126,1,0,0:0:0:0:
256,192,112336,1,0,0:0:0:0:
256,192,112545,1,2,0:0:0:0:
256,192,112965,1,0,0:0:0:0:
256,192,113385,1,0,0:0:0:0:
256,192,113594,1,2,0:0:0:0:
256,192,113804,1,2,0:0:0:0:
256,192,114014,1,0,0:0:0:0:
256,192,114224,1,2,0:0:0:0:
256,192,114329,1,2,0:0:0:0:
256,192,114433,1,2,0:0:0:0:
256,192,114644,1,0,0:0:0:0:
256,192,115063,1,6,0:0:0:0:
256,192,115902,1,2,0:0:0:0:
256,192,116322,1,0,0:0:0:0:
256,192,116532,1,2,0:0:0:0:
256,192,116741,1,0,0:0:0:0:
256,192,116951,1,0,0:0:0:0:
256,192,117161,1,2,0:0:0:0:
256,192,117581,1,2,0:0:0:0:
256,192,117790,1,0,0:0:0:0:
256,192,118210,1,0,0:0:0:0:
256,192,118420,1,2,0:0:0:0:
256,192,118839,1,2,0:0:0:0:
256,192,119049,1,0,0:0:0:0:
256,192,119259,1,2,0:0:0:0:
256,192,119364,1,2,0:0:0:0:
256,192,119469,1,2,0:0:0:0:
256,192,119679,1,0,0:0:0:0:
256,192,120098,1,2,0:0:0:0:
256,192,120203,1,2,0:0:0:0:
256,192,120308,1,2,0:0:0:0:
256,192,120518,1,0,0:0:0:0:
256,192,120727,1,0,0:0:0:0:
256,192,120937,1,2,0:0:0:0:
256,192,121357,1,0,0:0:0:0:
256,192,121567,1,2,0:0:0:0:
256,192,122616,5,6,0:0:0:0:
256,192,123035,1,2,0:0:0:0:
256,192,123245,1,0,0:0:0:0:
256,192,123454,1,2,0:0:0:0:
256,192,123560,1,2,0:0:0:0:
256,192,123665,1,2,0:0:0:0:
256,192,123874,1,0,0:0:0:0:
256,192,124084,1,2,0:0:0:0:
256,192,124294,1,0,0:0:0:0:
256,192,124714,1,6,0:0:0:0:
256,192,125133,5,0,0:0:0:0:
256,192,125343,1,2,0:0:0:0:
256,192,125448,1,2,0:0:0:0:
256,192,125553,1,2,0:0:0:0:
256,192,125762,1,0,0:0:0:0:
256,192,125972,1,2,0:0:0:0:
256,192,126392,1,0,0:0:0:0:
256,192,126811,1,2,0:0:0:0:
256,192,127021,1,0,0:0:0:0:
256,192,127126,1,0,0:0:0:0:
256,192,127231,1,0,0:0:0:0:
256,192,127441,1,2,0:0:0:0:
256,192,127651,1,0,0:0:0:0:
256,192,127861,1,0,0:0:0:0:
256,192,128280,1,0,0:0:0:0:
