osu file format v14

[General]
AudioFilename: audio.mp3
AudioLeadIn: 0
PreviewTime: -1
Countdown: 1
SampleSet: None
StackLeniency: 0.7
Mode: 0
LetterboxInBreaks: 0
WidescreenStoryboard: 0

[Editor]
Bookmarks: 22260
DistanceSpacing: 0.9
BeatDivisor: 4
GridSize: 8
TimelineZoom: 1

[Metadata]
Title:Mine
TitleUnicode:Mine
Artist:Bazzi
ArtistUnicode:Bazzi
Creator:AngelKanade
Version:Hard
Source:
Tags:
BeatmapID:1551867
BeatmapSetID:735109

[Difficulty]
HPDrainRate:6
CircleSize:4
OverallDifficulty:8
ApproachRate:9.4
SliderMultiplier:1.4
SliderTickRate:1

[Events]
//Background and Video events
//Break Periods
//Storyboard Layer 0 (Background)
//Storyboard Layer 1 (Fail)
//Storyboard Layer 2 (Pass)
//Storyboard Layer 3 (Foreground)
//Storyboard Sound Samples

[TimingPoints]
1281.53978561973,419.58041958042,4,3,0,30,1,0
10931,-57.1428571428571,4,3,0,30,0,0
14708,-50,4,3,0,30,0,0
18064,-66.6666666666667,4,3,0,30,0,0

[HitObjects]
256,24,1281,6,0,P|240:48|256:40,1,70
256,112,2120,2,0,P|272:136|256:128,1,70
256,200,2959,2,0,P|240:224|256:216,1,70
256,296,3799,2,0,P|272:320|256:312,1,70
40,144,4638,6,0,P|88:128|128:144,1,70
192,224,5057,2,0,P|248:232|280:216,1,70
328,120,5477,2,0,P|392:112|416:136,1,70
424,304,5896,2,0,L|376:272,1,35
256,192,6106,1,0,0:0:0:0:
424,80,6526,2,0,L|376:112,1,35
256,192,6736,1,0,0:0:0:0:
120,96,6945,1,0,0:0:0:0:
144,256,7155,1,0,0:0:0:0:
288,88,7365,1,0,0:0:0:0:
344,248,7575,1,0,0:0:0:0:
440,96,7785,1,0,0:0:0:0:
255,255,7994,6,0,P|191:231|191:207,1,70
104,88,8414,1,0,0:0:0:0:
128,72,8519,1,0,0:0:0:0:
152,56,8624,1,0,0:0:0:0:
304,192,8833,1,0,0:0:0:0:
320,168,8938,1,0,0:0:0:0:
336,144,9043,1,0,0:0:0:0:
264,56,9253,1,0,0:0:0:0:
240,88,9358,1,0,0:0:0:0:
216,120,9463,1,0,0:0:0:0:
200,160,9568,1,0,0:0:0:0:
208,200,9673,2,0,L|240:264,1,70
320,56,10092,1,0,0:0:0:0:
344,88,10197,1,0,0:0:0:0:
368,120,10302,1,0,0:0:0:0:
384,160,10407,1,0,0:0:0:0:
376,200,10512,2,0,L|344:264,1,70
80,96,10931,2,0,P|144:80|176:88,1,52.5000020027161
144,224,11141,2,0,P|176:208|224:176,1,52.5000020027161
264,152,11351,5,0,0:0:0:0:
336,264,11561,1,0,0:0:0:0:
440,176,11771,1,0,0:0:0:0:
376,48,11980,1,0,0:0:0:0:
256,136,12190,1,0,0:0:0:0:
104,272,12400,1,0,0:0:0:0:
80,120,12610,2,0,P|112:72|144:64,1,52.5000020027161
202,191,12820,2,0,P|213:251|265:274,1,105.000004005432
412,192,13239,1,0,0:0:0:0:
412,192,13344,1,0,0:0:0:0:
412,192,13449,2,0,P|341:152|296:146,1,105.000004005432
102,232,13868,2,0,L|164:191,1,52.5000020027161
256,120,14078,1,0,0:0:0:0:
410,232,14288,2,0,L|348:191,1,52.5000020027161
256,120,14498,1,0,0:0:0:0:
256,296,14708,6,0,P|224:328|264:296,1,210.000008010865
256,88,15547,2,0,P|264:64|240:96,1,140
64,336,16386,2,0,L|216:224,1,140
448,48,17225,2,0,L|296:160,1,140
128,112,18064,6,0,P|208:104|232:136,1,105.000004005432
376,264,18484,1,0,0:0:0:0:
419,58,18694,1,0,0:0:0:0:
196,169,18903,1,0,0:0:0:0:
293,343,19113,1,0,0:0:0:0:
460,186,19323,1,0,0:0:0:0:
266,80,19533,2,0,P|189:92|163:138,1,105.000004005432
257,186,19952,1,0,0:0:0:0:
347,241,20162,2,0,P|326:290|238:286,1,105.000004005432
52,304,20582,2,0,L|177:240,1,105.000004005432
195,226,20896,1,0,0:0:0:0:
244,196,21001,1,0,0:0:0:0:
293,165,21106,1,0,0:0:0:0:
336,127,21211,1,0,0:0:0:0:
381,91,21316,1,0,0:0:0:0:
422,50,21421,6,0,B|467:19|467:19|461:100,1,105.000004005432
412,278,21840,1,0,0:0:0:0:
412,278,21945,1,0,0:0:0:0:
412,278,22050,1,0,0:0:0:0:
90,50,22260,2,0,B|45:19|45:19|51:100,1,105.000004005432
100,278,22680,1,0,0:0:0:0:
100,278,22785,1,0,0:0:0:0:
100,278,22890,1,0,0:0:0:0:
193,147,23099,2,0,P|219:122|248:113,1,52.5000020027161
328,93,23309,2,0,L|368:148,1,52.5000020027161
367,226,23519,2,0,P|332:230|296:223,1,52.5000020027161
198,207,23729,1,0,0:0:0:0:
57,110,23938,1,0,0:0:0:0:
98,88,24043,5,0,0:0:0:0:
143,76,24148,1,0,0:0:0:0:
190,80,24253,1,0,0:0:0:0:
233,99,24358,1,0,0:0:0:0:
273,123,24463,1,0,0:0:0:0:
307,155,24568,1,0,0:0:0:0:
136,216,24778,6,0,B|34:200|115:278|115:278|174:338,1,210.000008010865
136,216,25407,2,0,B|217:123|177:336|177:336|172:358,1,210.000008010865
267,257,26036,1,0,0:0:0:0:
267,257,26141,1,0,0:0:0:0:
267,257,26246,1,0,0:0:0:0:
391,197,26456,6,0,B|289:181|370:259|370:259|429:319,1,210.000008010865
391,197,27085,2,0,B|472:104|432:317|432:317|427:339,1,210.000008010865
211,212,27715,1,0,0:0:0:0:
178,177,27820,1,0,0:0:0:0:
150,138,27924,1,0,0:0:0:0:
