osu file format v14

[General]
AudioFilename: audio.mp3
AudioLeadIn: 0
PreviewTime: 69049
Countdown: 0
SampleSet: Normal
StackLeniency: 0.7
Mode: 1
LetterboxInBreaks: 0
WidescreenStoryboard: 1

[Editor]
DistanceSpacing: 0.8
BeatDivisor: 4
GridSize: 16
TimelineZoom: 1.7

[Metadata]
Title:Agate
TitleUnicode:アガット
Artist:Bazole
ArtistUnicode:Bazole
Creator:Consified
Version:Muzukashii
Source:jubeat prop
Tags:
BeatmapID:1421153
BeatmapSetID:667241

[Difficulty]
HPDrainRate:6
CircleSize:2
OverallDifficulty:5
ApproachRate:5
SliderMultiplier:1.4
SliderTickRate:1

[Events]
//Background and Video events
0,0,"bg.jpg",0,0
//Break Periods
//Storyboard Layer 0 (Background)
//Storyboard Layer 1 (Fail)
//Storyboard Layer 2 (Pass)
//Storyboard Layer 3 (Foreground)
//Storyboard Sound Samples

[TimingPoints]
519,300,4,1,0,100,1,0
69369,-100,4,1,0,100,0,1
88719,-100,4,1,0,100,0,0
98319,-66.6666666666667,4,1,0,100,0,0

[Colours]
Combo1 : 255,113,84
Combo2 : 255,198,84

[HitObjects]
256,208,519,5,4,0:0:0:0:
256,208,669,1,4,0:0:0:0:
240,208,969,1,6,0:0:0:0:
304,208,1419,1,2,0:0:0:0:
304,208,1719,1,0,0:0:0:0:
304,208,1869,1,0,0:0:0:0:
224,192,2169,1,0,0:0:0:0:
240,192,2319,1,2,0:0:0:0:
240,208,2619,1,2,0:0:0:0:
256,208,2919,1,0,0:0:0:0:
256,208,3069,1,0,0:0:0:0:
256,208,3369,1,6,0:0:0:0:
320,208,3819,1,2,0:0:0:0:
320,208,4119,1,0,0:0:0:0:
320,208,4269,1,2,0:0:0:0:
320,208,4569,1,0,0:0:0:0:
288,160,4719,1,2,0:0:0:0:
320,208,5019,1,2,0:0:0:0:
304,192,5319,1,0,0:0:0:0:
304,192,5469,1,2,0:0:0:0:
304,192,5619,1,0,0:0:0:0:
304,192,5769,1,6,0:0:0:0:
304,192,6219,1,2,0:0:0:0:
320,208,6519,1,2,0:0:0:0:
288,192,6669,1,0,0:0:0:0:
304,176,6744,1,0,0:0:0:0:
304,176,6819,1,0,0:0:0:0:
352,192,6969,1,4,0:0:0:0:
368,192,7419,1,0,0:0:0:0:
368,192,7719,1,0,0:0:0:0:
336,160,7869,1,2,0:0:0:0:
256,176,8169,2,0,L|336:176,7,70
256,192,9369,12,0,11619,0:0:0:0:
256,208,11919,5,4,0:0:0:0:
256,208,12219,1,2,0:0:0:0:
288,192,12669,1,0,0:0:0:0:
320,176,12969,1,2,0:0:0:0:
304,208,13269,1,0,0:0:0:0:
304,208,13569,1,2,0:0:0:0:
304,208,13719,1,0,0:0:0:0:
304,208,14019,1,2,0:0:0:0:
256,208,14319,5,0,0:0:0:0:
256,208,14619,1,2,0:0:0:0:
288,192,15069,1,0,0:0:0:0:
320,176,15369,1,2,0:0:0:0:
304,208,15669,1,0,0:0:0:0:
304,208,15969,1,2,0:0:0:0:
304,208,16119,1,0,0:0:0:0:
304,208,16419,1,2,0:0:0:0:
256,208,16719,5,0,0:0:0:0:
256,208,17019,1,2,0:0:0:0:
288,192,17469,1,0,0:0:0:0:
320,176,17769,1,2,0:0:0:0:
304,208,18069,1,0,0:0:0:0:
304,208,18369,1,2,0:0:0:0:
304,208,18519,1,0,0:0:0:0:
304,208,18819,1,2,0:0:0:0:
256,208,19119,5,0,0:0:0:0:
256,208,19419,1,2,0:0:0:0:
288,192,19869,1,0,0:0:0:0:
320,176,20169,1,2,0:0:0:0:
304,208,20469,1,0,0:0:0:0:
304,208,20769,1,2,0:0:0:0:
304,208,20919,1,0,0:0:0:0:
304,208,21219,1,2,0:0:0:0:
256,208,21519,5,4,0:0:0:0:
256,208,21819,1,2,0:0:0:0:
288,192,22269,1,0,0:0:0:0:
320,176,22569,1,2,0:0:0:0:
304,208,22869,1,0,0:0:0:0:
304,208,23169,1,2,0:0:0:0:
304,208,23319,1,0,0:0:0:0:
304,208,23619,1,2,0:0:0:0:
256,208,23919,5,4,0:0:0:0:
256,208,24219,1,2,0:0:0:0:
288,192,24669,1,0,0:0:0:0:
320,176,24969,1,2,0:0:0:0:
304,208,25269,1,0,0:0:0:0:
304,208,25569,1,2,0:0:0:0:
304,208,25719,1,0,0:0:0:0:
304,208,26019,1,2,0:0:0:0:
304,192,26319,1,4,0:0:0:0:
288,192,26619,1,2,0:0:0:0:
240,192,27069,1,0,0:0:0:0:
240,192,27369,1,2,0:0:0:0:
256,208,27669,5,0,0:0:0:0:
304,208,27969,1,2,0:0:0:0:
304,208,28119,1,0,0:0:0:0:
304,208,28419,1,2,0:0:0:0:
352,176,28719,1,4,0:0:0:0:
352,176,29019,1,2,0:0:0:0:
352,176,29469,1,0,0:0:0:0:
352,176,29619,1,0,0:0:0:0:
352,176,29769,1,6,0:0:0:0:
288,176,30069,1,2,0:0:0:0:
288,192,31119,1,4,0:0:0:0:
288,192,31419,1,0,0:0:0:0:
288,192,31569,1,2,0:0:0:0:
288,192,31869,1,0,0:0:0:0:
288,192,32019,1,0,0:0:0:0:
288,192,32169,1,2,0:0:0:0:
288,192,32469,1,0,0:0:0:0:
288,192,32619,1,0,0:0:0:0:
288,192,32769,1,2,0:0:0:0:
288,192,32919,1,2,0:0:0:0:
288,192,32994,1,2,0:0:0:0:
336,208,33069,1,2,0:0:0:0:
288,192,33219,1,0,0:0:0:0:
256,224,33519,1,0,0:0:0:0:
256,224,33819,1,0,0:0:0:0:
256,224,33969,1,2,0:0:0:0:
256,224,34269,1,0,0:0:0:0:
256,224,34419,1,0,0:0:0:0:
256,224,34569,1,2,0:0:0:0:
256,224,34869,1,0,0:0:0:0:
256,224,35019,1,0,0:0:0:0:
304,192,35319,1,0,0:0:0:0:
256,208,35919,1,0,0:0:0:0:
256,208,36219,1,0,0:0:0:0:
256,208,36369,1,2,0:0:0:0:
256,208,36669,1,2,0:0:0:0:
256,208,36819,1,0,0:0:0:0:
256,208,36969,1,0,0:0:0:0:
256,208,37269,1,0,0:0:0:0:
256,208,37419,1,0,0:0:0:0:
256,208,37569,1,2,0:0:0:0:
320,192,37719,1,2,0:0:0:0:
320,192,37794,1,2,0:0:0:0:
320,192,37869,1,2,0:0:0:0:
320,192,38019,1,0,0:0:0:0:
320,192,38319,1,0,0:0:0:0:
320,192,38619,1,0,0:0:0:0:
320,192,38769,1,2,0:0:0:0:
304,176,39069,1,2,0:0:0:0:
304,176,39219,1,0,0:0:0:0:
304,176,39369,1,0,0:0:0:0:
304,208,39669,1,0,0:0:0:0:
304,208,39819,1,2,0:0:0:0:
304,208,39969,1,2,0:0:0:0:
272,176,40119,1,2,0:0:0:0:
272,176,40719,1,0,0:0:0:0:
272,192,41019,1,0,0:0:0:0:
272,192,41169,1,2,0:0:0:0:
272,192,41469,1,0,0:0:0:0:
272,192,41619,1,0,0:0:0:0:
272,192,41769,1,2,0:0:0:0:
272,192,42069,1,0,0:0:0:0:
272,192,42219,1,0,0:0:0:0:
272,192,42369,1,2,0:0:0:0:
272,192,42519,1,2,0:0:0:0:
272,192,42594,1,2,0:0:0:0:
272,192,42669,1,2,0:0:0:0:
272,192,42819,1,0,0:0:0:0:
272,176,43119,1,0,0:0:0:0:
272,192,43419,1,0,0:0:0:0:
272,192,43569,1,2,0:0:0:0:
272,192,43869,1,0,0:0:0:0:
272,192,44019,1,0,0:0:0:0:
272,192,44169,1,2,0:0:0:0:
272,192,44469,1,0,0:0:0:0:
272,192,44619,1,0,0:0:0:0:
256,224,44919,1,0,0:0:0:0:
320,144,45519,1,4,0:0:0:0:
272,192,45819,1,0,0:0:0:0:
272,192,45969,1,2,0:0:0:0:
272,192,46269,1,2,0:0:0:0:
272,192,46419,1,0,0:0:0:0:
272,192,46569,1,0,0:0:0:0:
272,192,46869,1,0,0:0:0:0:
272,192,47019,1,0,0:0:0:0:
272,192,47169,1,2,0:0:0:0:
256,208,47319,1,2,0:0:0:0:
288,176,47394,1,2,0:0:0:0:
288,176,47469,1,2,0:0:0:0:
288,176,47619,1,0,0:0:0:0:
240,176,47919,1,4,0:0:0:0:
272,192,48219,1,0,0:0:0:0:
272,192,48369,1,2,0:0:0:0:
272,192,48669,1,2,0:0:0:0:
272,192,48819,1,0,0:0:0:0:
272,192,48969,1,0,0:0:0:0:
272,192,49269,1,0,0:0:0:0:
272,192,49419,1,2,0:0:0:0:
272,192,49569,1,2,0:0:0:0:
256,208,49719,1,0,0:0:0:0:
368,192,49794,1,0,0:0:0:0:
368,192,49869,1,0,0:0:0:0:
368,192,50019,1,2,0:0:0:0:
176,192,50319,2,0,L|624:176,1,420
272,176,51519,1,0,0:0:0:0:
288,192,51744,1,0,0:0:0:0:
288,160,51969,1,2,0:0:0:0:
352,160,52119,1,0,0:0:0:0:
352,160,52269,1,0,0:0:0:0:
352,160,52419,1,0,0:0:0:0:
304,192,52719,1,2,0:0:0:0:
304,192,53019,1,2,0:0:0:0:
352,208,53169,1,2,0:0:0:0:
320,192,53469,1,0,0:0:0:0:
320,192,53619,1,2,0:0:0:0:
320,192,53769,1,0,0:0:0:0:
272,192,54069,1,0,0:0:0:0:
320,176,54369,1,2,0:0:0:0:
320,176,54519,1,0,0:0:0:0:
272,192,55119,1,0,0:0:0:0:
352,192,55569,1,2,0:0:0:0:
352,192,55869,1,0,0:0:0:0:
352,192,56319,1,2,0:0:0:0:
352,192,56619,1,0,0:0:0:0:
352,192,56919,1,0,0:0:0:0:
352,192,57069,1,2,0:0:0:0:
208,208,57519,1,0,0:0:0:0:
352,192,57669,1,2,0:0:0:0:
352,192,57819,1,0,0:0:0:0:
320,160,58119,1,0,0:0:0:0:
352,208,58269,1,2,0:0:0:0:
384,208,58419,1,0,0:0:0:0:
384,208,58719,1,2,0:0:0:0:
272,192,59019,1,0,0:0:0:0:
272,192,59319,1,0,0:0:0:0:
272,192,59619,1,0,0:0:0:0:
320,208,59919,1,6,0:0:0:0:
320,208,60369,1,2,0:0:0:0:
384,176,60669,1,0,0:0:0:0:
240,176,61119,1,0,0:0:0:0:
304,176,61569,1,2,0:0:0:0:
304,176,61719,1,0,0:0:0:0:
304,176,61869,1,2,0:0:0:0:
416,208,62019,1,2,0:0:0:0:
288,192,62319,1,0,0:0:0:0:
288,192,62394,1,0,0:0:0:0:
288,192,62469,1,0,0:0:0:0:
288,192,62619,1,2,0:0:0:0:
288,192,62769,1,6,0:0:0:0:
304,192,63369,1,6,0:0:0:0:
304,192,63669,1,2,0:0:0:0:
304,192,63819,1,2,0:0:0:0:
304,192,63969,1,0,0:0:0:0:
304,192,64269,1,2,0:0:0:0:
304,192,64419,1,0,0:0:0:0:
304,192,64719,1,2,0:0:0:0:
288,144,65169,1,0,0:0:0:0:
304,192,65319,1,2,0:0:0:0:
240,176,65769,1,0,0:0:0:0:
304,160,65919,1,2,0:0:0:0:
272,176,66369,1,2,0:0:0:0:
272,176,66519,1,0,0:0:0:0:
320,208,66969,1,2,0:0:0:0:
352,208,67119,1,4,0:0:0:0:
352,208,67269,1,4,0:0:0:0:
352,208,67569,1,4,0:0:0:0:
352,208,67719,1,4,0:0:0:0:
352,208,68019,1,4,0:0:0:0:
352,208,68169,1,4,0:0:0:0:
352,208,68319,1,6,0:0:0:0:
352,208,68544,1,6,0:0:0:0:
352,208,68769,1,6,0:0:0:0:
288,208,69069,1,0,0:0:0:0:
288,208,69219,1,0,0:0:0:0:
288,208,69369,1,6,0:0:0:0:
272,176,69819,1,2,0:0:0:0:
304,208,70119,1,2,0:0:0:0:
288,192,70269,1,0,0:0:0:0:
304,192,70419,1,2,0:0:0:0:
288,224,70719,1,2,0:0:0:0:
272,176,70869,1,0,0:0:0:0:
448,240,70944,1,0,0:0:0:0:
304,224,71019,1,0,0:0:0:0:
224,160,71319,1,0,0:0:0:0:
352,176,71619,1,2,0:0:0:0:
320,192,71769,1,6,0:0:0:0:
288,192,72069,1,2,0:0:0:0:
288,192,72219,1,0,0:0:0:0:
288,192,72369,1,0,0:0:0:0:
288,192,72444,1,0,0:0:0:0:
240,160,72519,1,0,0:0:0:0:
288,192,72819,1,2,0:0:0:0:
320,128,72969,1,2,0:0:0:0:
256,192,73269,1,0,0:0:0:0:
336,192,73344,1,0,0:0:0:0:
256,192,73419,1,0,0:0:0:0:
320,192,73569,1,2,0:0:0:0:
304,208,74019,1,6,0:0:0:0:
304,208,74169,1,6,0:0:0:0:
224,208,74619,1,2,0:0:0:0:
288,192,74769,1,0,0:0:0:0:
288,192,74919,1,0,0:0:0:0:
288,192,75219,1,2,0:0:0:0:
256,192,75369,1,2,0:0:0:0:
208,208,75669,1,2,0:0:0:0:
304,192,75744,1,2,0:0:0:0:
224,208,75819,1,2,0:0:0:0:
240,192,75969,1,0,0:0:0:0:
272,192,76419,1,0,0:0:0:0:
272,192,76569,1,6,0:0:0:0:
272,176,77019,1,2,0:0:0:0:
304,192,77169,1,0,0:0:0:0:
304,192,77244,1,0,0:0:0:0:
304,192,77319,1,0,0:0:0:0:
272,192,77469,1,2,0:0:0:0:
256,176,77769,1,6,0:0:0:0:
256,176,78069,1,6,0:0:0:0:
256,176,78219,1,4,0:0:0:0:
384,176,78969,1,6,0:0:0:0:
336,208,79269,1,0,0:0:0:0:
336,208,79419,1,2,0:0:0:0:
288,192,79719,1,2,0:0:0:0:
288,192,79869,1,0,0:0:0:0:
288,192,80019,1,2,0:0:0:0:
368,176,80319,1,2,0:0:0:0:
272,192,80469,1,0,0:0:0:0:
304,240,80544,1,0,0:0:0:0:
272,192,80619,1,0,0:0:0:0:
176,176,80919,1,0,0:0:0:0:
272,176,81219,1,2,0:0:0:0:
272,176,81369,1,6,0:0:0:0:
320,208,81669,1,0,0:0:0:0:
320,208,81819,1,2,0:0:0:0:
288,192,81969,1,0,0:0:0:0:
288,192,82044,1,0,0:0:0:0:
288,192,82119,1,0,0:0:0:0:
304,176,82569,1,6,0:0:0:0:
256,192,82869,1,2,0:0:0:0:
240,208,83019,1,0,0:0:0:0:
256,208,83469,1,0,0:0:0:0:
256,208,83619,1,2,0:0:0:0:
304,208,83769,1,0,0:0:0:0:
288,192,84219,1,0,0:0:0:0:
288,192,84369,1,2,0:0:0:0:
272,192,84819,1,2,0:0:0:0:
272,192,84969,1,2,0:0:0:0:
304,176,85419,1,0,0:0:0:0:
304,176,85569,1,2,0:0:0:0:
272,160,85869,1,4,0:0:0:0:
352,176,86169,1,6,0:0:0:0:
288,192,86619,1,0,0:0:0:0:
288,192,86769,1,2,0:0:0:0:
304,208,87219,1,2,0:0:0:0:
304,208,87369,1,6,0:0:0:0:
192,176,87819,1,2,0:0:0:0:
336,160,87969,1,0,0:0:0:0:
288,224,88119,1,6,0:0:0:0:
288,224,88344,1,6,0:0:0:0:
288,224,88569,1,6,0:0:0:0:
288,192,88719,1,4,0:0:0:0:
320,192,89019,1,0,0:0:0:0:
320,192,89319,1,0,0:0:0:0:
320,192,89469,1,0,0:0:0:0:
272,176,89544,1,0,0:0:0:0:
224,160,89769,1,0,0:0:0:0:
272,176,89919,1,2,0:0:0:0:
304,176,90219,1,0,0:0:0:0:
400,176,90519,1,6,0:0:0:0:
416,176,90744,1,6,0:0:0:0:
416,176,90969,1,6,0:0:0:0:
416,176,91119,1,6,0:0:0:0:
368,208,91419,1,0,0:0:0:0:
272,192,91719,1,0,0:0:0:0:
272,192,91869,1,0,0:0:0:0:
272,192,91944,1,0,0:0:0:0:
272,192,92169,1,0,0:0:0:0:
352,192,92319,1,2,0:0:0:0:
256,208,92619,1,0,0:0:0:0:
384,192,92919,1,6,0:0:0:0:
384,192,93144,1,6,0:0:0:0:
384,192,93369,1,6,0:0:0:0:
352,160,93519,1,6,0:0:0:0:
368,192,93819,1,0,0:0:0:0:
208,160,94119,1,0,0:0:0:0:
288,208,94269,1,0,0:0:0:0:
288,208,94344,1,0,0:0:0:0:
320,192,94569,1,0,0:0:0:0:
320,192,94719,1,2,0:0:0:0:
352,192,95019,1,0,0:0:0:0:
352,192,95319,1,6,0:0:0:0:
352,192,95544,1,6,0:0:0:0:
352,192,95769,1,6,0:0:0:0:
336,176,95919,1,6,0:0:0:0:
336,144,96219,1,0,0:0:0:0:
224,192,96519,1,0,0:0:0:0:
288,192,96669,1,0,0:0:0:0:
288,192,96744,1,0,0:0:0:0:
368,176,96969,1,0,0:0:0:0:
272,128,97119,1,2,0:0:0:0:
272,192,97419,1,0,0:0:0:0:
384,96,97719,1,2,0:0:0:0:
288,176,97869,1,0,0:0:0:0:
176,192,98019,1,0,0:0:0:0:
176,192,98094,1,0,0:0:0:0:
176,192,98169,1,0,0:0:0:0:
176,192,98319,1,4,0:0:0:0:
288,192,98619,1,6,0:0:0:0:
304,192,99069,1,4,0:0:0:0:
304,192,99219,1,4,0:0:0:0:
304,192,99369,1,6,0:0:0:0:
