osu file format v14

[General]
AudioFilename: audio.mp3
AudioLeadIn: 0
PreviewTime: -1
Countdown: 1
SampleSet: Soft
StackLeniency: 0.7
Mode: 0
LetterboxInBreaks: 0
WidescreenStoryboard: 0

[Editor]
DistanceSpacing: 1.8
BeatDivisor: 4
GridSize: 4
TimelineZoom: 1

[Metadata]
Title:Blondyneczka
TitleUnicode:金发
Artist:Bayer Full
ArtistUnicode:Bayer Full
Creator:WORSTPOLACKEU
Version:UO SZAU SZY CAJ UO MENRI
Source:
Tags:
BeatmapID:1778638
BeatmapSetID:850763

[Difficulty]
HPDrainRate:5
CircleSize:3.8
OverallDifficulty:9
ApproachRate:9
SliderMultiplier:1.8
SliderTickRate:1

[Events]
//Background and Video events
0,0,"wpaperer.jpg",0,0
//Break Periods
//Storyboard Layer 0 (Background)
//Storyboard Layer 1 (Fail)
//Storyboard Layer 2 (Pass)
//Storyboard Layer 3 (Foreground)
//Storyboard Sound Samples

[TimingPoints]
228,363.636363636364,4,2,0,100,1,0
955,363.636363636364,4,2,0,100,1,0
11500,363.636363636364,4,2,0,100,1,0
11500,-66.6666666666667,4,2,0,50,0,0
11772,-66.6666666666667,4,2,0,5,0,0
11863,-66.6666666666667,4,2,0,50,0,0
12590,363.636363636364,4,2,0,100,1,0
12590,-86.9565217391304,4,2,0,70,0,0
34771,-57.1428571428571,4,2,0,70,0,0

[Colours]
Combo1 : 198,230,253
Combo2 : 100,182,225
Combo3 : 192,192,192
Combo4 : 38,65,136

[HitObjects]
28,110,12590,6,0,B|116:89|125:190|217:164,1,207.000003948212,0|2,0:0|0:0,0:0:0:0:
367,133,13135,1,0,0:0:0:0:
200,260,13317,1,0,0:0:0:0:
349,317,13499,2,0,L|468:310,1,103.500001974106,0|2,0:0|0:0,0:0:0:0:
289,109,13862,1,0,0:0:0:0:
286,375,14044,2,0,P|212:360|185:336,1,103.500001974106
130,137,14408,5,2,0:0:0:0:
39,283,14590,1,0,0:0:0:0:
6,100,14771,1,0,0:0:0:0:
88,354,14953,2,0,L|196:342,1,103.500001974106,0|2,0:0|0:0,0:0:0:0:
373,246,15317,1,0,0:0:0:0:
166,231,15499,6,0,L|402:248,1,207.000003948212,0|2,0:0|0:0,0:0:0:0:
456,323,16044,1,0,0:0:0:0:
452,63,16226,1,0,0:0:0:0:
251,103,16408,1,0,0:0:0:0:
408,144,16590,1,2,0:0:0:0:
328,57,16771,1,0,0:0:0:0:
372,245,16953,1,0,0:0:0:0:
372,245,17317,6,0,P|319:222|254:221,1,103.500001974106,2|0,0:0|0:0,0:0:0:0:
127,342,17680,2,0,P|173:307|206:251,1,103.500001974106
166,84,18044,2,0,P|172:141|204:198,1,103.500001974106,2|0,0:0|0:0,0:0:0:0:
326,330,18408,6,0,B|270:326|270:326|211:352|211:352|126:341,1,207.000003948212,0|2,0:0|0:0,0:0:0:0:
45,142,18953,1,0,0:0:0:0:
192,182,19135,1,0,0:0:0:0:
11,232,19317,1,0,0:0:0:0:
192,182,19499,1,2,0:0:0:0:
45,142,19680,1,0,0:0:0:0:
241,257,19862,6,0,P|277:216|257:136,1,103.500001974106
178,80,20226,1,2,0:0:0:0:
158,281,20408,2,0,P|186:325|253:335,1,103.500001974106
362,261,20771,2,0,L|483:255,1,103.500001974106,0|2,0:0|0:0,0:0:0:0:
233,338,21135,1,0,0:0:0:0:
387,118,21317,6,0,P|308:55|211:78,1,207.000003948212,0|2,0:0|0:0,0:0:0:0:
30,182,21862,1,0,0:0:0:0:
59,99,22044,1,0,0:0:0:0:
241,257,22226,1,0,0:0:0:0:
125,32,22408,1,2,0:0:0:0:
30,182,22590,1,0,0:0:0:0:
335,148,22771,5,2,0:0:0:0:
141,111,22953,1,0,0:0:0:0:
376,220,23135,5,2,0:0:0:0:
229,154,23317,1,0,0:0:0:0:
364,277,23499,5,2,0:0:0:0:
272,191,23680,1,0,0:0:0:0:
344,302,23862,5,2,0:0:0:0:
290,227,24044,1,0,0:0:0:0:
114,374,24226,6,0,B|73:324|73:324|101:158,1,207.000003948212,4|2,0:0|0:0,0:0:0:0:
163,299,24771,1,0,0:0:0:0:
147,110,24953,1,0,0:0:0:0:
163,299,25135,1,0,0:0:0:0:
370,56,25317,1,2,0:0:0:0:
331,321,25499,1,0,0:0:0:0:
147,110,25680,6,0,L|35:86,1,103.500001974106
208,205,26044,1,2,0:0:0:0:
370,56,26226,2,0,L|482:32,1,103.500001974106
350,228,26590,2,0,P|318:172|324:113,1,103.500001974106,0|2,0:0|0:0,0:0:0:0:
512,177,26953,1,0,0:0:0:0:
409,347,27135,6,0,B|355:363|355:363|303:354|267:330|267:330|240:333|183:358,1,207.000003948212,0|2,0:0|0:0,0:0:0:0:
39,201,27680,1,0,0:0:0:0:
213,242,27862,1,2,0:0:0:0:
95,145,28044,1,0,0:0:0:0:
184,160,28226,1,2,0:0:0:0:
153,85,28408,1,0,0:0:0:0:
346,142,28590,6,0,P|377:117|448:113,1,103.500001974106
491,250,28953,1,2,0:0:0:0:
286,213,29135,2,0,B|255:183|255:183|257:96,1,103.500001974106
409,19,29499,2,0,B|440:49|440:49|438:109,1,103.500001974106,0|2,0:0|0:0,0:0:0:0:
374,270,29862,1,0,0:0:0:0:
165,227,30044,5,0,0:0:0:0:
306,322,30226,1,0,0:0:0:0:
216,128,30408,1,2,0:0:0:0:
88,352,30590,6,0,P|107:272|89:128,1,207.000003948212
193,51,31135,1,2,0:0:0:0:
0,100,31317,1,0,0:0:0:0:
216,128,31499,6,0,L|341:139,1,103.500001974106
193,51,31862,1,2,0:0:0:0:
386,194,32044,6,0,P|427:158|424:93,1,103.500001974106
221,34,32408,2,0,L|98:52,1,103.500001974106,0|2,0:0|0:0,0:0:0:0:
55,261,32771,1,0,0:0:0:0:
27,24,32953,1,2,0:0:0:0:
132,217,33135,5,0,0:0:0:0:
300,127,33317,1,2,0:0:0:0:
59,179,33499,1,0,0:0:0:0:
338,207,33680,1,2,0:0:0:0:
359,48,33862,1,0,0:0:0:0:
338,207,34044,1,2,0:0:0:0:
300,127,34226,1,0,0:0:0:0:
280,351,34408,1,2,0:0:0:0:
131,129,34590,1,0,0:0:0:0:
131,129,34680,1,0,0:0:0:0:
131,129,34771,6,0,P|157:108|154:131,1,78.7500007510185
163,241,34953,6,0,P|136:261|139:238,1,78.7500007510185
74,51,35135,6,0,P|131:17|234:88,1,157.500001502037
212,46,35408,1,0,0:0:0:0:
212,46,35499,1,0,0:0:0:0:
240,305,35680,1,0,0:0:0:0:
465,126,35862,6,0,B|375:105|375:105|130:134,1,315.000003004074,4|2,0:0|0:0,0:0:0:0:
55,317,36408,1,0,0:0:0:0:
316,204,36590,5,0,0:0:0:0:
64,179,36771,1,0,0:0:0:0:
347,283,36953,1,0,0:0:0:0:
55,317,37135,6,0,B|-37:186|195:137|59:25,1,315.000003004074
122,246,37680,1,0,0:0:0:0:
241,153,37862,1,0,0:0:0:0:
18,100,38044,1,0,0:0:0:0:
279,235,38226,2,0,P|325:161|296:90,1,157.500001502037
169,61,38590,1,0,0:0:0:0:
437,42,38771,6,0,B|494:94|494:94|474:153|474:153|489:345,1,315.000003004074
99,153,39317,6,0,B|135:115|181:107|181:107|189:121|202:129|212:123|216:95|215:85|232:99|239:115|250:90|250:90|275:88|275:88|263:117|336:80|429:145,1,315.000003004074
