osu file format v14

[General]
AudioFilename: audio.mp3
AudioLeadIn: 0
PreviewTime: 34408
Countdown: 1
SampleSet: Soft
StackLeniency: 0.7
Mode: 0
LetterboxInBreaks: 0
WidescreenStoryboard: 1

[Editor]
Bookmarks: 47317
DistanceSpacing: 1
BeatDivisor: 8
GridSize: 4
TimelineZoom: 1.9

[Metadata]
Title:Blondyneczka
TitleUnicode:金发
Artist:Bayer Full
ArtistUnicode:Bayer Full
Creator:WORSTPOLACKEU
Version:Ranked? xd
Source:
Tags:
BeatmapID:1779457
BeatmapSetID:850763

[Difficulty]
HPDrainRate:5
CircleSize:4.1
OverallDifficulty:9
ApproachRate:9
SliderMultiplier:1.8
SliderTickRate:1

[Events]
//Background and Video events
0,0,"wpaperer.jpg",0,0
//Break Periods
//Storyboard Layer 0 (Background)
//Storyboard Layer 1 (Fail)
//Storyboard Layer 2 (Pass)
//Storyboard Layer 3 (Foreground)
//Storyboard Sound Samples

[TimingPoints]
228,363.636363636364,4,2,0,100,1,0
955,363.636363636364,4,2,0,100,1,0
11500,363.636363636364,4,2,0,100,1,0
11500,-66.6666666666667,4,2,0,50,0,0
11772,-66.6666666666667,4,2,0,5,0,0
11863,-66.6666666666667,4,2,0,50,0,0
12590,363.636363636364,4,2,0,100,1,0
12590,-86.9565217391304,4,2,0,70,0,0
34771,-66.6666666666667,4,2,0,70,0,0
35135,-52.6315789473684,4,2,0,70,0,0
35499,-66.6666666666667,4,2,0,70,0,0
35862,-71.4285714285714,4,2,0,70,0,1
46408,-66.6666666666667,4,2,0,70,0,0
46771,-52.6315789473684,4,2,0,70,0,0
47135,-66.6666666666667,4,2,0,70,0,0
47499,-71.4285714285714,4,2,0,70,0,1
57590,-71.4285714285714,4,2,0,5,0,0
57680,-86.9565217391304,4,2,0,70,0,0
81317,-66.6666666666667,4,2,0,70,0,0
81680,-52.6315789473684,4,2,0,70,0,0
82044,-66.6666666666667,4,2,0,70,0,0
82408,-71.4285714285714,4,2,0,70,0,1
92953,-66.6666666666667,4,2,0,70,0,1
93317,-52.6315789473684,4,2,0,70,0,1
93680,-66.6666666666667,4,2,0,70,0,1
94044,-71.4285714285714,4,2,0,70,0,1

[Colours]
Combo1 : 198,230,253
Combo2 : 100,182,225
Combo3 : 192,192,192
Combo4 : 38,65,136

[HitObjects]
7,171,12590,6,0,B|95:150|104:251|196:225,1,207.000003948212,0|2,0:0|0:0,0:0:0:0:
296,194,13135,1,0,0:0:0:0:
224,119,13317,1,0,0:0:0:0:
296,194,13499,2,0,P|341:218|412:211,1,103.500001974106,0|2,0:0|0:0,0:0:0:0:
465,144,13862,1,0,0:0:0:0:
307,26,14044,2,0,L|203:19,1,103.500001974106
126,88,14408,5,2,0:0:0:0:
224,119,14590,1,0,0:0:0:0:
126,88,14771,1,0,0:0:0:0:
51,198,14953,2,0,L|154:187,1,103.500001974106,0|2,0:0|0:0,0:0:0:0:
255,209,15317,1,0,0:0:0:0:
92,287,15499,6,0,L|328:304,1,207.000003948212,0|2,0:0|0:0,0:0:0:0:
450,251,16044,1,0,0:0:0:0:
463,96,16226,1,0,0:0:0:0:
330,177,16408,1,0,0:0:0:0:
463,96,16590,1,2,0:0:0:0:
328,56,16771,1,0,0:0:0:0:
263,231,16953,1,0,0:0:0:0:
263,231,17317,6,0,P|210:208|145:207,1,103.500001974106,2|0,0:0|0:0,0:0:0:0:
0,333,17680,2,0,P|46:298|79:242,1,103.500001974106
45,53,18044,2,0,P|49:105|71:152,1,103.500001974106,2|0,0:0|0:0,0:0:0:0:
365,193,18408,6,0,B|309:189|309:189|250:215|250:215|165:204,1,207.000003948212,0|2,0:0|0:0,0:0:0:0:
71,260,18953,1,0,0:0:0:0:
71,152,19135,1,0,0:0:0:0:
166,301,19317,1,0,0:0:0:0:
71,152,19499,1,2,0:0:0:0:
71,260,19680,1,0,0:0:0:0:
178,79,19862,6,0,L|287:68,1,103.500001974106
358,137,20226,1,2,0:0:0:0:
476,65,20408,2,0,P|448:21|381:11,1,103.500001974106
363,240,20771,2,0,L|357:119,1,103.500001974106,0|2,0:0|0:0,0:0:0:0:
280,68,21135,1,0,0:0:0:0:
224,280,21317,6,0,B|164:305|164:305|15:268,1,207.000003948212
0,124,21862,1,0,0:0:0:0:
26,270,22044,1,0,0:0:0:0:
277,82,22226,1,0,0:0:0:0:
224,280,22408,1,2,0:0:0:0:
57,106,22590,1,0,0:0:0:0:
335,147,22771,5,2,0:0:0:0:
141,110,22953,1,0,0:0:0:0:
376,219,23135,5,2,0:0:0:0:
229,153,23317,1,0,0:0:0:0:
364,276,23499,5,2,0:0:0:0:
272,190,23680,1,0,0:0:0:0:
344,301,23862,5,2,0:0:0:0:
290,226,24044,1,0,0:0:0:0:
114,373,24226,6,0,B|73:323|73:323|101:157,1,207.000003948212,4|2,0:0|0:0,0:0:0:0:
180,243,24771,1,0,0:0:0:0:
147,109,24953,1,0,0:0:0:0:
180,243,25135,1,0,0:0:0:0:
314,50,25317,1,2,0:0:0:0:
274,274,25499,1,0,0:0:0:0:
147,109,25680,6,0,L|35:85,1,103.500001974106
180,243,26044,1,2,0:0:0:0:
314,50,26226,2,0,L|426:26,1,103.500001974106
360,235,26590,2,0,P|328:179|334:120,1,103.500001974106,0|2,0:0|0:0,0:0:0:0:
475,161,26953,1,0,0:0:0:0:
422,345,27135,6,0,B|368:361|368:361|316:352|280:328|280:328|253:331|196:356,1,207.000003948212,0|2,0:0|0:0,0:0:0:0:
85,193,27680,1,0,0:0:0:0:
207,211,27862,1,2,0:0:0:0:
93,270,28044,1,0,0:0:0:0:
176,282,28226,1,2,0:0:0:0:
123,344,28408,1,0,0:0:0:0:
156,142,28590,6,0,P|192:125|262:141,1,103.500001974106
336,197,28953,1,2,0:0:0:0:
424,143,29135,2,0,B|431:72|431:72|420:36,1,103.500001974106
336,197,29499,2,0,B|329:268|329:268|338:298,1,103.500001974106
412,370,29862,1,0,0:0:0:0:
205,252,30044,5,0,0:0:0:0:
336,197,30226,1,0,0:0:0:0:
216,127,30408,1,2,0:0:0:0:
215,327,30590,6,0,P|238:227|196:92,1,207.000003948212
125,177,31135,1,2,0:0:0:0:
75,85,31317,1,0,0:0:0:0:
294,23,31499,6,0,L|409:32,1,103.500001974106
416,132,31862,1,2,0:0:0:0:
169,208,32044,2,0,P|176:158|215:126,1,103.500001974106
392,249,32408,2,0,L|277:258,1,103.500001974106
138,94,32771,1,0,0:0:0:0:
96,274,32953,1,0,0:0:0:0:
289,258,33135,5,0,0:0:0:0:
163,238,33317,1,0,0:0:0:0:
331,330,33499,1,0,0:0:0:0:
289,150,33681,1,0,0:0:0:0:
219,295,33863,1,0,0:0:0:0:
147,197,34045,1,0,0:0:0:0:
96,274,34226,1,0,0:0:0:0:
42,210,34408,1,0,0:0:0:0:
233,191,34590,5,0,0:0:0:0:
233,191,34680,1,0,0:0:0:0:
233,191,34771,6,0,L|165:198,1,67.5000025749208
96,274,34953,2,0,L|163:281,1,67.5000025749208
354,300,35135,6,0,B|438:250|426:147|426:147|414:201|349:238,1,256.499993150711
274,321,35499,6,0,L|284:235,1,67.5000025749208
338,76,35680,2,0,L|348:162,1,67.5000025749208
441,348,35862,6,0,B|405:321|361:330|361:330|343:358|308:374|308:374|289:349|253:325|174:339,1,251.999992309571,4|2,0:0|0:0,0:0:0:0:
87,352,36408,1,0,0:0:0:0:
171,70,36590,1,0,0:0:0:0:
195,245,36771,1,0,0:0:0:0:
75,44,36953,1,0,0:0:0:0:
358,19,37135,6,0,B|407:46|407:46|412:127|412:127|419:139|419:139|413:151|413:151|418:243,1,251.999992309571
267,312,37680,1,0,0:0:0:0:
336,142,37862,1,0,0:0:0:0:
359,355,38044,1,0,0:0:0:0:
206,168,38226,2,0,L|78:159,1,125.999996154785
102,284,38590,1,0,0:0:0:0:
204,44,38771,6,0,B|323:21|319:167|478:93,1,251.999992309571
267,312,39317,6,0,P|260:211|341:271,1,251.999992309571
340,357,39862,1,0,0:0:0:0:
353,147,40044,2,0,P|225:141|156:264,1,251.999992309571
267,312,40590,5,0,0:0:0:0:
41,257,40771,1,0,0:0:0:0:
225,169,40953,1,0,0:0:0:0:
41,257,41135,1,0,0:0:0:0:
267,312,41317,1,0,0:0:0:0:
84,149,41499,1,0,0:0:0:0:
125,357,41680,1,0,0:0:0:0:
309,229,41862,2,0,L|448:238,1,125.999996154785
225,169,42226,5,0,0:0:0:0:
267,312,42408,1,0,0:0:0:0:
385,107,42590,1,0,0:0:0:0:
343,357,42771,1,0,0:0:0:0:
288,75,42953,6,0,B|237:52|188:58|188:58|147:105|147:105|101:118|58:86,1,251.999992309571
225,150,43499,1,0,0:0:0:0:
111,22,43680,1,0,0:0:0:0:
57,212,43862,1,0,0:0:0:0:
288,75,44044,2,0,L|426:72,1,125.999996154785
230,273,44408,2,0,P|189:216|198:147,1,125.999996154785
434,198,44771,5,0,0:0:0:0:
320,163,44953,1,0,0:0:0:0:
380,341,45135,1,0,0:0:0:0:
78,198,45317,5,0,0:0:0:0:
192,163,45499,1,0,0:0:0:0:
132,341,45681,1,0,0:0:0:0:
256,72,45862,5,0,0:0:0:0:
256,292,46044,1,0,0:0:0:0:
78,198,46226,1,0,0:0:0:0:
78,198,46317,1,0,0:0:0:0:
78,198,46408,2,0,L|70:116,1,62.9999980773926
192,163,46590,2,0,L|185:225,1,62.9999980773926
132,341,46771,6,0,B|36:339|-5:244|-5:244|32:285|60:280,1,256.499993150711
210,305,47135,2,0,L|272:298,1,62.9999980773926
403,238,47317,2,0,L|340:231,1,62.9999980773926
71,135,47499,6,0,B|193:87|153:230|343:134,1,251.999992309571,4|0,0:0|0:0,0:0:0:0:
391,53,48044,1,0,0:0:0:0:
403,260,48226,1,0,0:0:0:0:
209,201,48408,1,0,0:0:0:0:
484,156,48590,1,0,0:0:0:0:
123,283,48771,6,0,B|118:183|118:183|135:140|135:140|129:32,1,251.999992309571
209,201,49317,1,0,0:0:0:0:
46,121,49499,1,0,0:0:0:0:
263,89,49680,1,0,0:0:0:0:
128,350,49862,6,0,P|95:296|99:234,1,125.999996154785
433,233,50226,6,0,B|394:181|394:181|183:203,1,251.999992309571
128,350,50771,1,0,0:0:0:0:
62,104,50953,6,0,P|83:44|129:148,1,251.999992309571
16,183,51499,1,0,0:0:0:0:
254,41,51680,6,0,B|297:173|172:174|255:296,1,251.999992309571
379,82,52226,5,0,0:0:0:0:
153,137,52407,1,0,0:0:0:0:
337,225,52589,1,0,0:0:0:0:
153,137,52771,1,0,0:0:0:0:
379,82,52953,1,0,0:0:0:0:
196,245,53135,1,0,0:0:0:0:
237,37,53316,1,0,0:0:0:0:
406,178,53499,2,0,P|421:238|391:292,1,125.999996154785
153,137,53862,5,0,0:0:0:0:
107,267,54044,1,0,0:0:0:0:
237,37,54226,1,0,0:0:0:0:
279,312,54407,1,0,0:0:0:0:
73,165,54590,2,0,P|74:96|127:56,1,125.999996154785
337,225,54953,6,0,P|500:206|500:206,2,125.999996154785
185,323,55499,1,0,0:0:0:0:
268,148,55680,2,0,P|271:82|229:32,1,125.999996154785
73,165,56044,2,0,P|70:231|112:281,1,125.999996154785
314,323,56408,5,0,0:0:0:0:
268,148,56590,1,0,0:0:0:0:
154,203,56771,1,0,0:0:0:0:
268,148,56953,1,0,0:0:0:0:
314,323,57135,1,0,0:0:0:0:
348,99,57317,2,0,B|371:66|392:59|392:59|424:125|349:218,1,188.999994232178
303,229,57680,1,0,0:0:0:0:
479,204,59135,6,0,B|412:194|412:194|359:222|359:222|250:205,1,207.000003948212,0|2,0:0|0:0,0:0:0:0:
182,241,59680,1,0,0:0:0:0:
206,140,59862,1,0,0:0:0:0:
182,241,60044,2,0,P|125:224|67:226,1,103.500001974106
2,291,60408,1,0,0:0:0:0:
13,101,60590,6,0,L|129:89,1,103.500001974106
206,140,60953,1,0,0:0:0:0:
242,43,61135,1,0,0:0:0:0:
325,104,61317,2,0,P|347:61|336:9,1,103.500001974106
242,43,61680,1,0,0:0:0:0:
232,236,61862,6,0,B|363:253|363:253|424:211,1,207.000003948212
424,211,62589,1,0,0:0:0:0:
267,149,62771,1,0,0:0:0:0:
465,127,62953,1,0,0:0:0:0:
428,295,63135,1,2,0:0:0:0:
364,84,63316,1,0,0:0:0:0:
232,236,63498,1,0,0:0:0:0:
232,236,63862,6,0,B|161:242|161:242|131:285,1,103.500001974106
22,348,64226,2,0,B|52:283|52:283|38:254,1,103.500001974106
32,112,64590,2,0,B|72:170|72:170|104:173,1,103.500001974106
278,50,64953,6,0,B|357:-1|391:120|481:61,1,207.000003948212
414,203,65498,1,0,0:0:0:0:
296,244,65680,1,0,0:0:0:0:
414,203,65862,1,0,0:0:0:0:
243,160,66044,1,2,0:0:0:0:
378,285,66225,1,0,0:0:0:0:
217,345,66407,6,0,L|206:236,1,103.500001974106
331,169,66771,1,2,0:0:0:0:
141,185,66953,2,0,P|116:231|141:294,1,103.500001974106
243,160,67317,2,0,P|267:113|242:50,1,103.500001974106
154,45,67680,1,0,0:0:0:0:
298,228,67862,6,0,B|348:189|348:189|369:107|337:36,1,207.000003948212
119,149,68407,1,0,0:0:0:0:
154,45,68589,1,0,0:0:0:0:
192,188,68771,1,2,0:0:0:0:
233,118,68953,1,0,0:0:0:0:
42,175,69135,1,0,0:0:0:0:
339,269,69316,5,2,0:0:0:0:
145,306,69498,1,0,0:0:0:0:
380,197,69680,5,2,0:0:0:0:
233,263,69862,1,0,0:0:0:0:
368,140,70044,5,2,0:0:0:0:
276,226,70225,1,0,0:0:0:0:
348,115,70407,5,2,0:0:0:0:
294,190,70589,1,0,0:0:0:0:
89,57,70771,6,0,B|139:16|139:16|279:39,1,207.000003948212,4|2,0:0|0:0,0:0:0:0:
335,274,71316,1,0,0:0:0:0:
368,140,71498,1,0,0:0:0:0:
335,274,71680,1,0,0:0:0:0:
201,81,71862,1,2,0:0:0:0:
241,305,72044,1,0,0:0:0:0:
368,140,72225,6,0,L|480:116,1,103.500001974106
335,274,72589,1,2,0:0:0:0:
201,81,72771,2,0,L|89:57,1,103.500001974106
155,266,73135,2,0,P|187:210|181:151,1,103.500001974106,0|2,0:0|0:0,0:0:0:0:
24,194,73498,1,0,0:0:0:0:
96,347,73680,6,0,B|150:363|150:363|202:354|238:330|238:330|265:333|322:358,1,207.000003948212,0|2,0:0|0:0,0:0:0:0:
421,183,74226,1,0,0:0:0:0:
299,201,74408,1,2,0:0:0:0:
413,260,74590,1,0,0:0:0:0:
330,272,74772,1,2,0:0:0:0:
383,334,74954,1,0,0:0:0:0:
350,132,75136,6,0,P|314:115|244:131,1,103.500001974106
188,206,75499,1,0,0:0:0:0:
106,143,75680,2,0,L|90:18,1,103.500001974106
188,206,76044,2,0,L|174:308,1,103.500001974106
85,361,76408,1,0,0:0:0:0:
279,236,76590,5,0,0:0:0:0:
308,353,76771,1,0,0:0:0:0:
357,183,76953,1,0,0:0:0:0:
101,242,77135,2,0,P|45:180|56:56,1,207.000003948212
155,36,77680,1,0,0:0:0:0:
198,129,77862,1,0,0:0:0:0:
349,48,78044,6,0,L|458:40,2,103.500001974106
324,217,78590,2,0,P|379:196|417:153,1,103.500001974106
198,129,78953,2,0,P|142:149|104:192,1,103.500001974106
198,237,79317,1,0,0:0:0:0:
155,36,79499,1,0,0:0:0:0:
198,237,79680,5,0,0:0:0:0:
324,217,79862,1,0,0:0:0:0:
156,309,80044,1,0,0:0:0:0:
198,129,80226,1,0,0:0:0:0:
268,274,80408,1,0,0:0:0:0:
340,176,80590,1,0,0:0:0:0:
391,253,80771,1,0,0:0:0:0:
445,189,80953,1,0,0:0:0:0:
268,274,81135,5,0,0:0:0:0:
268,274,81226,1,0,0:0:0:0:
268,274,81317,2,0,L|261:200,1,67.5000025749208
183,119,81499,2,0,L|176:186,1,67.5000025749208
146,367,81680,6,0,B|62:317|74:214|74:214|86:268|151:305,1,256.499993150711
248,360,82044,2,0,L|315:353,1,67.5000025749208
407,240,82226,2,0,L|333:233,1,67.5000025749208
113,278,82408,6,0,B|70:122|70:122|95:23,1,251.999992309571
176,186,82953,1,0,0:0:0:0:
357,107,83135,1,0,0:0:0:0:
225,111,83317,1,0,0:0:0:0:
435,235,83499,1,0,0:0:0:0:
211,33,83680,6,0,P|272:41|244:199,1,251.999992309571
110,145,84226,1,0,0:0:0:0:
212,261,84408,1,0,0:0:0:0:
225,111,84590,1,0,0:0:0:0:
164,325,84771,2,0,P|226:343|284:293,1,125.999996154785
422,96,85135,2,0,B|459:102|482:122|482:122|507:212|467:313,1,251.999992309571
315,381,85680,1,0,0:0:0:0:
363,136,85862,6,0,B|237:89|218:214|124:181,1,251.999992309571
305,28,86408,1,0,0:0:0:0:
77,239,86590,2,0,P|13:217|125:154,1,251.999992309571
330,332,87135,5,0,0:0:0:0:
275,106,87316,1,0,0:0:0:0:
187,290,87498,1,0,0:0:0:0:
275,106,87680,1,0,0:0:0:0:
330,332,87862,1,0,0:0:0:0:
167,149,88044,1,0,0:0:0:0:
375,190,88225,1,0,0:0:0:0:
234,359,88408,2,0,P|174:374|120:344,1,125.999996154785
75,156,88771,5,0,0:0:0:0:
239,210,88953,1,0,0:0:0:0:
27,238,89135,1,0,0:0:0:0:
195,45,89317,1,0,0:0:0:0:
299,275,89499,2,0,L|432:284,1,125.999996154785
351,43,89862,6,0,P|313:74|302:160,1,125.999996154785
362,344,90226,1,0,0:0:0:0:
418,199,90408,1,0,0:0:0:0:
222,228,90590,1,0,0:0:0:0:
424,283,90771,1,0,0:0:0:0:
182,306,90953,2,0,P|136:254|152:179,1,125.999996154785
436,180,91317,5,0,0:0:0:0:
322,215,91499,1,0,0:0:0:0:
382,37,91681,1,0,0:0:0:0:
80,180,91863,5,0,0:0:0:0:
194,215,92045,1,0,0:0:0:0:
134,37,92227,1,0,0:0:0:0:
258,306,92408,5,0,0:0:0:0:
258,86,92590,1,0,0:0:0:0:
80,180,92772,1,0,0:0:0:0:
80,180,92863,1,0,0:0:0:0:
80,180,92954,2,0,L|166:189,1,67.5000025749208
275,236,93136,2,0,L|207:243,1,67.5000025749208
134,37,93317,6,0,B|38:39|-3:134|-3:134|34:93|62:98,1,256.499993150711
230,96,93681,2,0,L|223:158,1,62.9999980773926
140,334,93863,2,0,L|133:271,1,62.9999980773926
62,98,94045,6,0,B|184:50|144:193|334:97,1,251.999992309571,4|0,0:0|0:0,0:0:0:0:
395,30,94590,1,0,0:0:0:0:
423,235,94771,1,0,0:0:0:0:
448,103,94953,1,0,0:0:0:0:
252,208,95135,1,0,0:0:0:0:
482,302,95317,6,0,B|433:274|371:271|371:271|343:309|310:318|310:318|266:311|210:284,1,251.999992309571
141,154,95862,1,0,0:0:0:0:
70,287,96044,1,0,0:0:0:0:
231,214,96226,1,0,0:0:0:0:
55,112,96408,2,0,P|110:66|171:64,1,125.999996154785
254,303,96771,6,0,B|318:258|318:258|300:72,1,251.999992309571
141,154,97317,1,0,0:0:0:0:
376,34,97499,6,0,B|433:102|433:102|444:180|403:261,1,251.999992309571
244,192,98044,1,0,0:0:0:0:
434,327,98226,6,0,P|460:212|332:243,1,251.999992309571
242,303,98771,1,0,0:0:0:0:
355,321,98953,1,0,0:0:0:0:
180,226,99135,1,0,0:0:0:0:
288,378,99317,1,0,0:0:0:0:
356,204,99499,1,0,0:0:0:0:
109,313,99680,1,0,0:0:0:0:
416,375,99862,1,0,0:0:0:0:
281,151,100044,6,0,P|331:113|420:139,1,125.999996154785
441,257,100408,1,0,0:0:0:0:
474,115,100590,1,0,0:0:0:0:
337,292,100771,1,0,0:0:0:0:
271,55,100953,1,0,0:0:0:0:
69,278,101135,2,0,L|53:143,1,125.999996154785
301,167,101499,6,0,P|260:136|184:136,1,125.999996154785
152,316,101862,1,0,0:0:0:0:
338,245,102044,1,0,0:0:0:0:
243,364,102226,1,0,0:0:0:0:
187,135,102408,1,0,0:0:0:0:
328,325,102590,2,0,P|382:314|413:242,1,125.999996154785
326,39,102953,5,0,0:0:0:0:
254,180,103135,1,0,0:0:0:0:
422,91,103317,1,0,0:0:0:0:
254,180,103499,1,0,0:0:0:0:
326,39,103680,5,0,0:0:0:0:
256,267,103862,2,0,B|177:271|125:238|125:238|150:221|197:224,1,188.999994232178
254,180,104226,1,0,0:0:0:0:
