osu file format v14

[General]
AudioFilename: audio.mp3
AudioLeadIn: 0
PreviewTime: -1
Countdown: 1
SampleSet: None
StackLeniency: 0.7
Mode: 1
LetterboxInBreaks: 0
WidescreenStoryboard: 0

[Editor]
DistanceSpacing: 1.7
BeatDivisor: 3
GridSize: 8
TimelineZoom: 1.5

[Metadata]
Title:Madness
TitleUnicode:Madness
Artist:Battle Beast
ArtistUnicode:Battle Beast
Creator:LZD
Version:Inner Oni
Source:
Tags:
BeatmapID:1387798
BeatmapSetID:654766

[Difficulty]
HPDrainRate:7
CircleSize:5
OverallDifficulty:6
ApproachRate:5
SliderMultiplier:1.4
SliderTickRate:1

[Events]
//Background and Video events
//Break Periods
//Storyboard Layer 0 (Background)
//Storyboard Layer 1 (Fail)
//Storyboard Layer 2 (Pass)
//Storyboard Layer 3 (Foreground)
//Storyboard Sound Samples

[TimingPoints]
66,337.078651685393,4,1,0,20,1,0
28380,-100,4,1,0,20,0,1
48605,-100,4,1,0,20,0,0
76919,-100,4,1,0,20,0,1
97144,-100,4,1,0,20,0,0
172650,-100,4,1,0,20,0,1
192875,-100,4,1,0,20,0,0
194223,-100,4,1,0,20,0,1
214448,-100,4,1,0,20,0,0

[HitObjects]
96,80,66,5,0,0:0:0:0:
80,120,178,1,0,0:0:0:0:
104,136,290,1,0,0:0:0:0:
104,136,403,1,0,0:0:0:0:
104,136,515,1,0,0:0:0:0:
72,160,627,1,0,0:0:0:0:
136,312,740,1,8,0:0:0:0:
128,128,1414,1,0,0:0:0:0:
128,128,1526,1,0,0:0:0:0:
128,128,1639,1,0,0:0:0:0:
128,128,1751,1,8,0:0:0:0:
128,128,1863,1,0,0:0:0:0:
128,128,1976,1,0,0:0:0:0:
128,128,2088,1,8,0:0:0:0:
195,168,2200,1,0,0:0:0:0:
233,178,2313,1,0,0:0:0:0:
128,128,2425,1,8,0:0:0:0:
128,128,2762,1,0,0:0:0:0:
128,128,2874,1,0,0:0:0:0:
128,128,2987,1,0,0:0:0:0:
128,128,3099,1,8,0:0:0:0:
208,120,3212,1,0,0:0:0:0:
288,112,3324,1,0,0:0:0:0:
128,128,3436,1,8,0:0:0:0:
222,184,3549,1,0,0:0:0:0:
153,143,3661,1,0,0:0:0:0:
128,128,3773,1,8,0:0:0:0:
208,128,4110,1,0,0:0:0:0:
288,112,4223,1,0,0:0:0:0:
208,128,4335,1,0,0:0:0:0:
128,128,4448,1,8,0:0:0:0:
208,128,4560,1,0,0:0:0:0:
288,112,4672,1,0,0:0:0:0:
208,128,4785,1,0,0:0:0:0:
288,112,4897,1,0,0:0:0:0:
208,128,5009,1,0,0:0:0:0:
128,128,5122,1,8,0:0:0:0:
208,128,5234,1,0,0:0:0:0:
288,112,5346,1,0,0:0:0:0:
360,80,5459,1,8,0:0:0:0:
288,104,5571,1,0,0:0:0:0:
216,136,5683,1,0,0:0:0:0:
128,128,5796,1,8,0:0:0:0:
194,170,5908,1,0,0:0:0:0:
253,208,6021,1,0,0:0:0:0:
360,80,6133,1,8,0:0:0:0:
288,96,6470,1,0,0:0:0:0:
128,128,6807,1,0,0:0:0:0:
288,96,6919,1,0,0:0:0:0:
216,136,7032,1,0,0:0:0:0:
136,128,7144,1,8,0:0:0:0:
216,128,7257,1,0,0:0:0:0:
296,112,7369,1,0,0:0:0:0:
136,128,7481,1,8,0:0:0:0:
195,181,7594,1,0,0:0:0:0:
252,233,7706,1,0,0:0:0:0:
136,128,7818,1,8,0:0:0:0:
216,128,8155,1,0,0:0:0:0:
296,112,8268,1,0,0:0:0:0:
216,128,8380,1,0,0:0:0:0:
136,128,8492,1,8,0:0:0:0:
216,128,8605,1,0,0:0:0:0:
296,112,8717,1,0,0:0:0:0:
136,128,8830,1,8,0:0:0:0:
194,181,8942,1,0,0:0:0:0:
246,227,9054,1,0,0:0:0:0:
136,128,9167,1,8,0:0:0:0:
216,128,9504,1,0,0:0:0:0:
296,112,9616,1,0,0:0:0:0:
216,128,9728,1,0,0:0:0:0:
136,128,9841,1,8,0:0:0:0:
216,128,9953,1,0,0:0:0:0:
296,112,10065,1,0,0:0:0:0:
216,128,10178,1,0,0:0:0:0:
296,112,10290,1,0,0:0:0:0:
216,128,10403,1,0,0:0:0:0:
136,128,10515,1,8,0:0:0:0:
216,128,10627,1,0,0:0:0:0:
296,112,10740,1,0,0:0:0:0:
136,128,10852,1,8,0:0:0:0:
216,128,10964,1,0,0:0:0:0:
240,120,11077,1,0,0:0:0:0:
136,128,11189,1,8,0:0:0:0:
185,172,11301,1,0,0:0:0:0:
132,125,11414,1,0,0:0:0:0:
136,128,11526,1,8,0:0:0:0:
240,120,11863,1,0,0:0:0:0:
128,128,12200,1,8,0:0:0:0:
288,96,12312,1,8,0:0:0:0:
216,136,12425,1,8,0:0:0:0:
136,128,12537,1,8,0:0:0:0:
216,128,12650,1,0,0:0:0:0:
296,112,12762,1,0,0:0:0:0:
136,128,12874,1,8,0:0:0:0:
195,181,12987,1,0,0:0:0:0:
136,128,13099,1,0,0:0:0:0:
136,128,13211,1,8,0:0:0:0:
216,128,13548,1,8,0:0:0:0:
296,112,13661,1,8,0:0:0:0:
216,128,13773,1,8,0:0:0:0:
136,128,13885,1,8,0:0:0:0:
216,128,13998,1,0,0:0:0:0:
296,112,14110,1,0,0:0:0:0:
136,128,14223,1,8,0:0:0:0:
175,163,14335,1,0,0:0:0:0:
175,163,14448,1,0,0:0:0:0:
136,128,14560,1,8,0:0:0:0:
216,128,14897,1,8,0:0:0:0:
296,112,15009,1,8,0:0:0:0:
216,128,15121,1,8,0:0:0:0:
136,128,15234,1,8,0:0:0:0:
216,128,15346,1,0,0:0:0:0:
296,112,15458,1,0,0:0:0:0:
216,128,15571,1,8,0:0:0:0:
296,112,15683,1,8,0:0:0:0:
216,128,15796,1,8,0:0:0:0:
136,128,15908,1,8,0:0:0:0:
216,128,16020,1,0,0:0:0:0:
296,112,16133,1,0,0:0:0:0:
136,128,16245,1,8,0:0:0:0:
216,128,16357,1,0,0:0:0:0:
240,120,16470,5,0,0:0:0:0:
136,128,16582,1,8,0:0:0:0:
173,161,16695,1,0,0:0:0:0:
232,215,16807,1,0,0:0:0:0:
173,161,16919,1,8,0:0:0:0:
240,120,17256,1,0,0:0:0:0:
128,128,17594,5,0,0:0:0:0:
128,128,17706,1,0,0:0:0:0:
128,128,17819,1,0,0:0:0:0:
128,128,17931,1,8,0:0:0:0:
128,128,18043,1,0,0:0:0:0:
128,128,18156,1,0,0:0:0:0:
128,128,18268,1,8,0:0:0:0:
169,157,18380,1,0,0:0:0:0:
234,204,18492,1,0,0:0:0:0:
169,157,18605,1,8,0:0:0:0:
128,128,18942,1,0,0:0:0:0:
128,128,19054,1,0,0:0:0:0:
128,128,19167,1,0,0:0:0:0:
128,128,19279,1,8,0:0:0:0:
208,120,19392,1,0,0:0:0:0:
288,112,19504,1,0,0:0:0:0:
128,128,19616,1,8,0:0:0:0:
157,149,19728,1,0,0:0:0:0:
157,149,19841,1,0,0:0:0:0:
128,128,19953,1,8,0:0:0:0:
208,128,20290,1,0,0:0:0:0:
288,112,20403,1,0,0:0:0:0:
208,128,20515,1,0,0:0:0:0:
128,128,20628,1,8,0:0:0:0:
208,128,20740,1,0,0:0:0:0:
288,112,20852,1,0,0:0:0:0:
208,128,20965,1,0,0:0:0:0:
288,112,21077,1,0,0:0:0:0:
208,128,21189,1,0,0:0:0:0:
128,128,21302,1,8,0:0:0:0:
208,128,21414,1,0,0:0:0:0:
288,112,21526,1,0,0:0:0:0:
360,80,21639,1,8,0:0:0:0:
288,104,21751,1,0,0:0:0:0:
216,136,21863,1,0,0:0:0:0:
128,128,21976,1,8,0:0:0:0:
205,183,22088,1,0,0:0:0:0:
122,124,22200,1,0,0:0:0:0:
360,80,22313,1,8,0:0:0:0:
288,96,22650,1,0,0:0:0:0:
48,128,22987,1,8,0:0:0:0:
128,120,23099,1,8,0:0:0:0:
200,96,23212,1,8,0:0:0:0:
128,120,23324,1,0,0:0:0:0:
200,88,23436,1,0,0:0:0:0:
128,120,23549,1,0,0:0:0:0:
128,120,23661,1,8,0:0:0:0:
128,120,23773,1,8,0:0:0:0:
128,120,23886,1,0,0:0:0:0:
128,120,23998,1,8,0:0:0:0:
128,120,24110,1,8,0:0:0:0:
128,120,24223,1,8,0:0:0:0:
128,120,24335,1,0,0:0:0:0:
128,120,24448,1,0,0:0:0:0:
128,120,24560,1,0,0:0:0:0:
144,96,24672,1,8,0:0:0:0:
144,96,24785,1,0,0:0:0:0:
144,96,24897,1,8,0:0:0:0:
144,96,25009,1,8,0:0:0:0:
144,96,25122,1,0,0:0:0:0:
144,96,25234,1,0,0:0:0:0:
144,96,25346,1,8,0:0:0:0:
144,96,25459,1,8,0:0:0:0:
144,96,25571,1,8,0:0:0:0:
144,96,25683,1,0,0:0:0:0:
144,96,25796,1,0,0:0:0:0:
144,96,25908,1,0,0:0:0:0:
144,96,26021,1,8,0:0:0:0:
144,96,26133,1,0,0:0:0:0:
144,96,26245,1,8,0:0:0:0:
144,96,26358,1,0,0:0:0:0:
144,96,26470,1,0,0:0:0:0:
144,96,26582,1,0,0:0:0:0:
144,96,26695,1,8,0:0:0:0:
144,96,26807,1,8,0:0:0:0:
144,96,26919,1,8,0:0:0:0:
192,160,27032,1,0,0:0:0:0:
128,96,28380,1,12,0:0:0:0:
128,96,28717,1,4,0:0:0:0:
80,128,29054,1,0,0:0:0:0:
160,144,29391,1,8,0:0:0:0:
160,144,29504,1,8,0:0:0:0:
160,144,29616,1,0,0:0:0:0:
160,144,29728,1,8,0:0:0:0:
104,120,30065,1,0,0:0:0:0:
104,120,30290,1,0,0:0:0:0:
104,120,30403,1,8,0:0:0:0:
104,120,30740,1,8,0:0:0:0:
48,144,31077,1,0,0:0:0:0:
48,144,31189,1,0,0:0:0:0:
48,144,31301,1,0,0:0:0:0:
48,144,31414,1,8,0:0:0:0:
48,144,31526,1,0,0:0:0:0:
48,144,31639,1,0,0:0:0:0:
48,144,31751,1,0,0:0:0:0:
48,144,31863,1,0,0:0:0:0:
48,144,31976,1,0,0:0:0:0:
48,144,32088,1,8,0:0:0:0:
48,144,32200,1,0,0:0:0:0:
48,144,32313,1,0,0:0:0:0:
48,144,32425,1,0,0:0:0:0:
48,144,32537,1,0,0:0:0:0:
48,144,32650,1,0,0:0:0:0:
48,144,32762,1,8,0:0:0:0:
48,144,32874,1,0,0:0:0:0:
128,144,32987,1,0,0:0:0:0:
208,152,33099,1,0,0:0:0:0:
288,152,33212,1,0,0:0:0:0:
368,152,33324,1,0,0:0:0:0:
448,160,33436,1,8,0:0:0:0:
368,160,33549,1,0,0:0:0:0:
48,144,33661,1,0,0:0:0:0:
48,144,33773,1,12,0:0:0:0:
48,144,34110,1,4,0:0:0:0:
168,40,34448,1,0,0:0:0:0:
144,0,34785,1,0,0:0:0:0:
144,0,34897,1,0,0:0:0:0:
144,0,35009,1,0,0:0:0:0:
144,0,35122,1,8,0:0:0:0:
144,64,35459,1,0,0:0:0:0:
144,64,35683,1,0,0:0:0:0:
144,64,35796,1,8,0:0:0:0:
144,64,36133,1,0,0:0:0:0:
144,64,36470,1,8,0:0:0:0:
144,64,36582,1,0,0:0:0:0:
144,64,36695,1,0,0:0:0:0:
144,64,36807,1,0,0:0:0:0:
144,64,36919,1,0,0:0:0:0:
144,64,37032,1,0,0:0:0:0:
144,64,37144,1,8,0:0:0:0:
144,64,37257,1,0,0:0:0:0:
144,64,37369,1,0,0:0:0:0:
144,64,37481,1,0,0:0:0:0:
144,64,37594,1,0,0:0:0:0:
144,64,37706,1,0,0:0:0:0:
144,64,37818,1,8,0:0:0:0:
256,168,37931,1,8,0:0:0:0:
336,160,38043,1,0,0:0:0:0:
256,168,38155,1,8,0:0:0:0:
336,248,38268,1,0,0:0:0:0:
336,248,38380,1,0,0:0:0:0:
336,248,38492,1,8,0:0:0:0:
336,248,38605,1,8,0:0:0:0:
304,176,38717,1,8,0:0:0:0:
304,176,38830,1,0,0:0:0:0:
336,248,38942,1,0,0:0:0:0:
336,248,39054,1,0,0:0:0:0:
352,248,39167,1,12,0:0:0:0:
352,248,39504,1,4,0:0:0:0:
296,216,39841,1,0,0:0:0:0:
296,216,40178,1,8,0:0:0:0:
296,216,40290,1,8,0:0:0:0:
296,216,40403,1,0,0:0:0:0:
296,216,40515,1,8,0:0:0:0:
176,160,40852,1,0,0:0:0:0:
176,160,41077,1,0,0:0:0:0:
176,160,41189,1,8,0:0:0:0:
176,160,41526,1,8,0:0:0:0:
160,144,41863,1,0,0:0:0:0:
160,144,41976,1,0,0:0:0:0:
160,144,42088,1,0,0:0:0:0:
160,144,42200,1,8,0:0:0:0:
160,144,42537,1,0,0:0:0:0:
160,144,42650,1,0,0:0:0:0:
160,144,42762,1,0,0:0:0:0:
160,144,42874,1,8,0:0:0:0:
144,112,43212,1,0,0:0:0:0:
144,112,43324,1,0,0:0:0:0:
144,112,43436,1,0,0:0:0:0:
144,112,43549,1,8,0:0:0:0:
144,112,43886,1,0,0:0:0:0:
144,112,43998,1,0,0:0:0:0:
144,112,44110,1,0,0:0:0:0:
144,112,44223,1,8,0:0:0:0:
144,112,44560,1,4,0:0:0:0:
112,112,44897,1,8,0:0:0:0:
112,112,45009,1,0,0:0:0:0:
112,112,45122,1,0,0:0:0:0:
112,112,45234,1,0,0:0:0:0:
112,112,45346,1,0,0:0:0:0:
112,112,45459,1,0,0:0:0:0:
112,112,45571,1,8,0:0:0:0:
112,112,45683,1,0,0:0:0:0:
112,112,45796,1,0,0:0:0:0:
112,112,45908,1,0,0:0:0:0:
112,112,46021,1,0,0:0:0:0:
112,112,46133,1,0,0:0:0:0:
112,112,46245,1,8,0:0:0:0:
112,112,46358,1,0,0:0:0:0:
112,112,46470,1,0,0:0:0:0:
112,112,46582,1,0,0:0:0:0:
112,112,46695,1,0,0:0:0:0:
112,112,46807,1,0,0:0:0:0:
112,112,46919,1,8,0:0:0:0:
112,192,47032,1,0,0:0:0:0:
112,272,47144,1,0,0:0:0:0:
96,160,47257,1,8,0:0:0:0:
96,160,47369,1,0,0:0:0:0:
96,160,47481,1,8,0:0:0:0:
96,160,47594,1,8,0:0:0:0:
96,160,47706,1,0,0:0:0:0:
96,160,47818,1,0,0:0:0:0:
96,160,47931,1,8,0:0:0:0:
120,88,48043,1,0,0:0:0:0:
104,168,48155,1,8,0:0:0:0:
120,88,48268,1,8,0:0:0:0:
104,168,48380,1,0,0:0:0:0:
120,88,48492,1,0,0:0:0:0:
96,160,48605,1,8,0:0:0:0:
128,128,49953,1,0,0:0:0:0:
128,128,50065,1,0,0:0:0:0:
128,128,50178,1,0,0:0:0:0:
128,128,50290,1,8,0:0:0:0:
128,128,50402,1,0,0:0:0:0:
128,128,50515,1,0,0:0:0:0:
128,128,50627,1,8,0:0:0:0:
61,171,50740,1,0,0:0:0:0:
124,124,50852,1,0,0:0:0:0:
128,128,50964,1,8,0:0:0:0:
128,128,51301,1,0,0:0:0:0:
128,128,51413,1,0,0:0:0:0:
128,128,51526,1,0,0:0:0:0:
128,128,51638,1,8,0:0:0:0:
208,120,51751,1,0,0:0:0:0:
288,112,51863,1,0,0:0:0:0:
128,128,51975,1,8,0:0:0:0:
128,128,52088,1,0,0:0:0:0:
128,128,52200,1,0,0:0:0:0:
128,128,52312,1,8,0:0:0:0:
208,128,52649,1,0,0:0:0:0:
288,112,52762,1,0,0:0:0:0:
208,128,52874,1,0,0:0:0:0:
128,128,52987,1,8,0:0:0:0:
208,128,53099,1,0,0:0:0:0:
288,112,53211,1,0,0:0:0:0:
208,128,53324,1,0,0:0:0:0:
288,112,53436,1,0,0:0:0:0:
208,128,53548,1,0,0:0:0:0:
128,128,53661,1,8,0:0:0:0:
208,128,53773,1,0,0:0:0:0:
288,112,53885,1,0,0:0:0:0:
360,80,53998,1,8,0:0:0:0:
288,104,54110,1,0,0:0:0:0:
216,136,54222,1,0,0:0:0:0:
128,128,54335,1,8,0:0:0:0:
128,128,54448,1,0,0:0:0:0:
128,128,54560,1,0,0:0:0:0:
360,80,54672,1,8,0:0:0:0:
288,96,55009,1,0,0:0:0:0:
128,128,55346,1,0,0:0:0:0:
288,96,55458,1,0,0:0:0:0:
216,136,55571,1,0,0:0:0:0:
136,128,55683,1,8,0:0:0:0:
216,128,55796,1,0,0:0:0:0:
296,112,55908,1,0,0:0:0:0:
136,128,56020,1,8,0:0:0:0:
114,115,56133,1,0,0:0:0:0:
114,115,56245,1,0,0:0:0:0:
136,128,56357,1,8,0:0:0:0:
216,128,56694,1,0,0:0:0:0:
296,112,56807,1,0,0:0:0:0:
216,128,56919,1,0,0:0:0:0:
136,128,57031,1,8,0:0:0:0:
216,128,57144,1,0,0:0:0:0:
296,112,57256,1,0,0:0:0:0:
136,128,57369,1,8,0:0:0:0:
65,91,57481,1,0,0:0:0:0:
135,127,57594,1,0,0:0:0:0:
136,128,57706,1,8,0:0:0:0:
216,128,58043,1,0,0:0:0:0:
296,112,58155,1,0,0:0:0:0:
216,128,58267,1,0,0:0:0:0:
136,128,58380,1,8,0:0:0:0:
216,128,58492,1,0,0:0:0:0:
296,112,58604,1,0,0:0:0:0:
216,128,58717,1,0,0:0:0:0:
296,112,58829,1,0,0:0:0:0:
216,128,58942,1,0,0:0:0:0:
136,128,59054,1,8,0:0:0:0:
216,128,59166,1,0,0:0:0:0:
296,112,59279,1,0,0:0:0:0:
136,128,59391,1,8,0:0:0:0:
216,128,59503,1,0,0:0:0:0:
240,120,59616,1,0,0:0:0:0:
136,128,59728,1,8,0:0:0:0:
71,80,59841,1,0,0:0:0:0:
134,126,59953,1,0,0:0:0:0:
136,128,60065,1,8,0:0:0:0:
240,120,60402,1,0,0:0:0:0:
128,128,60739,1,8,0:0:0:0:
288,96,60851,1,8,0:0:0:0:
216,136,60964,1,8,0:0:0:0:
136,128,61076,1,8,0:0:0:0:
216,128,61189,1,0,0:0:0:0:
296,112,61301,1,0,0:0:0:0:
136,128,61413,1,8,0:0:0:0:
72,79,61526,1,0,0:0:0:0:
135,127,61639,1,0,0:0:0:0:
136,128,61750,1,8,0:0:0:0:
216,128,62087,1,8,0:0:0:0:
296,112,62200,1,8,0:0:0:0:
216,128,62312,1,8,0:0:0:0:
136,128,62424,1,8,0:0:0:0:
216,128,62537,1,0,0:0:0:0:
296,112,62649,1,0,0:0:0:0:
136,128,62762,1,8,0:0:0:0:
68,86,62874,1,0,0:0:0:0:
0,45,62987,1,0,0:0:0:0:
136,128,63099,1,8,0:0:0:0:
216,128,63436,1,8,0:0:0:0:
296,112,63548,1,8,0:0:0:0:
216,128,63660,1,8,0:0:0:0:
136,128,63773,1,8,0:0:0:0:
216,128,63885,1,0,0:0:0:0:
296,112,63997,1,0,0:0:0:0:
216,128,64110,1,8,0:0:0:0:
296,112,64222,1,8,0:0:0:0:
216,128,64335,1,8,0:0:0:0:
136,128,64447,1,8,0:0:0:0:
216,128,64559,1,0,0:0:0:0:
296,112,64672,1,0,0:0:0:0:
136,128,64784,1,8,0:0:0:0:
216,128,64896,1,0,0:0:0:0:
240,120,65009,5,0,0:0:0:0:
136,128,65121,1,8,0:0:0:0:
70,87,65234,1,0,0:0:0:0:
142,132,65346,1,0,0:0:0:0:
136,128,65458,1,8,0:0:0:0:
240,120,65795,1,0,0:0:0:0:
128,128,66133,5,0,0:0:0:0:
128,128,66245,1,0,0:0:0:0:
128,128,66358,1,0,0:0:0:0:
128,128,66470,1,8,0:0:0:0:
128,128,66582,1,0,0:0:0:0:
128,128,66695,1,0,0:0:0:0:
128,128,66807,1,8,0:0:0:0:
64,68,66919,1,0,0:0:0:0:
131,131,67032,1,0,0:0:0:0:
128,128,67144,1,8,0:0:0:0:
128,128,67481,1,0,0:0:0:0:
128,128,67593,1,0,0:0:0:0:
128,128,67706,1,0,0:0:0:0:
128,128,67818,1,8,0:0:0:0:
208,120,67931,1,0,0:0:0:0:
288,112,68043,1,0,0:0:0:0:
128,128,68155,1,8,0:0:0:0:
61,65,68268,1,0,0:0:0:0:
136,135,68380,1,0,0:0:0:0:
128,128,68492,1,8,0:0:0:0:
208,128,68829,1,0,0:0:0:0:
288,112,68942,1,0,0:0:0:0:
208,128,69054,1,0,0:0:0:0:
128,128,69167,1,8,0:0:0:0:
208,128,69279,1,0,0:0:0:0:
288,112,69391,1,0,0:0:0:0:
208,128,69504,1,0,0:0:0:0:
288,112,69616,1,0,0:0:0:0:
208,128,69728,1,0,0:0:0:0:
128,128,69841,1,8,0:0:0:0:
208,128,69953,1,0,0:0:0:0:
288,112,70065,1,0,0:0:0:0:
360,80,70178,1,8,0:0:0:0:
288,104,70290,1,0,0:0:0:0:
216,136,70402,1,0,0:0:0:0:
128,128,70515,1,8,0:0:0:0:
74,77,70627,1,0,0:0:0:0:
143,142,70740,1,0,0:0:0:0:
360,80,70852,1,8,0:0:0:0:
288,96,71189,1,0,0:0:0:0:
48,128,71526,1,8,0:0:0:0:
128,120,71638,1,8,0:0:0:0:
200,96,71751,1,8,0:0:0:0:
128,120,71863,1,0,0:0:0:0:
200,88,71975,1,0,0:0:0:0:
128,120,72088,1,0,0:0:0:0:
128,120,72200,1,8,0:0:0:0:
128,120,72312,1,8,0:0:0:0:
128,120,72425,1,0,0:0:0:0:
128,120,72537,1,8,0:0:0:0:
128,120,72649,1,8,0:0:0:0:
128,120,72762,1,8,0:0:0:0:
128,120,72874,1,0,0:0:0:0:
128,120,72987,1,0,0:0:0:0:
128,120,73099,1,0,0:0:0:0:
144,96,73211,1,8,0:0:0:0:
144,96,73324,1,0,0:0:0:0:
144,96,73436,1,8,0:0:0:0:
144,96,73548,1,8,0:0:0:0:
144,96,73661,1,0,0:0:0:0:
144,96,73773,1,0,0:0:0:0:
144,96,73885,1,8,0:0:0:0:
144,96,73998,1,8,0:0:0:0:
144,96,74110,1,8,0:0:0:0:
144,96,74222,1,0,0:0:0:0:
144,96,74335,1,0,0:0:0:0:
144,96,74447,1,0,0:0:0:0:
144,96,74560,1,8,0:0:0:0:
144,96,74672,1,0,0:0:0:0:
144,96,74784,1,8,0:0:0:0:
144,96,74897,1,0,0:0:0:0:
144,96,75009,1,0,0:0:0:0:
144,96,75121,1,0,0:0:0:0:
144,96,75234,1,8,0:0:0:0:
144,96,75346,1,8,0:0:0:0:
144,96,75458,1,8,0:0:0:0:
192,160,75571,1,0,0:0:0:0:
128,96,76919,1,12,0:0:0:0:
128,96,77256,1,4,0:0:0:0:
80,128,77593,1,0,0:0:0:0:
160,144,77930,1,8,0:0:0:0:
160,144,78043,1,8,0:0:0:0:
160,144,78155,1,0,0:0:0:0:
160,144,78267,1,8,0:0:0:0:
104,120,78604,1,0,0:0:0:0:
104,120,78829,1,0,0:0:0:0:
104,120,78942,1,8,0:0:0:0:
104,120,79279,1,8,0:0:0:0:
48,144,79616,1,0,0:0:0:0:
48,144,79728,1,0,0:0:0:0:
48,144,79840,1,0,0:0:0:0:
48,144,79953,1,8,0:0:0:0:
48,144,80065,1,0,0:0:0:0:
48,144,80178,1,0,0:0:0:0:
48,144,80290,1,0,0:0:0:0:
48,144,80402,1,0,0:0:0:0:
48,144,80515,1,0,0:0:0:0:
48,144,80627,1,8,0:0:0:0:
48,144,80739,1,0,0:0:0:0:
48,144,80852,1,0,0:0:0:0:
48,144,80964,1,0,0:0:0:0:
48,144,81076,1,0,0:0:0:0:
48,144,81189,1,0,0:0:0:0:
48,144,81301,1,8,0:0:0:0:
48,144,81413,1,0,0:0:0:0:
128,144,81526,1,0,0:0:0:0:
208,152,81638,1,0,0:0:0:0:
288,152,81751,1,0,0:0:0:0:
368,152,81863,1,0,0:0:0:0:
448,160,81975,1,8,0:0:0:0:
368,160,82088,1,0,0:0:0:0:
48,144,82200,1,0,0:0:0:0:
48,144,82312,1,12,0:0:0:0:
48,144,82649,1,4,0:0:0:0:
168,40,82987,1,0,0:0:0:0:
144,0,83324,1,0,0:0:0:0:
144,0,83436,1,0,0:0:0:0:
144,0,83548,1,0,0:0:0:0:
144,0,83661,1,8,0:0:0:0:
144,64,83998,1,0,0:0:0:0:
144,64,84222,1,0,0:0:0:0:
144,64,84335,1,8,0:0:0:0:
144,64,84672,1,0,0:0:0:0:
144,64,85009,1,8,0:0:0:0:
144,64,85121,1,0,0:0:0:0:
144,64,85234,1,0,0:0:0:0:
144,64,85346,1,0,0:0:0:0:
144,64,85458,1,0,0:0:0:0:
144,64,85571,1,0,0:0:0:0:
144,64,85683,1,8,0:0:0:0:
144,64,85796,1,0,0:0:0:0:
144,64,85908,1,0,0:0:0:0:
144,64,86020,1,0,0:0:0:0:
144,64,86133,1,0,0:0:0:0:
144,64,86245,1,0,0:0:0:0:
144,64,86357,1,8,0:0:0:0:
256,168,86470,1,8,0:0:0:0:
336,160,86582,1,0,0:0:0:0:
256,168,86694,1,8,0:0:0:0:
336,248,86807,1,0,0:0:0:0:
336,248,86919,1,0,0:0:0:0:
336,248,87031,1,8,0:0:0:0:
336,248,87144,1,8,0:0:0:0:
304,176,87256,1,8,0:0:0:0:
304,176,87369,1,0,0:0:0:0:
336,248,87481,1,0,0:0:0:0:
336,248,87593,1,0,0:0:0:0:
352,248,87706,1,12,0:0:0:0:
352,248,88043,1,4,0:0:0:0:
296,216,88380,1,0,0:0:0:0:
296,216,88717,1,8,0:0:0:0:
296,216,88829,1,8,0:0:0:0:
296,216,88942,1,0,0:0:0:0:
296,216,89054,1,8,0:0:0:0:
176,160,89391,1,0,0:0:0:0:
176,160,89616,1,0,0:0:0:0:
176,160,89728,1,8,0:0:0:0:
1,16,90065,1,8,0:0:0:0:
160,144,90402,1,0,0:0:0:0:
160,144,90515,1,0,0:0:0:0:
160,144,90627,1,0,0:0:0:0:
160,144,90739,1,8,0:0:0:0:
160,144,91076,1,0,0:0:0:0:
160,144,91189,1,0,0:0:0:0:
160,144,91301,1,0,0:0:0:0:
160,144,91413,1,8,0:0:0:0:
144,112,91751,1,0,0:0:0:0:
144,112,91863,1,0,0:0:0:0:
144,112,91975,1,0,0:0:0:0:
144,112,92088,1,8,0:0:0:0:
144,112,92425,1,0,0:0:0:0:
144,112,92537,1,0,0:0:0:0:
144,112,92649,1,0,0:0:0:0:
144,112,92762,1,8,0:0:0:0:
144,112,93099,1,4,0:0:0:0:
112,112,93436,1,8,0:0:0:0:
112,112,93548,1,0,0:0:0:0:
112,112,93661,1,0,0:0:0:0:
112,112,93773,1,0,0:0:0:0:
112,112,93885,1,0,0:0:0:0:
112,112,93998,1,0,0:0:0:0:
112,112,94110,1,8,0:0:0:0:
112,112,94222,1,0,0:0:0:0:
112,112,94335,1,0,0:0:0:0:
112,112,94447,1,0,0:0:0:0:
112,112,94560,1,0,0:0:0:0:
112,112,94672,1,0,0:0:0:0:
112,112,94784,1,8,0:0:0:0:
112,112,94897,1,0,0:0:0:0:
112,112,95009,1,0,0:0:0:0:
112,112,95121,1,0,0:0:0:0:
112,112,95234,1,0,0:0:0:0:
112,112,95346,1,0,0:0:0:0:
112,112,95458,1,8,0:0:0:0:
112,192,95571,1,0,0:0:0:0:
112,272,95683,1,0,0:0:0:0:
96,160,95796,1,8,0:0:0:0:
96,160,95908,1,0,0:0:0:0:
96,160,96020,1,8,0:0:0:0:
96,160,96133,1,8,0:0:0:0:
96,160,96245,1,0,0:0:0:0:
96,160,96357,1,0,0:0:0:0:
96,160,96470,1,8,0:0:0:0:
120,88,96582,1,0,0:0:0:0:
104,168,96694,1,8,0:0:0:0:
120,88,96807,1,8,0:0:0:0:
104,168,96919,1,0,0:0:0:0:
120,88,97031,1,0,0:0:0:0:
96,160,97144,1,8,0:0:0:0:
160,144,98492,5,8,0:0:0:0:
168,224,98605,1,8,0:0:0:0:
160,144,98717,1,8,0:0:0:0:
168,224,98830,1,8,0:0:0:0:
160,144,98942,1,8,0:0:0:0:
168,224,99054,1,8,0:0:0:0:
160,144,99167,1,8,0:0:0:0:
168,224,99279,1,8,0:0:0:0:
160,144,99391,1,8,0:0:0:0:
168,224,99504,1,8,0:0:0:0:
160,144,99616,1,8,0:0:0:0:
168,224,99728,1,8,0:0:0:0:
160,144,99841,1,8,0:0:0:0:
168,224,99953,1,8,0:0:0:0:
160,144,100065,1,8,0:0:0:0:
168,224,100178,1,0,0:0:0:0:
160,144,100290,1,0,0:0:0:0:
168,224,100403,1,0,0:0:0:0:
160,144,100515,1,8,0:0:0:0:
168,224,100627,1,8,0:0:0:0:
160,144,100740,1,8,0:0:0:0:
168,224,100852,1,0,0:0:0:0:
160,144,100964,1,0,0:0:0:0:
168,224,101077,1,0,0:0:0:0:
160,144,101189,1,8,0:0:0:0:
168,224,101301,1,8,0:0:0:0:
160,144,101414,1,8,0:0:0:0:
168,224,101526,1,8,0:0:0:0:
160,144,101639,1,8,0:0:0:0:
168,224,101751,1,8,0:0:0:0:
160,144,101863,1,8,0:0:0:0:
168,224,101976,1,8,0:0:0:0:
160,144,102088,1,8,0:0:0:0:
168,224,102200,1,8,0:0:0:0:
160,144,102313,1,8,0:0:0:0:
168,224,102425,1,8,0:0:0:0:
160,144,102537,1,8,0:0:0:0:
168,224,102650,1,8,0:0:0:0:
160,144,102762,1,8,0:0:0:0:
168,224,102874,1,0,0:0:0:0:
160,144,102987,1,0,0:0:0:0:
168,224,103099,1,0,0:0:0:0:
160,144,103212,1,8,0:0:0:0:
168,224,103324,1,8,0:0:0:0:
160,144,103436,1,8,0:0:0:0:
168,224,103549,1,0,0:0:0:0:
160,144,103661,1,0,0:0:0:0:
168,224,103773,1,0,0:0:0:0:
160,144,103886,1,8,0:0:0:0:
168,224,103998,1,8,0:0:0:0:
160,144,104110,1,8,0:0:0:0:
168,224,104223,1,8,0:0:0:0:
160,144,104335,1,8,0:0:0:0:
168,224,104448,1,8,0:0:0:0:
160,144,104560,1,8,0:0:0:0:
168,224,104672,1,8,0:0:0:0:
160,144,104785,1,8,0:0:0:0:
168,224,104897,1,0,0:0:0:0:
160,144,105009,1,0,0:0:0:0:
168,224,105122,1,0,0:0:0:0:
160,144,105234,1,8,0:0:0:0:
168,224,105346,1,8,0:0:0:0:
160,144,105459,1,8,0:0:0:0:
168,224,105571,1,8,0:0:0:0:
160,144,105683,1,8,0:0:0:0:
168,224,105796,1,8,0:0:0:0:
160,144,105908,1,0,0:0:0:0:
168,224,106021,1,0,0:0:0:0:
160,144,106133,1,0,0:0:0:0:
168,224,106245,1,8,0:0:0:0:
160,144,106358,1,8,0:0:0:0:
168,224,106470,1,8,0:0:0:0:
160,144,106582,1,0,0:0:0:0:
168,224,106695,1,0,0:0:0:0:
160,144,106807,1,0,0:0:0:0:
168,224,106919,1,8,0:0:0:0:
160,144,107032,1,0,0:0:0:0:
168,224,107144,1,8,0:0:0:0:
160,144,107257,1,0,0:0:0:0:
168,224,107369,1,0,0:0:0:0:
160,144,107481,1,0,0:0:0:0:
168,224,107594,1,8,0:0:0:0:
160,144,107706,1,0,0:0:0:0:
168,224,107818,1,8,0:0:0:0:
160,144,107931,1,0,0:0:0:0:
168,224,108043,1,0,0:0:0:0:
160,144,108155,1,0,0:0:0:0:
168,224,108268,1,8,0:0:0:0:
160,144,108380,1,0,0:0:0:0:
168,224,108492,1,0,0:0:0:0:
160,144,108605,1,8,0:0:0:0:
176,224,108717,1,0,0:0:0:0:
160,144,108830,1,0,0:0:0:0:
176,224,108942,1,8,0:0:0:0:
160,144,109054,1,0,0:0:0:0:
224,192,109167,1,0,0:0:0:0:
288,232,109279,1,8,0:0:0:0:
352,272,109391,1,8,0:0:0:0:
288,232,109504,1,8,0:0:0:0:
352,272,109616,1,8,0:0:0:0:
288,232,109728,1,8,0:0:0:0:
288,232,109841,1,8,0:0:0:0:
288,232,109953,1,8,0:0:0:0:
288,232,110065,1,8,0:0:0:0:
288,232,110178,1,8,0:0:0:0:
288,232,110290,1,8,0:0:0:0:
288,232,110403,1,8,0:0:0:0:
288,232,110515,1,8,0:0:0:0:
288,232,110627,1,0,0:0:0:0:
288,232,110740,1,0,0:0:0:0:
288,232,110852,1,0,0:0:0:0:
288,232,110964,1,8,0:0:0:0:
288,232,111077,1,0,0:0:0:0:
288,232,111189,1,0,0:0:0:0:
288,232,111301,1,8,0:0:0:0:
288,232,111414,1,8,0:0:0:0:
288,232,111526,1,8,0:0:0:0:
288,232,111639,1,0,0:0:0:0:
288,232,111751,1,0,0:0:0:0:
288,232,111863,1,0,0:0:0:0:
288,232,111976,1,8,0:0:0:0:
288,232,112088,1,8,0:0:0:0:
288,232,112200,1,8,0:0:0:0:
288,232,112313,1,8,0:0:0:0:
288,232,112425,1,8,0:0:0:0:
288,232,112537,1,8,0:0:0:0:
288,232,112650,1,8,0:0:0:0:
288,232,112762,1,8,0:0:0:0:
288,232,112874,1,8,0:0:0:0:
288,232,112987,1,0,0:0:0:0:
288,232,113099,1,0,0:0:0:0:
288,232,113212,1,0,0:0:0:0:
288,232,113324,1,8,0:0:0:0:
288,232,113436,1,0,0:0:0:0:
288,232,113549,1,0,0:0:0:0:
288,232,113661,1,8,0:0:0:0:
288,232,113773,1,8,0:0:0:0:
288,232,113886,1,8,0:0:0:0:
288,232,113998,1,0,0:0:0:0:
288,232,114110,1,0,0:0:0:0:
288,232,114223,1,0,0:0:0:0:
288,232,114335,1,8,0:0:0:0:
288,232,114448,1,8,0:0:0:0:
288,232,114560,1,8,0:0:0:0:
288,232,114672,1,0,0:0:0:0:
288,232,114785,1,0,0:0:0:0:
288,232,114897,1,0,0:0:0:0:
288,232,115009,1,0,0:0:0:0:
288,232,115122,1,0,0:0:0:0:
288,232,115234,1,0,0:0:0:0:
288,232,115346,1,8,0:0:0:0:
288,232,115459,1,8,0:0:0:0:
288,232,115571,1,8,0:0:0:0:
288,232,115683,1,8,0:0:0:0:
288,232,115796,1,8,0:0:0:0:
288,232,115908,1,8,0:0:0:0:
288,232,116021,1,0,0:0:0:0:
288,232,116133,1,0,0:0:0:0:
288,232,116245,1,0,0:0:0:0:
288,232,116358,1,0,0:0:0:0:
288,232,116470,1,0,0:0:0:0:
288,232,116582,1,0,0:0:0:0:
288,232,116695,1,8,0:0:0:0:
288,232,116807,1,8,0:0:0:0:
288,232,116919,1,8,0:0:0:0:
288,232,117032,1,8,0:0:0:0:
288,232,117144,1,8,0:0:0:0:
288,232,117257,1,8,0:0:0:0:
288,232,117369,1,0,0:0:0:0:
288,232,117481,1,0,0:0:0:0:
288,232,117594,1,0,0:0:0:0:
240,296,117706,1,8,0:0:0:0:
288,232,117818,1,0,0:0:0:0:
240,296,117931,1,0,0:0:0:0:
288,232,118043,1,0,0:0:0:0:
240,296,118155,1,0,0:0:0:0:
288,232,118268,1,0,0:0:0:0:
240,296,118380,1,8,0:0:0:0:
288,232,118492,1,0,0:0:0:0:
240,296,118605,1,0,0:0:0:0:
288,232,118717,1,8,0:0:0:0:
240,296,118830,1,8,0:0:0:0:
288,232,118942,1,0,0:0:0:0:
240,296,119054,1,8,0:0:0:0:
288,232,119167,1,0,0:0:0:0:
240,296,119279,1,0,0:0:0:0:
288,232,119391,1,8,0:0:0:0:
240,296,119504,1,0,0:0:0:0:
288,232,119616,1,0,0:0:0:0:
240,296,119728,1,8,0:0:0:0:
288,232,119841,1,0,0:0:0:0:
240,296,119953,1,0,0:0:0:0:
288,232,120065,1,8,0:0:0:0:
240,296,120178,1,0,0:0:0:0:
288,232,120290,1,0,0:0:0:0:
240,296,120403,1,8,0:0:0:0:
288,232,120515,1,8,0:0:0:0:
240,296,120627,1,0,0:0:0:0:
288,232,120740,1,8,0:0:0:0:
240,296,120852,1,0,0:0:0:0:
288,232,120964,1,0,0:0:0:0:
240,296,121077,1,8,0:0:0:0:
288,232,121189,1,8,0:0:0:0:
240,296,121301,1,8,0:0:0:0:
96,160,121414,1,0,0:0:0:0:
43,166,122762,1,8,0:0:0:0:
43,166,122874,1,8,0:0:0:0:
43,166,122987,1,0,0:0:0:0:
43,166,123099,1,8,0:0:0:0:
43,166,123212,1,8,0:0:0:0:
43,166,123324,1,8,0:0:0:0:
43,166,123436,1,4,0:0:0:0:
43,166,123773,1,12,0:0:0:0:
280,200,124110,1,0,0:0:0:0:
200,192,124223,1,0,0:0:0:0:
120,176,124335,1,8,0:0:0:0:
144,96,124448,1,0,0:0:0:0:
144,96,124560,1,8,0:0:0:0:
144,96,124672,1,8,0:0:0:0:
144,96,124785,1,4,0:0:0:0:
144,96,125122,1,12,0:0:0:0:
32,304,125459,1,0,0:0:0:0:
128,88,125796,1,8,0:0:0:0:
96,160,125908,1,8,0:0:0:0:
96,160,126021,1,0,0:0:0:0:
96,160,126133,1,8,0:0:0:0:
96,160,126470,1,0,0:0:0:0:
96,160,126695,1,0,0:0:0:0:
96,160,126807,1,8,0:0:0:0:
104,0,127032,1,0,0:0:0:0:
104,80,127144,1,8,0:0:0:0:
104,80,127369,1,0,0:0:0:0:
80,152,127481,1,8,0:0:0:0:
80,152,127594,1,8,0:0:0:0:
80,152,127706,1,8,0:0:0:0:
72,120,127818,1,8,0:0:0:0:
72,120,127931,1,8,0:0:0:0:
72,120,128043,1,8,0:0:0:0:
72,120,128155,1,0,0:0:0:0:
72,120,128492,1,8,0:0:0:0:
72,120,128717,1,0,0:0:0:0:
72,120,128830,1,8,0:0:0:0:
72,120,129054,1,0,0:0:0:0:
72,120,129167,1,8,0:0:0:0:
72,120,129279,1,8,0:0:0:0:
72,120,129391,1,8,0:0:0:0:
72,120,129504,1,0,0:0:0:0:
72,120,129616,1,8,0:0:0:0:
72,120,129728,1,8,0:0:0:0:
72,120,129841,1,0,0:0:0:0:
72,120,129953,1,8,0:0:0:0:
72,120,130065,1,8,0:0:0:0:
72,120,130178,1,0,0:0:0:0:
99,82,130515,1,8,0:0:0:0:
116,319,130852,1,0,0:0:0:0:
94,82,131189,1,8,0:0:0:0:
102,160,131301,1,8,0:0:0:0:
94,80,131414,1,0,0:0:0:0:
101,158,131526,1,8,0:0:0:0:
136,98,131863,1,0,0:0:0:0:
136,98,132200,1,8,0:0:0:0:
136,98,132537,1,0,0:0:0:0:
136,98,132650,1,0,0:0:0:0:
136,98,132762,1,0,0:0:0:0:
136,98,132874,1,8,0:0:0:0:
93,131,133212,1,0,0:0:0:0:
93,131,133549,1,8,0:0:0:0:
93,131,133661,1,0,0:0:0:0:
93,131,133773,1,0,0:0:0:0:
93,131,133886,1,8,0:0:0:0:
93,131,133998,1,8,0:0:0:0:
93,131,134110,1,0,0:0:0:0:
93,131,134223,1,8,0:0:0:0:
93,131,134335,1,0,0:0:0:0:
93,131,134448,1,0,0:0:0:0:
93,131,134560,1,8,0:0:0:0:
93,131,134672,1,8,0:0:0:0:
93,131,134785,1,8,0:0:0:0:
93,131,134897,1,0,0:0:0:0:
93,131,134981,1,0,0:0:0:0:
120,184,135065,1,0,0:0:0:0:
144,240,135150,1,0,0:0:0:0:
144,240,135234,1,8,0:0:0:0:
56,160,135403,1,0,0:0:0:0:
56,160,135487,1,0,0:0:0:0:
56,160,135571,1,8,0:0:0:0:
280,232,135740,1,0,0:0:0:0:
280,232,135824,1,0,0:0:0:0:
280,232,135908,1,8,0:0:0:0:
280,232,136077,1,0,0:0:0:0:
280,232,136161,1,0,0:0:0:0:
280,232,136245,1,8,0:0:0:0:
168,184,136414,1,0,0:0:0:0:
112,160,136498,1,0,0:0:0:0:
112,160,136582,1,8,0:0:0:0:
112,160,136667,1,8,0:0:0:0:
112,160,136751,1,0,0:0:0:0:
112,160,136835,1,0,0:0:0:0:
112,160,136919,1,8,0:0:0:0:
208,88,137088,1,0,0:0:0:0:
160,120,137172,1,0,0:0:0:0:
304,16,137257,1,8,0:0:0:0:
208,88,137425,1,0,0:0:0:0:
120,168,137594,1,8,0:0:0:0:
120,168,137678,1,8,0:0:0:0:
120,168,137762,1,0,0:0:0:0:
120,168,137846,1,0,0:0:0:0:
120,168,137931,1,8,0:0:0:0:
120,168,138099,1,0,0:0:0:0:
120,168,138183,1,0,0:0:0:0:
120,168,138268,1,8,0:0:0:0:
120,168,138942,1,0,0:0:0:0:
200,160,139054,1,0,0:0:0:0:
120,168,139167,1,0,0:0:0:0:
200,144,139279,1,8,0:0:0:0:
128,168,139335,1,8,0:0:0:0:
128,168,139391,1,8,0:0:0:0:
128,168,139448,1,8,0:0:0:0:
128,168,139504,1,8,0:0:0:0:
192,120,139616,1,0,0:0:0:0:
144,152,139728,1,0,0:0:0:0:
144,152,139841,1,0,0:0:0:0:
144,152,139953,1,8,0:0:0:0:
128,168,140009,1,8,0:0:0:0:
128,168,140065,1,8,0:0:0:0:
128,168,140122,1,8,0:0:0:0:
128,168,140178,1,8,0:0:0:0:
120,168,140290,1,0,0:0:0:0:
200,160,140402,1,0,0:0:0:0:
120,168,140515,1,0,0:0:0:0:
200,144,140627,1,8,0:0:0:0:
128,168,140683,1,8,0:0:0:0:
128,168,140739,1,8,0:0:0:0:
128,168,140796,1,8,0:0:0:0:
128,168,140852,1,8,0:0:0:0:
192,120,140964,1,0,0:0:0:0:
144,152,141076,1,0,0:0:0:0:
144,152,141189,1,0,0:0:0:0:
144,152,141301,1,8,0:0:0:0:
128,168,141357,1,8,0:0:0:0:
128,168,141413,1,8,0:0:0:0:
128,168,141470,1,8,0:0:0:0:
128,168,141526,1,8,0:0:0:0:
200,200,141638,1,0,0:0:0:0:
136,152,141751,1,8,0:0:0:0:
104,128,141807,1,8,0:0:0:0:
104,128,141863,1,8,0:0:0:0:
104,128,141976,1,0,0:0:0:0:
104,128,142088,1,8,0:0:0:0:
104,128,142144,1,8,0:0:0:0:
104,128,142200,1,8,0:0:0:0:
104,128,142313,1,0,0:0:0:0:
224,120,142425,1,0,0:0:0:0:
144,112,142537,1,0,0:0:0:0:
64,104,142650,1,8,0:0:0:0:
144,112,142762,1,0,0:0:0:0:
224,120,142874,1,0,0:0:0:0:
304,128,142987,1,8,0:0:0:0:
224,128,143099,1,8,0:0:0:0:
144,128,143212,1,8,0:0:0:0:
64,120,143324,1,0,0:0:0:0:
64,120,143436,1,0,0:0:0:0:
64,120,143549,1,0,0:0:0:0:
64,120,143661,1,8,0:0:0:0:
64,120,143998,1,0,0:0:0:0:
64,120,144335,1,0,0:0:0:0:
144,136,144448,1,0,0:0:0:0:
128,72,144560,1,0,0:0:0:0:
56,104,144672,1,8,0:0:0:0:
128,72,144785,1,0,0:0:0:0:
16,104,144897,1,0,0:0:0:0:
56,104,145009,1,8,0:0:0:0:
56,104,145122,1,0,0:0:0:0:
56,104,145234,1,0,0:0:0:0:
56,104,145346,1,8,0:0:0:0:
56,104,145459,1,0,0:0:0:0:
56,104,145571,1,0,0:0:0:0:
56,104,145683,1,8,0:0:0:0:
56,104,145796,1,0,0:0:0:0:
80,80,145908,1,0,0:0:0:0:
56,104,146021,1,0,0:0:0:0:
80,80,146133,1,0,0:0:0:0:
80,80,146245,1,0,0:0:0:0:
56,104,146358,1,8,0:0:0:0:
80,80,146470,1,0,0:0:0:0:
80,80,146582,1,0,0:0:0:0:
56,104,146695,1,8,0:0:0:0:
80,80,146807,1,0,0:0:0:0:
80,80,146919,1,0,0:0:0:0:
80,80,147032,1,8,0:0:0:0:
80,80,147144,1,0,0:0:0:0:
80,80,147257,1,0,0:0:0:0:
80,80,147369,1,0,0:0:0:0:
80,80,147481,1,0,0:0:0:0:
80,80,147594,1,0,0:0:0:0:
72,96,147706,5,8,0:0:0:0:
72,96,147818,1,8,0:0:0:0:
72,96,147931,1,0,0:0:0:0:
72,96,148043,1,8,0:0:0:0:
72,96,148155,1,8,0:0:0:0:
72,96,148268,1,8,0:0:0:0:
123,171,148380,5,0,0:0:0:0:
123,171,149728,1,0,0:0:0:0:
123,171,149841,1,0,0:0:0:0:
123,171,149953,1,0,0:0:0:0:
123,171,150065,1,8,0:0:0:0:
123,171,150403,1,0,0:0:0:0:
123,171,150740,1,8,0:0:0:0:
360,172,151077,1,0,0:0:0:0:
127,178,151414,1,8,0:0:0:0:
419,170,151751,1,0,0:0:0:0:
91,179,152088,1,8,0:0:0:0:
328,179,152425,1,0,0:0:0:0:
90,179,152762,1,8,0:0:0:0:
327,179,153099,1,0,0:0:0:0:
89,179,153436,1,8,0:0:0:0:
53,160,153773,1,0,0:0:0:0:
53,160,154110,1,8,0:0:0:0:
53,160,154223,1,8,0:0:0:0:
53,160,154335,1,0,0:0:0:0:
53,160,154448,1,0,0:0:0:0:
53,160,154560,1,0,0:0:0:0:
122,197,154672,1,0,0:0:0:0:
53,160,154785,1,8,0:0:0:0:
53,160,154897,1,8,0:0:0:0:
53,160,155009,1,0,0:0:0:0:
53,160,155122,1,8,0:0:0:0:
32,176,155459,1,4,0:0:0:0:
64,96,155796,1,0,0:0:0:0:
32,176,156133,1,8,0:0:0:0:
64,96,156470,1,0,0:0:0:0:
40,152,156807,1,8,0:0:0:0:
280,168,157144,1,0,0:0:0:0:
88,96,157481,1,8,0:0:0:0:
280,240,157818,1,0,0:0:0:0:
88,96,158155,1,8,0:0:0:0:
280,232,158492,1,0,0:0:0:0:
88,96,158830,1,8,0:0:0:0:
88,96,159167,1,0,0:0:0:0:
88,96,159504,5,8,0:0:0:0:
304,200,159841,1,0,0:0:0:0:
88,96,160178,1,8,0:0:0:0:
225,174,160515,5,0,0:0:0:0:
225,174,160627,1,0,0:0:0:0:
225,174,160740,1,0,0:0:0:0:
225,174,160852,5,8,0:0:0:0:
24,40,161189,1,0,0:0:0:0:
224,176,161526,1,8,0:0:0:0:
24,40,161863,1,0,0:0:0:0:
224,176,162200,1,8,0:0:0:0:
24,40,162537,1,0,0:0:0:0:
224,176,162874,1,8,0:0:0:0:
24,40,163212,1,0,0:0:0:0:
224,176,163549,1,8,0:0:0:0:
24,40,163886,1,0,0:0:0:0:
224,176,164223,1,8,0:0:0:0:
24,40,164560,1,0,0:0:0:0:
224,176,164897,5,8,0:0:0:0:
24,40,165234,1,0,0:0:0:0:
224,176,165571,1,8,0:0:0:0:
96,112,165908,5,0,0:0:0:0:
96,112,166021,1,0,0:0:0:0:
96,112,166133,1,0,0:0:0:0:
96,112,166245,1,0,0:0:0:0:
96,112,166358,1,0,0:0:0:0:
96,112,166470,1,0,0:0:0:0:
96,112,166582,1,8,0:0:0:0:
96,112,166695,1,0,0:0:0:0:
96,112,166807,1,0,0:0:0:0:
96,112,166919,1,0,0:0:0:0:
96,112,167032,1,0,0:0:0:0:
96,112,167144,1,0,0:0:0:0:
96,112,167257,1,8,0:0:0:0:
96,112,167369,1,0,0:0:0:0:
96,112,167481,1,0,0:0:0:0:
96,112,167594,1,0,0:0:0:0:
96,112,167706,1,0,0:0:0:0:
96,112,167818,1,0,0:0:0:0:
96,112,167931,1,8,0:0:0:0:
96,112,168043,1,0,0:0:0:0:
96,112,168155,1,0,0:0:0:0:
96,112,168268,1,0,0:0:0:0:
96,112,168380,1,0,0:0:0:0:
96,112,168492,1,0,0:0:0:0:
96,112,168605,1,8,0:0:0:0:
96,112,168717,1,0,0:0:0:0:
96,112,168830,1,0,0:0:0:0:
96,112,168942,1,0,0:0:0:0:
96,112,169054,1,0,0:0:0:0:
96,112,169167,1,0,0:0:0:0:
96,112,169279,1,8,0:0:0:0:
96,112,169391,1,0,0:0:0:0:
96,112,169504,1,0,0:0:0:0:
96,112,169616,1,0,0:0:0:0:
96,112,169728,1,0,0:0:0:0:
96,112,169841,1,0,0:0:0:0:
96,112,169953,1,8,0:0:0:0:
159,112,171301,5,0,0:0:0:0:
159,112,171414,1,0,0:0:0:0:
159,112,171526,1,0,0:0:0:0:
159,112,171639,1,0,0:0:0:0:
159,112,171751,1,0,0:0:0:0:
159,112,171863,1,0,0:0:0:0:
159,112,171976,1,0,0:0:0:0:
159,112,172088,1,0,0:0:0:0:
159,112,172200,1,0,0:0:0:0:
159,112,172313,1,0,0:0:0:0:
159,112,172425,1,0,0:0:0:0:
159,112,172537,1,0,0:0:0:0:
128,96,172650,1,12,0:0:0:0:
128,96,172987,1,4,0:0:0:0:
80,128,173324,1,0,0:0:0:0:
160,144,173661,1,8,0:0:0:0:
160,144,173774,1,8,0:0:0:0:
160,144,173886,1,0,0:0:0:0:
160,144,173998,1,8,0:0:0:0:
104,120,174335,1,0,0:0:0:0:
104,120,174560,1,0,0:0:0:0:
104,120,174673,1,8,0:0:0:0:
104,120,175009,1,8,0:0:0:0:
48,144,175347,1,0,0:0:0:0:
48,144,175459,1,0,0:0:0:0:
48,144,175571,1,0,0:0:0:0:
48,144,175684,1,8,0:0:0:0:
48,144,175796,1,0,0:0:0:0:
48,144,175909,1,0,0:0:0:0:
48,144,176021,1,0,0:0:0:0:
48,144,176133,1,0,0:0:0:0:
48,144,176246,1,0,0:0:0:0:
48,144,176358,1,8,0:0:0:0:
48,144,176470,1,0,0:0:0:0:
48,144,176583,1,0,0:0:0:0:
48,144,176695,1,0,0:0:0:0:
48,144,176807,1,0,0:0:0:0:
48,144,176920,1,0,0:0:0:0:
48,144,177032,1,8,0:0:0:0:
48,144,177144,1,0,0:0:0:0:
128,144,177257,1,0,0:0:0:0:
208,152,177369,1,0,0:0:0:0:
288,152,177482,1,0,0:0:0:0:
368,152,177594,1,0,0:0:0:0:
448,160,177706,1,8,0:0:0:0:
368,160,177819,1,0,0:0:0:0:
48,144,177931,1,0,0:0:0:0:
48,144,178043,1,12,0:0:0:0:
48,144,178380,1,4,0:0:0:0:
168,40,178718,1,0,0:0:0:0:
144,0,179055,1,0,0:0:0:0:
144,0,179167,1,0,0:0:0:0:
144,0,179279,1,0,0:0:0:0:
144,0,179392,1,8,0:0:0:0:
144,64,179729,1,0,0:0:0:0:
144,64,179953,1,0,0:0:0:0:
144,64,180066,1,8,0:0:0:0:
144,64,180403,1,0,0:0:0:0:
144,64,180740,1,8,0:0:0:0:
144,64,180852,1,0,0:0:0:0:
144,64,180965,1,0,0:0:0:0:
144,64,181077,1,0,0:0:0:0:
144,64,181189,1,0,0:0:0:0:
144,64,181302,1,0,0:0:0:0:
144,64,181414,1,8,0:0:0:0:
144,64,181527,1,0,0:0:0:0:
144,64,181639,1,0,0:0:0:0:
144,64,181751,1,0,0:0:0:0:
144,64,181864,1,0,0:0:0:0:
144,64,181976,1,0,0:0:0:0:
144,64,182088,1,8,0:0:0:0:
256,168,182201,1,8,0:0:0:0:
336,160,182313,1,0,0:0:0:0:
256,168,182425,1,8,0:0:0:0:
336,248,182538,1,0,0:0:0:0:
336,248,182650,1,0,0:0:0:0:
336,248,182762,1,8,0:0:0:0:
336,248,182875,1,8,0:0:0:0:
304,176,182987,1,8,0:0:0:0:
304,176,183100,1,0,0:0:0:0:
336,248,183212,1,0,0:0:0:0:
336,248,183324,1,0,0:0:0:0:
352,248,183437,1,12,0:0:0:0:
352,248,183774,1,4,0:0:0:0:
296,216,184111,1,0,0:0:0:0:
296,216,184448,1,8,0:0:0:0:
296,216,184560,1,8,0:0:0:0:
296,216,184673,1,0,0:0:0:0:
296,216,184785,1,8,0:0:0:0:
176,160,185122,1,0,0:0:0:0:
176,160,185347,1,0,0:0:0:0:
176,160,185459,1,8,0:0:0:0:
176,160,185796,1,8,0:0:0:0:
160,144,186133,1,0,0:0:0:0:
160,144,186246,1,0,0:0:0:0:
160,144,186358,1,0,0:0:0:0:
160,144,186470,1,8,0:0:0:0:
160,144,186807,1,0,0:0:0:0:
160,144,186920,1,0,0:0:0:0:
160,144,187032,1,0,0:0:0:0:
160,144,187144,1,8,0:0:0:0:
144,112,187482,1,0,0:0:0:0:
144,112,187594,1,0,0:0:0:0:
144,112,187706,1,0,0:0:0:0:
144,112,187819,1,8,0:0:0:0:
144,112,188156,1,0,0:0:0:0:
144,112,188268,1,0,0:0:0:0:
144,112,188380,1,0,0:0:0:0:
144,112,188493,1,8,0:0:0:0:
144,112,188830,1,4,0:0:0:0:
112,112,189167,1,8,0:0:0:0:
112,112,189279,1,0,0:0:0:0:
112,112,189392,1,0,0:0:0:0:
112,112,189504,1,0,0:0:0:0:
112,112,189616,1,0,0:0:0:0:
112,112,189729,1,0,0:0:0:0:
112,112,189841,1,8,0:0:0:0:
112,112,189953,1,0,0:0:0:0:
112,112,190066,1,0,0:0:0:0:
112,112,190178,1,0,0:0:0:0:
112,112,190291,1,0,0:0:0:0:
112,112,190403,1,0,0:0:0:0:
112,112,190515,1,8,0:0:0:0:
112,112,190628,1,0,0:0:0:0:
112,112,190740,1,0,0:0:0:0:
112,112,190852,1,0,0:0:0:0:
112,112,190965,1,0,0:0:0:0:
112,112,191077,1,0,0:0:0:0:
112,112,191189,1,8,0:0:0:0:
112,192,191302,1,0,0:0:0:0:
112,272,191414,1,0,0:0:0:0:
96,160,191527,1,8,0:0:0:0:
96,160,191639,1,0,0:0:0:0:
96,160,191751,1,8,0:0:0:0:
96,160,191864,1,8,0:0:0:0:
96,160,191976,1,0,0:0:0:0:
96,160,192088,1,0,0:0:0:0:
96,160,192201,1,8,0:0:0:0:
120,88,192313,1,0,0:0:0:0:
104,168,192425,1,8,0:0:0:0:
120,88,192538,1,8,0:0:0:0:
104,168,192650,1,0,0:0:0:0:
120,88,192762,1,0,0:0:0:0:
96,160,192875,1,8,0:0:0:0:
80,209,193212,1,4,0:0:0:0:
80,209,193549,1,4,0:0:0:0:
80,209,193886,1,4,0:0:0:0:
128,96,194223,1,12,0:0:0:0:
128,96,194560,1,4,0:0:0:0:
80,128,194897,1,0,0:0:0:0:
160,144,195234,1,8,0:0:0:0:
160,144,195347,1,8,0:0:0:0:
160,144,195459,1,0,0:0:0:0:
160,144,195571,1,8,0:0:0:0:
104,120,195908,1,0,0:0:0:0:
104,120,196133,1,0,0:0:0:0:
104,120,196246,1,8,0:0:0:0:
104,120,196583,1,8,0:0:0:0:
48,144,196920,1,0,0:0:0:0:
48,144,197032,1,0,0:0:0:0:
48,144,197144,1,0,0:0:0:0:
48,144,197257,1,8,0:0:0:0:
48,144,197369,1,0,0:0:0:0:
48,144,197482,1,0,0:0:0:0:
48,144,197594,1,0,0:0:0:0:
48,144,197706,1,0,0:0:0:0:
48,144,197819,1,0,0:0:0:0:
48,144,197931,1,8,0:0:0:0:
48,144,198043,1,0,0:0:0:0:
48,144,198156,1,0,0:0:0:0:
48,144,198268,1,0,0:0:0:0:
48,144,198380,1,0,0:0:0:0:
48,144,198493,1,0,0:0:0:0:
48,144,198605,1,8,0:0:0:0:
48,144,198717,1,0,0:0:0:0:
128,144,198830,1,0,0:0:0:0:
208,152,198942,1,0,0:0:0:0:
288,152,199055,1,0,0:0:0:0:
368,152,199167,1,0,0:0:0:0:
448,160,199279,1,8,0:0:0:0:
368,160,199392,1,0,0:0:0:0:
48,144,199504,1,0,0:0:0:0:
48,144,199616,1,12,0:0:0:0:
48,144,199953,1,4,0:0:0:0:
168,40,200291,1,0,0:0:0:0:
144,0,200628,1,0,0:0:0:0:
144,0,200740,1,0,0:0:0:0:
144,0,200852,1,0,0:0:0:0:
144,0,200965,1,8,0:0:0:0:
144,64,201302,1,0,0:0:0:0:
144,64,201526,1,0,0:0:0:0:
144,64,201639,1,8,0:0:0:0:
144,64,201976,1,0,0:0:0:0:
144,64,202313,1,8,0:0:0:0:
144,64,202425,1,0,0:0:0:0:
144,64,202538,1,0,0:0:0:0:
144,64,202650,1,0,0:0:0:0:
144,64,202762,1,0,0:0:0:0:
144,64,202875,1,0,0:0:0:0:
144,64,202987,1,8,0:0:0:0:
144,64,203100,1,0,0:0:0:0:
144,64,203212,1,0,0:0:0:0:
144,64,203324,1,0,0:0:0:0:
144,64,203437,1,0,0:0:0:0:
144,64,203549,1,0,0:0:0:0:
144,64,203661,1,8,0:0:0:0:
256,168,203774,1,8,0:0:0:0:
336,160,203886,1,0,0:0:0:0:
256,168,203998,1,8,0:0:0:0:
336,248,204111,1,0,0:0:0:0:
336,248,204223,1,0,0:0:0:0:
336,248,204335,1,8,0:0:0:0:
336,248,204448,1,8,0:0:0:0:
304,176,204560,1,8,0:0:0:0:
304,176,204673,1,0,0:0:0:0:
336,248,204785,1,0,0:0:0:0:
336,248,204897,1,0,0:0:0:0:
352,248,205010,1,12,0:0:0:0:
352,248,205347,1,4,0:0:0:0:
296,216,205684,1,0,0:0:0:0:
296,216,206021,1,8,0:0:0:0:
296,216,206133,1,8,0:0:0:0:
296,216,206246,1,0,0:0:0:0:
296,216,206358,1,8,0:0:0:0:
176,160,206695,1,0,0:0:0:0:
176,160,206920,1,0,0:0:0:0:
176,160,207032,1,8,0:0:0:0:
176,160,207369,1,8,0:0:0:0:
160,144,207706,1,0,0:0:0:0:
160,144,207819,1,0,0:0:0:0:
160,144,207931,1,0,0:0:0:0:
160,144,208043,1,8,0:0:0:0:
160,144,208380,1,0,0:0:0:0:
160,144,208493,1,0,0:0:0:0:
160,144,208605,1,0,0:0:0:0:
160,144,208717,1,8,0:0:0:0:
144,112,209055,1,0,0:0:0:0:
144,112,209167,1,0,0:0:0:0:
144,112,209279,1,0,0:0:0:0:
144,112,209392,1,8,0:0:0:0:
144,112,209729,1,0,0:0:0:0:
144,112,209841,1,0,0:0:0:0:
144,112,209953,1,0,0:0:0:0:
144,112,210066,1,8,0:0:0:0:
144,112,210403,1,4,0:0:0:0:
112,112,210740,1,8,0:0:0:0:
112,112,210852,1,0,0:0:0:0:
112,112,210965,1,0,0:0:0:0:
112,112,211077,1,0,0:0:0:0:
112,112,211189,1,0,0:0:0:0:
112,112,211302,1,0,0:0:0:0:
112,112,211414,1,8,0:0:0:0:
112,112,211526,1,0,0:0:0:0:
112,112,211639,1,0,0:0:0:0:
112,112,211751,1,0,0:0:0:0:
112,112,211864,1,0,0:0:0:0:
112,112,211976,1,0,0:0:0:0:
112,112,212088,1,8,0:0:0:0:
112,112,212201,1,0,0:0:0:0:
112,112,212313,1,0,0:0:0:0:
112,112,212425,1,0,0:0:0:0:
112,112,212538,1,0,0:0:0:0:
112,112,212650,1,0,0:0:0:0:
112,112,212762,1,8,0:0:0:0:
112,192,212875,1,0,0:0:0:0:
112,272,212987,1,0,0:0:0:0:
96,160,213100,1,8,0:0:0:0:
96,160,213212,1,0,0:0:0:0:
96,160,213324,1,8,0:0:0:0:
96,160,213437,1,8,0:0:0:0:
96,160,213549,1,0,0:0:0:0:
96,160,213661,1,0,0:0:0:0:
96,160,213774,1,8,0:0:0:0:
120,88,213886,1,0,0:0:0:0:
104,168,213998,1,8,0:0:0:0:
120,88,214111,1,8,0:0:0:0:
104,168,214223,1,0,0:0:0:0:
120,88,214335,1,0,0:0:0:0:
96,160,214448,1,8,0:0:0:0:
64,160,214785,1,4,0:0:0:0:
64,160,215122,1,12,0:0:0:0:
64,160,215459,1,12,0:0:0:0:
128,128,215796,1,0,0:0:0:0:
128,128,215908,1,0,0:0:0:0:
128,128,216021,1,0,0:0:0:0:
128,128,216133,1,8,0:0:0:0:
128,128,216245,1,0,0:0:0:0:
128,128,216358,1,0,0:0:0:0:
128,128,216470,1,8,0:0:0:0:
137,206,216582,1,0,0:0:0:0:
147,285,216695,1,0,0:0:0:0:
128,128,216807,1,8,0:0:0:0:
128,128,217144,1,0,0:0:0:0:
128,128,217256,1,0,0:0:0:0:
128,128,217369,1,0,0:0:0:0:
128,128,217481,1,8,0:0:0:0:
208,120,217594,1,0,0:0:0:0:
288,112,217706,1,0,0:0:0:0:
128,128,217818,1,8,0:0:0:0:
149,204,217931,1,0,0:0:0:0:
170,281,218043,1,0,0:0:0:0:
128,128,218155,1,8,0:0:0:0:
208,128,218492,1,0,0:0:0:0:
288,112,218605,1,0,0:0:0:0:
208,128,218717,1,0,0:0:0:0:
128,128,218830,1,8,0:0:0:0:
208,128,218942,1,0,0:0:0:0:
288,112,219054,1,0,0:0:0:0:
208,128,219167,1,0,0:0:0:0:
288,112,219279,1,0,0:0:0:0:
208,128,219391,1,0,0:0:0:0:
128,128,219504,1,8,0:0:0:0:
208,128,219616,1,0,0:0:0:0:
288,112,219728,1,0,0:0:0:0:
360,80,219841,1,8,0:0:0:0:
288,104,219953,1,0,0:0:0:0:
216,136,220065,1,0,0:0:0:0:
128,128,220178,1,8,0:0:0:0:
64,144,220290,1,0,0:0:0:0:
64,144,220403,1,0,0:0:0:0:
360,80,220515,1,8,0:0:0:0:
280,88,220627,1,8,0:0:0:0:
200,88,220740,1,8,0:0:0:0:
200,88,220852,1,8,0:0:0:0:
200,88,220964,1,8,0:0:0:0:
200,88,221077,1,8,0:0:0:0:
128,128,221189,1,0,0:0:0:0:
288,96,221301,1,0,0:0:0:0:
216,136,221414,1,0,0:0:0:0:
136,128,221526,1,8,0:0:0:0:
216,128,221639,1,0,0:0:0:0:
296,112,221751,1,0,0:0:0:0:
136,128,221863,1,8,0:0:0:0:
48,144,221976,1,0,0:0:0:0:
120,112,222088,1,0,0:0:0:0:
192,88,222200,1,8,0:0:0:0:
216,128,222537,1,0,0:0:0:0:
296,112,222650,1,0,0:0:0:0:
216,128,222762,1,0,0:0:0:0:
136,128,222874,1,8,0:0:0:0:
216,128,222987,1,0,0:0:0:0:
296,112,223099,1,0,0:0:0:0:
136,128,223212,1,8,0:0:0:0:
136,128,223324,1,0,0:0:0:0:
136,128,223436,1,0,0:0:0:0:
136,128,223549,1,8,0:0:0:0:
216,128,223886,1,0,0:0:0:0:
296,112,223998,1,0,0:0:0:0:
216,128,224110,1,0,0:0:0:0:
136,128,224223,1,8,0:0:0:0:
216,128,224335,1,0,0:0:0:0:
296,112,224447,1,0,0:0:0:0:
216,128,224560,1,0,0:0:0:0:
296,112,224672,1,0,0:0:0:0:
216,128,224785,1,0,0:0:0:0:
136,128,224897,1,8,0:0:0:0:
216,128,225009,1,0,0:0:0:0:
296,112,225122,1,0,0:0:0:0:
136,128,225234,1,8,0:0:0:0:
216,128,225346,1,0,0:0:0:0:
240,120,225459,1,0,0:0:0:0:
136,128,225571,1,8,0:0:0:0:
128,128,225683,1,0,0:0:0:0:
128,128,225796,1,0,0:0:0:0:
128,128,225908,1,8,0:0:0:0:
80,152,226021,1,8,0:0:0:0:
80,152,226133,1,8,0:0:0:0:
240,120,226245,1,0,0:0:0:0:
160,136,226358,1,0,0:0:0:0:
80,152,226470,1,0,0:0:0:0:
80,152,226582,1,12,0:0:0:0:
216,128,227930,1,8,0:0:0:0:
296,112,228043,1,0,0:0:0:0:
216,128,228155,1,0,0:0:0:0:
136,128,228267,1,8,0:0:0:0:
216,128,228380,1,0,0:0:0:0:
296,112,228492,1,0,0:0:0:0:
136,128,228605,1,8,0:0:0:0:
32,112,229279,1,12,0:0:0:0:
32,112,229616,1,4,0:0:0:0:
