osu file format v14

[General]
AudioFilename: audio.mp3
AudioLeadIn: 0
PreviewTime: 44776
Countdown: 0
SampleSet: Normal
StackLeniency: 0.3
Mode: 0
LetterboxInBreaks: 0
WidescreenStoryboard: 1

[Editor]
Bookmarks: 20401,37410
DistanceSpacing: 1.1
BeatDivisor: 2
GridSize: 16
TimelineZoom: 1

[Metadata]
Title:Chase
TitleUnicode:Chase
Artist:Batta feat. Taiga
ArtistUnicode:Batta feat. Taiga
Creator:Penguiness
Version:unfinished hitsound stuff
Source:ジョジョの奇妙な冒険 ダイヤモンドは砕けない
Tags:JoJo's Bizarre Adventure: Diamond Is Unbreakable
BeatmapID:2004924
BeatmapSetID:956848

[Difficulty]
HPDrainRate:10
CircleSize:2
OverallDifficulty:10
ApproachRate:10
SliderMultiplier:1.4
SliderTickRate:1

[Events]
//Background and Video events
0,0,"crazydia%20(1)-noscale.jpg",0,0
//Break Periods
//Storyboard Layer 0 (Background)
//Storyboard Layer 1 (Fail)
//Storyboard Layer 2 (Pass)
//Storyboard Layer 3 (Foreground)
//Storyboard Sound Samples

[TimingPoints]
3259,267.857142857143,4,1,1,100,1,0
3259,-83.3333333333333,4,1,1,70,0,0
20401,-90.9090909090909,4,1,1,65,0,0
37410,-100,4,1,1,60,0,0
43973,-83.3333333333333,4,1,1,80,0,0
46116,-83.3333333333333,4,1,1,75,0,1
61116,-100,4,1,1,70,0,0
69687,-90.9090909090909,4,1,1,70,0,0
86696,-100,4,1,1,60,0,0
93259,-83.3333333333333,4,1,1,80,0,0
97544,-83.3333333333333,4,1,1,75,0,1
127544,-100,4,1,1,70,0,0

[Colours]
Combo1 : 159,64,255
Combo2 : 255,128,0

[HitObjects]
378,314,3258,5,6,0:0:0:0:
256,365,3392,1,0,0:0:0:0:
133,314,3526,1,2,0:0:0:0:
82,191,3660,1,0,0:0:0:0:
133,69,3794,1,2,0:0:0:0:
256,18,3928,1,2,0:0:0:0:
378,69,4062,1,2,0:0:0:0:
429,192,4196,1,2,0:0:0:0:
378,314,4330,5,0,0:0:0:0:
256,365,4464,1,2,0:0:0:0:
133,314,4598,1,2,0:0:0:0:
82,191,4732,1,0,0:0:0:0:
133,69,4866,1,2,0:0:0:0:
256,18,5000,1,2,0:0:0:0:
378,69,5134,1,2,0:0:0:0:
429,192,5268,1,0,0:0:0:0:
378,314,5401,5,2,0:0:0:0:
256,365,5535,1,0,0:0:0:0:
133,314,5669,1,2,0:0:0:0:
82,191,5803,1,0,0:0:0:0:
133,69,5937,1,2,0:0:0:0:
256,18,6071,1,2,0:0:0:0:
378,69,6205,1,2,0:0:0:0:
429,192,6339,1,2,0:0:0:0:
378,314,6473,5,0,0:0:0:0:
256,365,6607,1,2,0:0:0:0:
133,314,6741,1,2,0:0:0:0:
82,191,6875,1,0,0:0:0:0:
133,69,7009,1,2,0:0:0:0:
256,18,7143,1,2,0:0:0:0:
378,69,7277,1,2,0:0:0:0:
429,192,7411,1,0,0:0:0:0:
378,314,7544,5,6,0:0:0:0:
256,365,7678,1,0,0:0:0:0:
133,314,7812,1,2,0:0:0:0:
82,191,7946,1,0,0:0:0:0:
133,69,8080,1,2,0:0:0:0:
256,18,8214,1,2,0:0:0:0:
378,69,8348,1,2,0:0:0:0:
429,192,8482,1,2,0:0:0:0:
378,314,8616,5,0,0:0:0:0:
256,365,8750,1,2,0:0:0:0:
133,314,8884,1,2,0:0:0:0:
82,191,9018,1,0,0:0:0:0:
133,69,9152,1,2,0:0:0:0:
256,18,9286,1,2,0:0:0:0:
378,69,9420,1,2,0:0:0:0:
429,192,9554,1,0,0:0:0:0:
378,314,9687,5,2,0:0:0:0:
256,365,9821,1,0,0:0:0:0:
133,314,9955,1,2,0:0:0:0:
82,191,10089,1,0,0:0:0:0:
133,69,10223,1,2,0:0:0:0:
256,18,10357,1,2,0:0:0:0:
378,69,10491,1,2,0:0:0:0:
429,192,10625,1,2,0:0:0:0:
378,314,10759,5,0,0:0:0:0:
256,365,10893,1,2,0:0:0:0:
133,314,11027,1,2,0:0:0:0:
82,191,11161,1,0,0:0:0:0:
133,69,11295,1,2,0:0:0:0:
256,18,11429,1,2,0:0:0:0:
378,69,11563,1,2,0:0:0:0:
429,192,11697,1,0,0:0:0:0:
378,314,11830,5,6,0:0:0:0:
256,365,11964,1,0,0:0:0:0:
133,314,12098,1,2,0:0:0:0:
82,191,12232,1,0,0:0:0:0:
133,69,12366,1,2,0:0:0:0:
256,18,12500,1,2,0:0:0:0:
378,69,12634,1,2,0:0:0:0:
429,192,12768,1,2,0:0:0:0:
378,314,12902,5,0,0:0:0:0:
256,365,13036,1,2,0:0:0:0:
133,314,13170,1,2,0:0:0:0:
82,191,13304,1,0,0:0:0:0:
133,69,13438,1,2,0:0:0:0:
256,18,13572,1,2,0:0:0:0:
378,69,13706,1,2,0:0:0:0:
429,192,13840,1,0,0:0:0:0:
378,314,13973,5,2,0:0:0:0:
256,365,14107,1,0,0:0:0:0:
133,314,14241,1,2,0:0:0:0:
82,191,14375,1,0,0:0:0:0:
133,69,14509,1,2,0:0:0:0:
256,18,14643,1,2,0:0:0:0:
378,69,14777,1,2,0:0:0:0:
429,192,14911,1,2,0:0:0:0:
378,314,15045,5,0,0:0:0:0:
256,365,15179,1,2,0:0:0:0:
133,314,15313,1,2,0:0:0:0:
82,191,15447,1,0,0:0:0:0:
133,69,15581,1,2,0:0:0:0:
256,18,15715,1,2,0:0:0:0:
378,69,15849,1,2,0:0:0:0:
429,192,15983,1,0,0:0:0:0:
378,314,16116,5,6,0:0:0:0:
256,365,16250,1,0,0:0:0:0:
133,314,16384,1,2,0:0:0:0:
82,191,16518,1,0,0:0:0:0:
133,69,16652,1,2,0:0:0:0:
256,18,16786,1,2,0:0:0:0:
378,69,16920,1,2,0:0:0:0:
429,192,17054,1,2,0:0:0:0:
378,314,17188,5,0,0:0:0:0:
256,365,17322,1,2,0:0:0:0:
133,314,17456,1,2,0:0:0:0:
82,191,17590,1,0,0:0:0:0:
133,69,17724,1,2,0:0:0:0:
256,18,17858,1,2,0:0:0:0:
378,69,17992,1,2,0:0:0:0:
429,192,18126,1,0,0:0:0:0:
378,314,18259,5,6,0:0:0:0:
256,365,18393,1,2,0:0:0:0:
133,314,18526,1,6,0:0:0:0:
82,191,18661,1,0,0:0:0:0:
133,69,18795,1,6,0:0:0:0:
256,18,18929,1,0,0:0:0:0:
378,69,19063,1,2,0:0:0:0:
429,192,19197,1,6,0:0:0:0:
378,314,19331,5,0,0:0:0:0:
256,365,19465,1,2,0:0:0:0:
133,314,19598,1,6,0:0:0:0:
82,191,19732,1,0,0:0:0:0:
133,69,19867,1,2,0:0:0:0:
256,18,20001,1,2,0:0:0:0:
378,69,20135,1,2,0:0:0:0:
429,192,20269,1,2,0:0:0:0:
378,314,20401,5,0,0:0:0:0:
256,365,20535,1,0,0:0:0:0:
133,314,20669,1,0,0:0:0:0:
82,191,20803,1,0,0:0:0:0:
133,69,20937,1,0,0:0:0:0:
256,18,21071,1,0,0:0:0:0:
378,69,21205,1,0,0:0:0:0:
429,192,21339,1,0,0:0:0:0:
378,314,21473,5,0,0:0:0:0:
256,365,21607,1,0,0:0:0:0:
133,314,21741,1,0,0:0:0:0:
82,191,21875,1,0,0:0:0:0:
133,69,22009,1,0,0:0:0:0:
256,18,22143,1,0,0:0:0:0:
378,69,22277,1,0,0:0:0:0:
429,192,22411,1,0,0:0:0:0:
378,314,22544,5,0,0:0:0:0:
256,365,22678,1,0,0:0:0:0:
133,314,22812,1,0,0:0:0:0:
82,191,22946,1,0,0:0:0:0:
133,69,23080,1,0,0:0:0:0:
256,18,23214,1,0,0:0:0:0:
378,69,23348,1,0,0:0:0:0:
429,192,23482,1,0,0:0:0:0:
378,314,23616,5,0,0:0:0:0:
256,365,23750,1,0,0:0:0:0:
133,314,23884,1,0,0:0:0:0:
82,191,24018,1,0,0:0:0:0:
133,69,24152,1,0,0:0:0:0:
256,18,24286,1,0,0:0:0:0:
378,69,24420,1,0,0:0:0:0:
429,192,24554,1,0,0:0:0:0:
378,314,24687,5,0,0:0:0:0:
256,365,24821,1,0,0:0:0:0:
133,314,24955,1,0,0:0:0:0:
82,191,25089,1,0,0:0:0:0:
133,69,25223,1,0,0:0:0:0:
256,18,25357,1,0,0:0:0:0:
378,69,25491,1,0,0:0:0:0:
429,192,25625,1,0,0:0:0:0:
378,314,25759,5,0,0:0:0:0:
256,365,25893,1,0,0:0:0:0:
133,314,26027,1,0,0:0:0:0:
82,191,26161,1,0,0:0:0:0:
133,69,26295,1,0,0:0:0:0:
256,18,26429,1,0,0:0:0:0:
378,69,26563,1,0,0:0:0:0:
429,192,26697,1,0,0:0:0:0:
378,314,26830,5,0,0:0:0:0:
256,365,26964,1,0,0:0:0:0:
133,314,27098,1,0,0:0:0:0:
82,191,27232,1,0,0:0:0:0:
133,69,27366,1,0,0:0:0:0:
256,18,27500,1,0,0:0:0:0:
378,69,27634,1,0,0:0:0:0:
429,192,27768,1,0,0:0:0:0:
378,314,27902,5,0,0:0:0:0:
256,365,28036,1,0,0:0:0:0:
133,314,28170,1,0,0:0:0:0:
82,191,28304,1,0,0:0:0:0:
133,69,28438,1,0,0:0:0:0:
256,18,28572,1,0,0:0:0:0:
378,69,28706,1,0,0:0:0:0:
429,192,28840,1,0,0:0:0:0:
378,314,28973,5,0,0:0:0:0:
256,365,29107,1,0,0:0:0:0:
133,314,29241,1,0,0:0:0:0:
82,191,29375,1,0,0:0:0:0:
133,69,29509,1,0,0:0:0:0:
256,18,29643,1,0,0:0:0:0:
378,69,29777,1,0,0:0:0:0:
429,192,29911,1,0,0:0:0:0:
378,314,30045,5,0,0:0:0:0:
256,365,30179,1,0,0:0:0:0:
133,314,30313,1,0,0:0:0:0:
82,191,30447,1,0,0:0:0:0:
133,69,30581,1,0,0:0:0:0:
256,18,30715,1,0,0:0:0:0:
378,69,30849,1,0,0:0:0:0:
429,192,30983,1,0,0:0:0:0:
378,314,31116,5,0,0:0:0:0:
256,365,31250,1,0,0:0:0:0:
133,314,31384,1,0,0:0:0:0:
82,191,31518,1,0,0:0:0:0:
133,69,31652,1,0,0:0:0:0:
256,18,31786,1,0,0:0:0:0:
378,69,31920,1,0,0:0:0:0:
429,192,32054,1,0,0:0:0:0:
378,314,32188,5,0,0:0:0:0:
256,365,32322,1,0,0:0:0:0:
133,314,32456,1,0,0:0:0:0:
82,191,32590,1,0,0:0:0:0:
133,69,32724,1,0,0:0:0:0:
256,18,32858,1,0,0:0:0:0:
378,69,32992,1,0,0:0:0:0:
429,192,33126,1,0,0:0:0:0:
378,314,33259,5,0,0:0:0:0:
256,365,33393,1,0,0:0:0:0:
133,314,33527,1,0,0:0:0:0:
82,191,33661,1,0,0:0:0:0:
133,69,33795,1,0,0:0:0:0:
256,18,33929,1,0,0:0:0:0:
378,69,34063,1,0,0:0:0:0:
429,192,34197,1,0,0:0:0:0:
378,314,34331,5,0,0:0:0:0:
256,365,34465,1,0,0:0:0:0:
133,314,34599,1,0,0:0:0:0:
82,191,34733,1,0,0:0:0:0:
133,69,34867,1,0,0:0:0:0:
256,18,35001,1,0,0:0:0:0:
378,69,35135,1,0,0:0:0:0:
429,192,35269,1,0,0:0:0:0:
378,314,35402,5,0,0:0:0:0:
256,365,35536,1,0,0:0:0:0:
133,314,35670,1,0,0:0:0:0:
82,191,35804,1,0,0:0:0:0:
133,69,35938,1,0,0:0:0:0:
256,18,36072,1,0,0:0:0:0:
378,69,36206,1,0,0:0:0:0:
429,192,36340,1,0,0:0:0:0:
378,314,36474,5,0,0:0:0:0:
256,365,36608,1,0,0:0:0:0:
133,314,36742,1,0,0:0:0:0:
82,191,36876,1,0,0:0:0:0:
133,69,37010,1,0,0:0:0:0:
256,18,37144,1,0,0:0:0:0:
378,69,37278,1,0,0:0:0:0:
429,192,37410,1,6,0:0:0:0:
378,314,37542,5,0,0:0:0:0:
256,365,37676,1,2,0:0:0:0:
133,314,37810,1,2,0:0:0:0:
82,191,37944,1,0,0:0:0:0:
133,69,38078,1,2,0:0:0:0:
256,18,38212,1,2,0:0:0:0:
378,69,38346,1,2,0:0:0:0:
429,192,38480,1,6,0:0:0:0:
378,314,38614,5,0,0:0:0:0:
256,365,38748,1,2,0:0:0:0:
133,314,38882,1,2,0:0:0:0:
82,191,39016,1,0,0:0:0:0:
133,69,39150,1,2,0:0:0:0:
256,18,39284,1,2,0:0:0:0:
378,69,39418,1,2,0:0:0:0:
429,192,39552,1,6,0:0:0:0:
378,314,39685,5,0,0:0:0:0:
256,365,39819,1,2,0:0:0:0:
133,314,39953,1,2,0:0:0:0:
82,191,40087,1,0,0:0:0:0:
133,69,40221,1,2,0:0:0:0:
256,18,40355,1,2,0:0:0:0:
378,69,40489,1,2,0:0:0:0:
429,192,40623,1,6,0:0:0:0:
378,314,40757,5,0,0:0:0:0:
256,365,40891,1,2,0:0:0:0:
133,314,41025,1,2,0:0:0:0:
82,191,41159,1,0,0:0:0:0:
133,69,41293,1,2,0:0:0:0:
256,18,41427,1,2,0:0:0:0:
378,69,41561,1,2,0:0:0:0:
429,192,41695,1,6,0:0:0:0:
378,314,41828,5,0,0:0:0:0:
256,365,41962,1,2,0:0:0:0:
133,314,42096,1,2,0:0:0:0:
82,191,42230,1,0,0:0:0:0:
133,69,42364,1,2,0:0:0:0:
256,18,42498,1,2,0:0:0:0:
378,69,42632,1,2,0:0:0:0:
429,192,42767,1,6,0:0:0:0:
378,314,42899,5,0,0:0:0:0:
256,365,43033,1,2,0:0:0:0:
133,314,43167,1,2,0:0:0:0:
82,191,43301,1,0,0:0:0:0:
133,69,43435,1,2,0:0:0:0:
256,18,43569,1,2,0:0:0:0:
378,69,43703,1,2,0:0:0:0:
429,192,43837,1,2,0:0:0:0:
378,314,43973,5,6,0:0:0:0:
256,365,44107,1,0,0:0:0:0:
133,314,44241,1,6,0:0:0:0:
82,191,44375,1,0,0:0:0:0:
133,69,44509,1,6,0:0:0:0:
256,18,44643,1,0,0:0:0:0:
378,69,44777,1,6,0:0:0:0:
429,192,44911,1,0,0:0:0:0:
378,314,45045,5,2,0:0:0:0:
256,365,45179,1,0,0:0:0:0:
133,314,45313,1,0,0:0:0:0:
82,191,45447,1,0,0:0:0:0:
133,69,45581,1,0,0:0:0:0:
256,18,45715,1,0,0:0:0:0:
378,69,45849,1,0,0:0:0:0:
429,192,45983,1,0,0:0:0:0:
378,314,46116,5,4,0:0:0:0:
256,365,46250,1,0,0:0:0:0:
133,314,46384,1,0,0:0:0:0:
82,191,46518,1,0,0:0:0:0:
133,69,46652,1,0,0:0:0:0:
256,18,46786,1,0,0:0:0:0:
378,69,46919,1,2,0:0:0:0:
429,192,47054,1,0,0:0:0:0:
378,314,47188,5,0,0:0:0:0:
256,365,47322,1,0,0:0:0:0:
133,314,47456,1,0,0:0:0:0:
82,191,47590,1,0,0:0:0:0:
133,69,47724,1,0,0:0:0:0:
256,18,47858,1,0,0:0:0:0:
378,69,47992,1,2,0:0:0:0:
429,192,48126,1,0,0:0:0:0:
378,314,48259,5,0,0:0:0:0:
256,365,48393,1,0,0:0:0:0:
133,314,48527,1,0,0:0:0:0:
82,191,48661,1,0,0:0:0:0:
133,69,48795,1,0,0:0:0:0:
256,18,48929,1,0,0:0:0:0:
378,69,49063,1,2,0:0:0:0:
429,192,49197,1,0,0:0:0:0:
378,314,49331,5,0,0:0:0:0:
256,365,49465,1,0,0:0:0:0:
133,314,49599,1,0,0:0:0:0:
82,191,49733,1,0,0:0:0:0:
133,69,49867,1,0,0:0:0:0:
256,18,50001,1,0,0:0:0:0:
378,69,50135,1,2,0:0:0:0:
429,192,50269,1,0,0:0:0:0:
378,314,50402,5,4,0:0:0:0:
256,365,50536,1,0,0:0:0:0:
133,314,50670,1,0,0:0:0:0:
82,191,50804,1,0,0:0:0:0:
133,69,50938,1,0,0:0:0:0:
256,18,51072,1,0,0:0:0:0:
378,69,51205,1,2,0:0:0:0:
429,192,51340,1,0,0:0:0:0:
378,314,51474,5,0,0:0:0:0:
256,365,51608,1,0,0:0:0:0:
133,314,51742,1,0,0:0:0:0:
82,191,51876,1,0,0:0:0:0:
133,69,52010,1,0,0:0:0:0:
256,18,52144,1,0,0:0:0:0:
378,69,52278,1,2,0:0:0:0:
429,192,52412,1,0,0:0:0:0:
378,314,52545,5,0,0:0:0:0:
256,365,52679,1,0,0:0:0:0:
133,314,52813,1,0,0:0:0:0:
82,191,52947,1,0,0:0:0:0:
133,69,53081,1,0,0:0:0:0:
256,18,53215,1,0,0:0:0:0:
378,69,53349,1,2,0:0:0:0:
429,192,53483,1,0,0:0:0:0:
378,314,53617,5,0,0:0:0:0:
256,365,53751,1,0,0:0:0:0:
133,314,53885,1,0,0:0:0:0:
82,191,54019,1,0,0:0:0:0:
133,69,54153,1,0,0:0:0:0:
256,18,54287,1,0,0:0:0:0:
378,69,54419,1,2,0:0:0:0:
429,192,54555,1,0,0:0:0:0:
378,314,54687,5,4,0:0:0:0:
256,365,54821,1,0,0:0:0:0:
133,314,54955,1,0,0:0:0:0:
82,191,55089,1,0,0:0:0:0:
133,69,55223,1,0,0:0:0:0:
256,18,55357,1,0,0:0:0:0:
378,69,55491,1,2,0:0:0:0:
429,192,55625,1,0,0:0:0:0:
378,314,55759,5,0,0:0:0:0:
256,365,55893,1,0,0:0:0:0:
133,314,56027,1,0,0:0:0:0:
82,191,56161,1,0,0:0:0:0:
133,69,56295,1,0,0:0:0:0:
256,18,56429,1,0,0:0:0:0:
378,69,56562,1,2,0:0:0:0:
429,192,56697,1,0,0:0:0:0:
378,314,56830,5,0,0:0:0:0:
256,365,56964,1,0,0:0:0:0:
133,314,57098,1,0,0:0:0:0:
82,191,57232,1,0,0:0:0:0:
133,69,57366,1,0,0:0:0:0:
256,18,57500,1,0,0:0:0:0:
378,69,57634,1,2,0:0:0:0:
429,192,57768,1,0,0:0:0:0:
378,314,57902,5,0,0:0:0:0:
256,365,58036,1,0,0:0:0:0:
133,314,58170,1,0,0:0:0:0:
82,191,58304,1,0,0:0:0:0:
133,69,58438,1,0,0:0:0:0:
256,18,58572,1,0,0:0:0:0:
378,69,58706,1,2,0:0:0:0:
429,192,58840,1,0,0:0:0:0:
378,314,58973,5,4,0:0:0:0:
256,365,59107,1,0,0:0:0:0:
133,314,59241,1,0,0:0:0:0:
82,191,59375,1,0,0:0:0:0:
133,69,59509,1,0,0:0:0:0:
256,18,59643,1,0,0:0:0:0:
378,69,59777,1,2,0:0:0:0:
429,192,59911,1,0,0:0:0:0:
378,314,60045,5,0,0:0:0:0:
256,365,60179,1,0,0:0:0:0:
133,314,60313,1,0,0:0:0:0:
82,191,60447,1,0,0:0:0:0:
133,69,60581,1,0,0:0:0:0:
256,18,60715,1,0,0:0:0:0:
378,69,60849,1,2,0:0:0:0:
429,192,60983,1,0,0:0:0:0:
378,314,61116,5,6,0:0:0:0:
256,365,61250,1,0,0:0:0:0:
133,314,61384,1,0,0:0:0:0:
82,191,61518,1,6,0:0:0:0:
133,69,61652,1,0,0:0:0:0:
256,18,61786,1,0,0:0:0:0:
378,69,61920,1,6,0:0:0:0:
429,192,62054,1,0,0:0:0:0:
378,314,62188,5,0,0:0:0:0:
256,365,62322,1,0,0:0:0:0:
133,314,62456,1,2,0:0:0:0:
82,191,62590,1,0,0:0:0:0:
133,69,62724,1,2,0:0:0:0:
256,18,62858,1,2,0:0:0:0:
378,69,62992,1,2,0:0:0:0:
429,192,63126,1,0,0:0:0:0:
378,314,63259,5,6,0:0:0:0:
256,365,63393,1,0,0:0:0:0:
133,314,63527,1,0,0:0:0:0:
82,191,63661,1,6,0:0:0:0:
133,69,63795,1,0,0:0:0:0:
256,18,63929,1,0,0:0:0:0:
378,69,64063,1,6,0:0:0:0:
429,192,64197,1,0,0:0:0:0:
378,314,64331,5,0,0:0:0:0:
256,365,64465,1,0,0:0:0:0:
133,314,64599,1,2,0:0:0:0:
82,191,64733,1,0,0:0:0:0:
133,69,64867,1,2,0:0:0:0:
256,18,65001,1,2,0:0:0:0:
378,69,65135,1,2,0:0:0:0:
429,192,65269,1,0,0:0:0:0:
378,314,65401,5,6,0:0:0:0:
256,365,65535,1,0,0:0:0:0:
133,314,65669,1,0,0:0:0:0:
82,191,65803,1,6,0:0:0:0:
133,69,65937,1,0,0:0:0:0:
256,18,66071,1,0,0:0:0:0:
378,69,66205,1,6,0:0:0:0:
429,192,66339,1,0,0:0:0:0:
378,314,66473,5,0,0:0:0:0:
256,365,66607,1,0,0:0:0:0:
133,314,66741,1,2,0:0:0:0:
82,191,66875,1,0,0:0:0:0:
133,69,67009,1,2,0:0:0:0:
256,18,67143,1,2,0:0:0:0:
378,69,67277,1,2,0:0:0:0:
429,192,67411,1,0,0:0:0:0:
378,314,67544,5,6,0:0:0:0:
256,365,67679,1,0,0:0:0:0:
133,314,67813,1,0,0:0:0:0:
82,191,67947,1,6,0:0:0:0:
133,69,68081,1,0,0:0:0:0:
256,18,68215,1,0,0:0:0:0:
378,69,68349,1,6,0:0:0:0:
429,192,68483,1,0,0:0:0:0:
378,314,69688,5,4,0:0:0:0:
256,365,69822,1,0,0:0:0:0:
133,314,69956,1,0,0:0:0:0:
82,191,70090,1,0,0:0:0:0:
133,69,70224,1,0,0:0:0:0:
256,18,70358,1,0,0:0:0:0:
378,69,70492,1,0,0:0:0:0:
429,192,70626,1,0,0:0:0:0:
378,314,70760,5,0,0:0:0:0:
256,365,70894,1,0,0:0:0:0:
133,314,71028,1,0,0:0:0:0:
82,191,71162,1,0,0:0:0:0:
133,69,71296,1,0,0:0:0:0:
256,18,71430,1,0,0:0:0:0:
378,69,71564,1,0,0:0:0:0:
429,192,71698,1,0,0:0:0:0:
378,314,71830,5,0,0:0:0:0:
256,365,71964,1,0,0:0:0:0:
133,314,72098,1,0,0:0:0:0:
82,191,72232,1,0,0:0:0:0:
133,69,72366,1,0,0:0:0:0:
256,18,72500,1,0,0:0:0:0:
378,69,72634,1,0,0:0:0:0:
429,192,72768,1,0,0:0:0:0:
378,314,72902,5,0,0:0:0:0:
256,365,73036,1,0,0:0:0:0:
133,314,73170,1,0,0:0:0:0:
82,191,73304,1,0,0:0:0:0:
133,69,73438,1,0,0:0:0:0:
256,18,73572,1,0,0:0:0:0:
378,69,73706,1,0,0:0:0:0:
429,192,73840,1,0,0:0:0:0:
378,314,73973,5,4,0:0:0:0:
256,365,74107,1,0,0:0:0:0:
133,314,74241,1,0,0:0:0:0:
82,191,74375,1,0,0:0:0:0:
133,69,74509,1,0,0:0:0:0:
256,18,74643,1,0,0:0:0:0:
378,69,74777,1,0,0:0:0:0:
429,192,74911,1,0,0:0:0:0:
378,314,75045,5,0,0:0:0:0:
256,365,75179,1,0,0:0:0:0:
133,314,75313,1,0,0:0:0:0:
82,191,75447,1,0,0:0:0:0:
133,69,75581,1,0,0:0:0:0:
256,18,75715,1,0,0:0:0:0:
378,69,75849,1,0,0:0:0:0:
429,192,75983,1,0,0:0:0:0:
378,314,76116,5,0,0:0:0:0:
256,365,76250,1,0,0:0:0:0:
133,314,76384,1,0,0:0:0:0:
82,191,76518,1,0,0:0:0:0:
133,69,76652,1,0,0:0:0:0:
256,18,76786,1,0,0:0:0:0:
378,69,76920,1,0,0:0:0:0:
429,192,77054,1,0,0:0:0:0:
378,314,77188,5,0,0:0:0:0:
256,365,77322,1,0,0:0:0:0:
133,314,77456,1,0,0:0:0:0:
82,191,77590,1,0,0:0:0:0:
133,69,77724,1,0,0:0:0:0:
256,18,77858,1,0,0:0:0:0:
378,69,77992,1,0,0:0:0:0:
429,192,78126,1,0,0:0:0:0:
378,314,78259,5,4,0:0:0:0:
256,365,78393,1,0,0:0:0:0:
133,314,78527,1,0,0:0:0:0:
82,191,78661,1,0,0:0:0:0:
133,69,78795,1,0,0:0:0:0:
256,18,78929,1,0,0:0:0:0:
378,69,79063,1,0,0:0:0:0:
429,192,79197,1,0,0:0:0:0:
378,314,79331,5,0,0:0:0:0:
256,365,79465,1,0,0:0:0:0:
133,314,79599,1,0,0:0:0:0:
82,191,79733,1,0,0:0:0:0:
133,69,79867,1,0,0:0:0:0:
256,18,80001,1,0,0:0:0:0:
378,69,80135,1,0,0:0:0:0:
429,192,80269,1,0,0:0:0:0:
378,314,80402,5,0,0:0:0:0:
256,365,80536,1,0,0:0:0:0:
133,314,80670,1,0,0:0:0:0:
82,191,80804,1,0,0:0:0:0:
133,69,80938,1,0,0:0:0:0:
256,18,81072,1,0,0:0:0:0:
378,69,81206,1,0,0:0:0:0:
429,192,81340,1,0,0:0:0:0:
378,314,81474,5,0,0:0:0:0:
256,365,81608,1,0,0:0:0:0:
133,314,81742,1,0,0:0:0:0:
82,191,81876,1,0,0:0:0:0:
133,69,82010,1,0,0:0:0:0:
256,18,82144,1,0,0:0:0:0:
378,69,82278,1,0,0:0:0:0:
429,192,82412,1,0,0:0:0:0:
378,314,82545,5,4,0:0:0:0:
256,365,82679,1,0,0:0:0:0:
133,314,82813,1,0,0:0:0:0:
82,191,82947,1,0,0:0:0:0:
133,69,83081,1,0,0:0:0:0:
256,18,83215,1,0,0:0:0:0:
378,69,83349,1,0,0:0:0:0:
429,192,83483,1,0,0:0:0:0:
378,314,83617,5,0,0:0:0:0:
256,365,83751,1,0,0:0:0:0:
133,314,83885,1,0,0:0:0:0:
82,191,84019,1,0,0:0:0:0:
133,69,84153,1,0,0:0:0:0:
256,18,84287,1,0,0:0:0:0:
378,69,84421,1,0,0:0:0:0:
429,192,84555,1,0,0:0:0:0:
378,314,84688,5,0,0:0:0:0:
256,365,84822,1,0,0:0:0:0:
133,314,84956,1,0,0:0:0:0:
82,191,85090,1,0,0:0:0:0:
133,69,85224,1,0,0:0:0:0:
256,18,85358,1,0,0:0:0:0:
378,69,85492,1,0,0:0:0:0:
429,192,85626,1,0,0:0:0:0:
378,314,85760,5,0,0:0:0:0:
256,365,85894,1,0,0:0:0:0:
133,314,86028,1,0,0:0:0:0:
82,191,86162,1,0,0:0:0:0:
133,69,86296,1,0,0:0:0:0:
256,18,86430,1,0,0:0:0:0:
378,69,86564,1,0,0:0:0:0:
429,192,86696,1,6,0:0:0:0:
378,314,86828,5,0,0:0:0:0:
256,365,86962,1,2,0:0:0:0:
133,314,87096,1,2,0:0:0:0:
82,191,87230,1,0,0:0:0:0:
133,69,87364,1,2,0:0:0:0:
256,18,87498,1,2,0:0:0:0:
378,69,87632,1,2,0:0:0:0:
429,192,87766,1,6,0:0:0:0:
378,314,87900,5,0,0:0:0:0:
256,365,88034,1,2,0:0:0:0:
133,314,88168,1,2,0:0:0:0:
82,191,88302,1,0,0:0:0:0:
133,69,88436,1,2,0:0:0:0:
256,18,88570,1,2,0:0:0:0:
378,69,88704,1,2,0:0:0:0:
429,192,88839,1,6,0:0:0:0:
378,314,88971,5,0,0:0:0:0:
256,365,89105,1,2,0:0:0:0:
133,314,89239,1,2,0:0:0:0:
82,191,89373,1,0,0:0:0:0:
133,69,89507,1,2,0:0:0:0:
256,18,89641,1,2,0:0:0:0:
378,69,89775,1,2,0:0:0:0:
429,192,89909,1,6,0:0:0:0:
378,314,90043,5,0,0:0:0:0:
256,365,90177,1,2,0:0:0:0:
133,314,90311,1,2,0:0:0:0:
82,191,90445,1,0,0:0:0:0:
133,69,90579,1,2,0:0:0:0:
256,18,90713,1,2,0:0:0:0:
378,69,90847,1,2,0:0:0:0:
429,192,90981,1,6,0:0:0:0:
378,314,91114,5,0,0:0:0:0:
256,365,91248,1,2,0:0:0:0:
133,314,91382,1,2,0:0:0:0:
82,191,91516,1,0,0:0:0:0:
133,69,91650,1,2,0:0:0:0:
256,18,91784,1,2,0:0:0:0:
378,69,91918,1,2,0:0:0:0:
429,192,92052,1,6,0:0:0:0:
378,314,92185,5,0,0:0:0:0:
256,365,92319,1,2,0:0:0:0:
133,314,92453,1,2,0:0:0:0:
82,191,92587,1,0,0:0:0:0:
133,69,92721,1,2,0:0:0:0:
256,18,92857,1,2,0:0:0:0:
378,69,92989,1,2,0:0:0:0:
429,192,93125,1,2,0:0:0:0:
378,314,93259,5,6,0:0:0:0:
256,365,93393,1,0,0:0:0:0:
133,314,93526,1,6,0:0:0:0:
82,191,93661,1,0,0:0:0:0:
133,69,93794,1,6,0:0:0:0:
256,18,93929,1,0,0:0:0:0:
378,69,94063,1,6,0:0:0:0:
429,192,94197,1,0,0:0:0:0:
378,314,94330,5,6,0:0:0:0:
256,365,94464,1,0,0:0:0:0:
133,314,94598,1,6,0:0:0:0:
82,191,94732,1,0,0:0:0:0:
133,69,94866,1,6,0:0:0:0:
256,18,95000,1,0,0:0:0:0:
378,69,95134,1,6,0:0:0:0:
429,192,95268,1,0,0:0:0:0:
378,314,95402,5,2,0:0:0:0:
256,365,95536,1,0,0:0:0:0:
133,314,95670,1,0,0:0:0:0:
82,191,95804,1,0,0:0:0:0:
133,69,95938,1,0,0:0:0:0:
256,18,96072,1,0,0:0:0:0:
378,69,96206,1,0,0:0:0:0:
429,192,96340,1,0,0:0:0:0:
378,314,96474,5,4,0:0:0:0:
256,365,96608,1,0,0:0:0:0:
133,314,96742,1,0,0:0:0:0:
82,191,96876,1,0,0:0:0:0:
133,69,97010,1,0,0:0:0:0:
256,18,97144,1,0,0:0:0:0:
378,69,97278,1,0,0:0:0:0:
429,192,97412,1,0,0:0:0:0:
378,314,97545,5,4,0:0:0:0:
256,365,97679,1,0,0:0:0:0:
133,314,97813,1,0,0:0:0:0:
82,191,97947,1,0,0:0:0:0:
133,69,98081,1,0,0:0:0:0:
256,18,98215,1,0,0:0:0:0:
378,69,98349,1,2,0:0:0:0:
429,192,98483,1,0,0:0:0:0:
378,314,98617,5,0,0:0:0:0:
256,365,98751,1,0,0:0:0:0:
133,314,98885,1,0,0:0:0:0:
82,191,99019,1,0,0:0:0:0:
133,69,99153,1,0,0:0:0:0:
256,18,99287,1,0,0:0:0:0:
378,69,99421,1,2,0:0:0:0:
429,192,99555,1,0,0:0:0:0:
378,314,99688,5,0,0:0:0:0:
256,365,99822,1,0,0:0:0:0:
133,314,99956,1,0,0:0:0:0:
82,191,100090,1,0,0:0:0:0:
133,69,100224,1,0,0:0:0:0:
256,18,100358,1,0,0:0:0:0:
378,69,100492,1,2,0:0:0:0:
429,192,100626,1,0,0:0:0:0:
378,314,100760,5,0,0:0:0:0:
256,365,100894,1,0,0:0:0:0:
133,314,101028,1,0,0:0:0:0:
82,191,101162,1,0,0:0:0:0:
133,69,101296,1,0,0:0:0:0:
256,18,101430,1,0,0:0:0:0:
378,69,101561,1,2,0:0:0:0:
429,192,101698,1,0,0:0:0:0:
378,314,101831,5,4,0:0:0:0:
256,365,101965,1,0,0:0:0:0:
133,314,102099,1,0,0:0:0:0:
82,191,102233,1,0,0:0:0:0:
133,69,102367,1,0,0:0:0:0:
256,18,102501,1,0,0:0:0:0:
378,69,102634,1,2,0:0:0:0:
429,192,102769,1,0,0:0:0:0:
378,314,102903,5,0,0:0:0:0:
256,365,103037,1,0,0:0:0:0:
133,314,103171,1,0,0:0:0:0:
82,191,103305,1,0,0:0:0:0:
133,69,103439,1,0,0:0:0:0:
256,18,103573,1,0,0:0:0:0:
378,69,103707,1,2,0:0:0:0:
429,192,103841,1,0,0:0:0:0:
378,314,103974,5,0,0:0:0:0:
256,365,104108,1,0,0:0:0:0:
133,314,104242,1,0,0:0:0:0:
82,191,104376,1,0,0:0:0:0:
133,69,104510,1,0,0:0:0:0:
256,18,104644,1,0,0:0:0:0:
378,69,104778,1,2,0:0:0:0:
429,192,104912,1,0,0:0:0:0:
378,314,105046,5,0,0:0:0:0:
256,365,105180,1,0,0:0:0:0:
133,314,105314,1,0,0:0:0:0:
82,191,105448,1,0,0:0:0:0:
133,69,105582,1,0,0:0:0:0:
256,18,105716,1,0,0:0:0:0:
378,69,105850,1,2,0:0:0:0:
429,192,105984,1,0,0:0:0:0:
378,314,106116,5,4,0:0:0:0:
256,365,106250,1,0,0:0:0:0:
133,314,106384,1,0,0:0:0:0:
82,191,106518,1,0,0:0:0:0:
133,69,106652,1,0,0:0:0:0:
256,18,106786,1,0,0:0:0:0:
378,69,106920,1,2,0:0:0:0:
429,192,107054,1,0,0:0:0:0:
378,314,107188,5,0,0:0:0:0:
256,365,107322,1,0,0:0:0:0:
133,314,107456,1,0,0:0:0:0:
82,191,107590,1,0,0:0:0:0:
133,69,107724,1,0,0:0:0:0:
256,18,107858,1,0,0:0:0:0:
378,69,107992,1,2,0:0:0:0:
429,192,108126,1,0,0:0:0:0:
378,314,108259,5,0,0:0:0:0:
256,365,108393,1,0,0:0:0:0:
133,314,108527,1,0,0:0:0:0:
82,191,108661,1,0,0:0:0:0:
133,69,108795,1,0,0:0:0:0:
256,18,108929,1,0,0:0:0:0:
378,69,109063,1,2,0:0:0:0:
429,192,109197,1,0,0:0:0:0:
378,314,109331,5,0,0:0:0:0:
256,365,109465,1,0,0:0:0:0:
133,314,109599,1,0,0:0:0:0:
82,191,109733,1,0,0:0:0:0:
133,69,109867,1,0,0:0:0:0:
256,18,110001,1,0,0:0:0:0:
378,69,110134,1,2,0:0:0:0:
429,192,110269,1,0,0:0:0:0:
378,314,110402,5,4,0:0:0:0:
256,365,110536,1,0,0:0:0:0:
133,314,110670,1,0,0:0:0:0:
82,191,110804,1,0,0:0:0:0:
133,69,110938,1,0,0:0:0:0:
256,18,111072,1,0,0:0:0:0:
378,69,111206,1,2,0:0:0:0:
429,192,111340,1,0,0:0:0:0:
378,314,111474,5,4,0:0:0:0:
256,365,111608,1,0,0:0:0:0:
133,314,111742,1,0,0:0:0:0:
82,191,111876,1,0,0:0:0:0:
133,69,112010,1,0,0:0:0:0:
256,18,112144,1,0,0:0:0:0:
378,69,112278,1,0,0:0:0:0:
429,192,112412,1,0,0:0:0:0:
378,314,112545,5,4,0:0:0:0:
256,365,112679,1,0,0:0:0:0:
133,314,112813,1,2,0:0:0:0:
82,191,112947,1,0,0:0:0:0:
133,69,113081,1,0,0:0:0:0:
256,18,113215,1,0,0:0:0:0:
378,69,113349,1,2,0:0:0:0:
429,192,113483,1,0,0:0:0:0:
378,314,113617,5,0,0:0:0:0:
256,365,113751,1,0,0:0:0:0:
133,314,113885,1,2,0:0:0:0:
82,191,114019,1,0,0:0:0:0:
133,69,114153,1,0,0:0:0:0:
256,18,114287,1,0,0:0:0:0:
378,69,114421,1,2,0:0:0:0:
429,192,114555,1,0,0:0:0:0:
378,314,114688,5,0,0:0:0:0:
256,365,114822,1,0,0:0:0:0:
133,314,114954,1,2,0:0:0:0:
82,191,115090,1,0,0:0:0:0:
133,69,115224,1,0,0:0:0:0:
256,18,115358,1,0,0:0:0:0:
378,69,115490,1,2,0:0:0:0:
429,192,115626,1,0,0:0:0:0:
378,314,115760,5,0,0:0:0:0:
256,365,115894,1,0,0:0:0:0:
133,314,116026,1,2,0:0:0:0:
82,191,116162,1,0,0:0:0:0:
133,69,116296,1,0,0:0:0:0:
256,18,116430,1,0,0:0:0:0:
378,69,116562,1,2,0:0:0:0:
429,192,116698,1,0,0:0:0:0:
378,314,116831,5,4,0:0:0:0:
256,365,116965,1,0,0:0:0:0:
133,314,117099,1,2,0:0:0:0:
82,191,117233,1,0,0:0:0:0:
133,69,117367,1,0,0:0:0:0:
256,18,117501,1,0,0:0:0:0:
378,69,117635,1,2,0:0:0:0:
429,192,117769,1,0,0:0:0:0:
378,314,117903,5,0,0:0:0:0:
256,365,118037,1,0,0:0:0:0:
133,314,118171,1,2,0:0:0:0:
82,191,118305,1,0,0:0:0:0:
133,69,118439,1,0,0:0:0:0:
256,18,118573,1,0,0:0:0:0:
378,69,118707,1,2,0:0:0:0:
429,192,118841,1,0,0:0:0:0:
378,314,118974,5,0,0:0:0:0:
256,365,119108,1,0,0:0:0:0:
133,314,119242,1,2,0:0:0:0:
82,191,119376,1,0,0:0:0:0:
133,69,119510,1,0,0:0:0:0:
256,18,119644,1,0,0:0:0:0:
378,69,119778,1,2,0:0:0:0:
429,192,119912,1,0,0:0:0:0:
378,314,120046,5,0,0:0:0:0:
256,365,120180,1,0,0:0:0:0:
133,314,120312,1,2,0:0:0:0:
82,191,120448,1,0,0:0:0:0:
133,69,120582,1,0,0:0:0:0:
256,18,120716,1,0,0:0:0:0:
378,69,120848,1,2,0:0:0:0:
429,192,120984,1,0,0:0:0:0:
378,314,121116,5,4,0:0:0:0:
256,365,121251,1,0,0:0:0:0:
133,314,121385,1,2,0:0:0:0:
82,191,121519,1,0,0:0:0:0:
133,69,121653,1,0,0:0:0:0:
256,18,121787,1,0,0:0:0:0:
378,69,121921,1,2,0:0:0:0:
429,192,122055,1,0,0:0:0:0:
378,314,122189,5,0,0:0:0:0:
256,365,122323,1,0,0:0:0:0:
133,314,122457,1,2,0:0:0:0:
82,191,122591,1,0,0:0:0:0:
133,69,122725,1,0,0:0:0:0:
256,18,122859,1,0,0:0:0:0:
378,69,122993,1,2,0:0:0:0:
429,192,123127,1,0,0:0:0:0:
378,314,123259,5,0,0:0:0:0:
256,365,123393,1,0,0:0:0:0:
133,314,123527,1,2,0:0:0:0:
82,191,123661,1,0,0:0:0:0:
133,69,123795,1,0,0:0:0:0:
256,18,123929,1,0,0:0:0:0:
378,69,124063,1,2,0:0:0:0:
429,192,124197,1,0,0:0:0:0:
378,314,124331,5,0,0:0:0:0:
256,365,124465,1,0,0:0:0:0:
133,314,124599,1,2,0:0:0:0:
82,191,124733,1,0,0:0:0:0:
133,69,124867,1,0,0:0:0:0:
256,18,125001,1,0,0:0:0:0:
378,69,125135,1,2,0:0:0:0:
429,192,125269,1,0,0:0:0:0:
378,314,125402,5,4,0:0:0:0:
256,365,125536,1,0,0:0:0:0:
133,314,125670,1,2,0:0:0:0:
82,191,125804,1,0,0:0:0:0:
133,69,125938,1,0,0:0:0:0:
256,18,126072,1,0,0:0:0:0:
378,69,126206,1,2,0:0:0:0:
429,192,126340,1,0,0:0:0:0:
378,314,126474,5,0,0:0:0:0:
256,365,126608,1,0,0:0:0:0:
133,314,126742,1,0,0:0:0:0:
82,191,126876,1,0,0:0:0:0:
133,69,127010,1,0,0:0:0:0:
256,18,127144,1,0,0:0:0:0:
378,69,127278,1,2,0:0:0:0:
429,192,127412,1,0,0:0:0:0:
378,314,127544,5,6,0:0:0:0:
256,365,127678,1,0,0:0:0:0:
133,314,127812,1,0,0:0:0:0:
82,191,127946,1,6,0:0:0:0:
133,69,128080,1,0,0:0:0:0:
256,18,128214,1,0,0:0:0:0:
378,69,128348,1,6,0:0:0:0:
429,192,128482,1,0,0:0:0:0:
378,314,128616,5,0,0:0:0:0:
256,365,128750,1,0,0:0:0:0:
133,314,128884,1,2,0:0:0:0:
82,191,129018,1,0,0:0:0:0:
133,69,129152,1,2,0:0:0:0:
256,18,129286,1,2,0:0:0:0:
378,69,129420,1,2,0:0:0:0:
429,192,129554,1,0,0:0:0:0:
378,314,129687,5,6,0:0:0:0:
256,365,129821,1,0,0:0:0:0:
133,314,129955,1,0,0:0:0:0:
82,191,130089,1,6,0:0:0:0:
133,69,130223,1,0,0:0:0:0:
256,18,130357,1,0,0:0:0:0:
378,69,130491,1,6,0:0:0:0:
429,192,130625,1,0,0:0:0:0:
378,314,130759,5,0,0:0:0:0:
256,365,130893,1,0,0:0:0:0:
133,314,131027,1,2,0:0:0:0:
82,191,131161,1,0,0:0:0:0:
133,69,131295,1,2,0:0:0:0:
256,18,131429,1,2,0:0:0:0:
378,69,131563,1,2,0:0:0:0:
429,192,131697,1,0,0:0:0:0:
378,314,131829,5,6,0:0:0:0:
256,365,131963,1,0,0:0:0:0:
133,314,132097,1,0,0:0:0:0:
82,191,132231,1,6,0:0:0:0:
133,69,132365,1,0,0:0:0:0:
256,18,132499,1,0,0:0:0:0:
378,69,132633,1,6,0:0:0:0:
429,192,132767,1,0,0:0:0:0:
378,314,132901,5,0,0:0:0:0:
256,365,133035,1,0,0:0:0:0:
133,314,133169,1,2,0:0:0:0:
82,191,133303,1,0,0:0:0:0:
133,69,133437,1,2,0:0:0:0:
256,18,133571,1,2,0:0:0:0:
378,69,133705,1,2,0:0:0:0:
429,192,133839,1,0,0:0:0:0:
378,314,133971,5,6,0:0:0:0:
256,365,134107,1,0,0:0:0:0:
133,314,134241,1,0,0:0:0:0:
82,191,134374,1,6,0:0:0:0:
133,69,134509,1,0,0:0:0:0:
256,18,134643,1,0,0:0:0:0:
378,69,134776,1,6,0:0:0:0:
429,192,134911,1,0,0:0:0:0:
378,314,135046,5,0,0:0:0:0:
256,365,135180,1,0,0:0:0:0:
133,314,135314,1,0,0:0:0:0:
82,191,135448,1,0,0:0:0:0:
133,69,135582,1,0,0:0:0:0:
256,18,135716,1,0,0:0:0:0:
378,69,135850,1,0,0:0:0:0:
429,192,135984,1,0,0:0:0:0:
378,314,136117,5,0,0:0:0:0:
256,365,136251,1,0,0:0:0:0:
133,314,136385,1,0,0:0:0:0:
82,191,136519,1,0,0:0:0:0:
133,69,136653,1,0,0:0:0:0:
256,18,136787,1,0,0:0:0:0:
378,69,136921,1,0,0:0:0:0:
429,192,137055,1,0,0:0:0:0:
378,314,137189,5,0,0:0:0:0:
256,365,137323,1,0,0:0:0:0:
133,314,137457,1,0,0:0:0:0:
82,191,137591,1,0,0:0:0:0:
133,69,137725,1,0,0:0:0:0:
256,18,137859,1,0,0:0:0:0:
378,69,137993,1,0,0:0:0:0:
429,192,138127,1,0,0:0:0:0:
378,314,138260,5,0,0:0:0:0:
256,365,138394,1,0,0:0:0:0:
