osu file format v14

[General]
AudioFilename: audio.mp3
AudioLeadIn: 0
PreviewTime: 44776
Countdown: 0
SampleSet: Normal
StackLeniency: 0.3
Mode: 0
LetterboxInBreaks: 0
WidescreenStoryboard: 1

[Editor]
DistanceSpacing: 1
BeatDivisor: 4
GridSize: 16
TimelineZoom: 1

[Metadata]
Title:Chase
TitleUnicode:Chase
Artist:Batta feat. Taiga
ArtistUnicode:Batta feat. Taiga
Creator:Penguiness
Version:Insane
Source:ジョジョの奇妙な冒険 ダイヤモンドは砕けない
Tags:JoJo's Bizarre Adventure: Diamond Is Unbreakable
BeatmapID:2004305
BeatmapSetID:956848

[Difficulty]
HPDrainRate:5
CircleSize:4
OverallDifficulty:7.5
ApproachRate:9
SliderMultiplier:1.4
SliderTickRate:1

[Events]
//Background and Video events
0,0,"crazydia%20(1)-noscale.jpg",0,0
//Break Periods
//Storyboard Layer 0 (Background)
//Storyboard Layer 1 (Fail)
//Storyboard Layer 2 (Pass)
//Storyboard Layer 3 (Foreground)
//Storyboard Sound Samples

[TimingPoints]
3259,267.857142857143,4,1,0,100,1,0
3259,-83.3333333333333,4,1,0,70,0,0
20401,-90.9090909090909,4,1,0,65,0,0
37410,-100,4,1,0,60,0,0
43973,-83.3333333333333,4,1,0,80,0,0
46116,-83.3333333333333,4,1,0,75,0,1
61116,-100,4,1,0,70,0,0
69687,-90.9090909090909,4,1,0,70,0,0
86696,-100,4,1,0,60,0,0
93259,-83.3333333333333,4,1,0,80,0,0
97544,-83.3333333333333,4,1,0,75,0,1
127544,-100,4,1,0,70,0,0

[Colours]
Combo1 : 159,64,255
Combo2 : 255,128,0

[HitObjects]
74,161,3258,6,0,P|123:137|195:156,1,105
203,182,3526,2,0,L|200:277,1,83.9999974365235
305,349,3794,2,0,L|307:265,1,83.9999974365235
391,234,4062,1,0,0:0:0:0:
290,164,4196,1,0,0:0:0:0:
456,139,4330,6,0,P|443:94|354:55,1,125.999996154785
335,82,4598,2,0,P|281:81|215:61,1,83.9999974365235
208,161,4866,1,0,0:0:0:0:
174,9,5000,1,0,0:0:0:0:
105,84,5134,2,0,L|101:180,1,83.9999974365235
224,330,5401,6,0,P|237:280|229:190,1,125.999996154785
208,161,5669,2,0,P|265:160|303:148,1,83.9999974365235
334,83,5937,1,0,0:0:0:0:
416,180,6071,1,0,0:0:0:0:
362,282,6205,2,0,L|454:280,1,83.9999974365235
494,137,6473,6,0,P|462:106|355:110,1,125.999996154785
334,83,6741,2,0,P|327:130|330:193,1,83.9999974365235
416,180,7009,1,0,0:0:0:0:
362,282,7142,1,0,0:0:0:0:
256,211,7276,2,0,L|265:310,1,83.9999974365235
113,370,7544,6,0,B|116:326|116:326|140:294|140:294|144:241,1,125.999996154785
116,208,7812,2,0,L|126:108,1,83.9999974365235
63,44,8080,1,0,0:0:0:0:
10,150,8214,1,0,0:0:0:0:
125,125,8348,2,0,P|186:106|237:116,1,83.9999974365235
368,183,8616,6,0,P|322:204|241:207,1,125.999996154785
197,198,8884,2,0,L|203:290,1,83.9999974365235
322,377,9151,2,0,L|316:293,1,83.9999974365235
401,254,9419,1,0,0:0:0:0:
464,363,9553,1,0,0:0:0:0:
487,222,9687,6,0,P|491:170|472:95,1,125.999996154785
489,50,9955,2,0,P|448:46|406:50,1,83.9999974365235
284,182,10223,2,0,P|325:186|367:182,1,83.9999974365235
326,89,10491,1,0,0:0:0:0:
401,254,10625,1,0,0:0:0:0:
487,222,10759,6,0,P|503:286|501:359,1,125.999996154785
464,363,11026,2,0,L|364:352,1,83.9999974365235
281,378,11294,1,0,0:0:0:0:
310,254,11428,1,0,0:0:0:0:
211,315,11562,2,0,L|111:326,1,83.9999974365235
13,237,11830,6,0,B|58:232|58:232|105:246|105:246|165:241,1,125.999996154785
185,229,12098,2,0,P|177:178|187:125,1,83.9999974365235
314,171,12366,2,0,P|317:212|309:253,1,83.9999974365235
377,345,12634,1,0,0:0:0:0:
472,313,12767,1,0,0:0:0:0:
427,221,12901,6,0,P|423:168|430:86,1,125.999996154785
444,46,13169,2,0,L|346:53,1,83.9999974365235
230,176,13437,2,0,L|313:170,1,83.9999974365235
252,77,13705,1,0,0:0:0:0:
146,134,13839,1,0,0:0:0:0:
147,16,13973,6,0,P|96:30|39:97,1,125.999996154785
67,127,14241,2,0,P|59:179|66:226,1,83.9999974365235
107,300,14509,1,0,0:0:0:0:
163,217,14642,1,0,0:0:0:0:
225,296,14776,1,0,0:0:0:0:
310,236,14910,1,0,0:0:0:0:
359,303,15044,6,0,P|355:235|374:153,1,125.999996154785
356,127,15312,2,0,P|406:138|455:135,1,83.9999974365235
507,63,15580,1,0,0:0:0:0:
471,214,15714,1,0,0:0:0:0:
382,44,15848,2,0,P|340:44|299:54,1,83.9999974365235
125,158,16116,6,0,B|168:165|168:165|207:148|207:148|250:154,1,125.999996154785
286,184,16384,2,0,P|293:225|289:277,1,83.9999974365235
224,343,16651,1,0,0:0:0:0:
150,260,16785,1,0,0:0:0:0:
286,184,16919,2,0,L|387:195,1,83.9999974365235
313,93,17187,6,0,P|260:93|191:155,1,125.999996154785
201,176,17455,2,0,P|130:175|99:162,1,83.9999974365235
29,221,17723,1,0,0:0:0:0:
117,86,17857,1,0,0:0:0:0:
150,260,17991,2,0,L|140:354,1,83.9999974365235
277,350,18259,6,0,P|291:305|282:217,1,125.999996154785
268,179,18526,2,0,L|358:182,1,83.9999974365235
453,311,18794,2,0,L|369:308,1,83.9999974365235
277,350,19062,1,0,0:0:0:0:
268,179,19196,6,0,P|322:180|368:72,1,167.999994873047
301,18,19598,2,0,L|210:26,1,83.9999974365235
152,103,19866,1,0,0:0:0:0:
268,179,20000,1,0,0:0:0:0:
142,185,20134,1,0,0:0:0:0:
211,292,20267,1,0,0:0:0:0:
279,353,20401,6,0,L|365:349,1,77.0000023498536
389,262,20669,2,0,L|312:265,1,77.0000023498536
268,179,20937,1,0,0:0:0:0:
343,116,21071,1,0,0:0:0:0:
413,175,21205,2,0,P|430:120|433:80,1,77.0000023498536
323,41,21473,6,0,P|329:78|342:115,1,77.0000023498536
268,179,21741,2,0,L|174:170,1,77.0000023498536
109,126,22009,2,0,P|138:167|119:282,1,154.000004699707
57,323,22410,1,0,0:0:0:0:
130,378,22544,6,0,L|224:373,1,77.0000023498536
207,262,22812,2,0,L|130:266,1,77.0000023498536
57,207,23080,1,0,0:0:0:0:
109,126,23214,1,0,0:0:0:0:
191,171,23348,2,0,L|267:166,1,77.0000023498536
316,246,23616,6,0,P|357:212|441:215,1,115.50000352478
449,240,23884,2,0,P|439:172|443:117,1,115.50000352478
480,101,24151,2,0,P|471:46|412:7,1,115.50000352478
380,21,24419,1,0,0:0:0:0:
333,100,24553,1,0,0:0:0:0:
257,46,24687,6,0,L|165:60,1,77.0000023498536
174,150,24955,2,0,L|250:138,1,77.0000023498536
324,193,25223,2,0,P|333:243|328:286,1,77.0000023498536
260,328,25491,1,0,0:0:0:0:
180,281,25625,1,0,0:0:0:0:
105,335,25759,6,0,P|93:277|96:158,1,154.000004699707
41,105,26160,1,0,0:0:0:0:
110,44,26294,2,0,P|155:36|203:44,1,77.0000023498536
249,154,26562,2,0,P|210:156|173:149,1,77.0000023498536
275,74,26830,6,0,P|316:107|313:211,1,154.000004699707
236,246,27232,1,0,0:0:0:0:
281,326,27366,2,0,L|385:320,1,77.0000023498536
395,197,27634,2,0,L|318:201,1,77.0000023498536
249,154,27901,6,0,P|240:106|244:62,1,77.0000023498536
341,42,28169,2,0,P|341:80|333:117,1,77.0000023498536
241,78,28437,2,0,L|133:65,1,77.0000023498536
79,107,28705,1,0,0:0:0:0:
114,192,28839,1,0,0:0:0:0:
51,259,28973,6,0,L|62:356,1,77.0000023498536
142,378,29241,1,0,0:0:0:0:
199,305,29375,2,0,P|255:295|361:307,1,154.000004699707
429,352,29776,2,0,L|435:268,1,77.0000023498536
359,142,30044,6,0,L|364:218,1,77.0000023498536
449,180,30312,1,0,0:0:0:0:
376,59,30446,2,0,P|329:63|274:157,1,154.000004699707
276,52,30848,2,0,P|217:45|182:51,1,77.0000023498536
97,141,31116,6,0,P|135:142|173:135,1,77.0000023498536
199,46,31384,1,0,0:0:0:0:
115,8,31517,2,0,P|62:18|17:111,1,154.000004699707
97,141,31919,2,0,L|87:231,1,77.0000023498536
6,262,32187,6,0,L|14:185,1,77.0000023498536
84,313,32455,1,0,0:0:0:0:
168,276,32589,1,0,0:0:0:0:
242,330,32723,2,0,P|254:283|253:232,1,77.0000023498536
154,200,32991,2,0,P|156:238|167:275,1,77.0000023498536
239,157,33259,6,0,P|195:168|79:157,1,154.000004699707
41,79,33660,1,0,0:0:0:0:
111,19,33794,2,0,L|197:13,1,77.0000023498536
262,69,34062,1,0,0:0:0:0:
239,157,34196,1,0,0:0:0:0:
299,226,34330,6,0,P|286:282|214:313,1,115.50000352478
203,342,34598,2,0,P|200:291|172:218,1,115.50000352478
142,204,34866,2,0,P|179:166|248:159,1,115.50000352478
272,123,35134,1,0,0:0:0:0:
358,154,35267,1,0,0:0:0:0:
432,99,35401,6,0,P|449:154|446:261,1,154.000004699707
369,299,35803,1,0,0:0:0:0:
305,231,35937,2,0,L|208:234,1,77.0000023498536
195,125,36205,2,0,L|271:122,1,77.0000023498536
348,63,36473,5,0,0:0:0:0:
432,99,36607,1,0,0:0:0:0:
358,154,36741,1,0,0:0:0:0:
427,284,36875,1,0,0:0:0:0:
427,284,36942,1,0,0:0:0:0:
427,284,37009,2,0,P|434:224|431:190,1,77.0000023498536
346,239,37276,1,0,0:0:0:0:
342,368,37410,6,0,P|225:351|185:350,1,140
120,367,37812,2,0,P|126:311|124:275,1,70
42,313,38080,1,0,0:0:0:0:
63,231,38214,1,0,0:0:0:0:
84,149,38348,1,0,0:0:0:0:
5,24,38482,6,0,P|65:21|124:82,1,140
185,128,38884,2,0,L|269:118,1,70
318,65,39151,1,0,0:0:0:0:
332,147,39285,1,0,0:0:0:0:
346,229,39419,1,0,0:0:0:0:
269,314,39553,6,0,P|313:313|429:331,1,140
478,372,39955,2,0,P|487:329|485:283,1,70
426,244,40223,1,0,0:0:0:0:
440,162,40357,1,0,0:0:0:0:
454,80,40491,1,0,0:0:0:0:
332,147,40625,6,0,P|332:96|248:31,1,140
209,95,41026,2,0,L|134:88,1,70
67,44,41294,1,0,0:0:0:0:
67,128,41428,1,0,0:0:0:0:
67,212,41562,1,0,0:0:0:0:
7,333,41696,6,0,P|72:322|168:326,1,140
206,263,42098,2,0,L|288:256,1,70
347,302,42366,1,0,0:0:0:0:
351,218,42500,1,0,0:0:0:0:
356,134,42634,1,0,0:0:0:0:
193,158,42767,6,0,P|209:119|315:83,1,140
356,134,43169,2,0,L|456:122,1,70
496,79,43437,1,0,0:0:0:0:
499,162,43571,1,0,0:0:0:0:
502,245,43705,1,0,0:0:0:0:
425,125,43839,1,0,0:0:0:0:
416,290,43973,6,0,L|327:284,1,83.9999974365235
272,128,44241,2,0,L|355:133,1,83.9999974365235
290,211,44509,2,0,L|201:205,1,83.9999974365235
146,49,44777,2,0,L|229:54,1,83.9999974365235
91,117,45044,5,0,0:0:0:0:
296,252,46116,6,0,P|286:206|320:106,1,125.999996154785
287,81,46384,2,0,L|394:91,1,83.9999974365235
463,204,46651,2,0,L|379:196,1,83.9999974365235
416,284,46919,1,0,0:0:0:0:
448,121,47053,1,0,0:0:0:0:
379,196,47187,6,0,P|329:186|280:196,1,83.9999974365235
273,347,47455,2,0,P|314:351|355:341,1,83.9999974365235
195,264,47723,2,0,L|188:358,1,83.9999974365235
68,264,47991,2,0,L|74:180,1,83.9999974365235
1,95,48259,6,0,P|62:79|154:94,1,125.999996154785
162,51,48526,2,0,L|252:59,1,83.9999974365235
282,152,48794,1,0,0:0:0:0:
339,18,48928,1,0,0:0:0:0:
421,99,49062,2,0,P|427:145|419:199,1,83.9999974365235
279,235,49330,2,0,P|275:193|281:151,1,83.9999974365235
444,271,49598,6,0,L|351:280,1,83.9999974365235
197,159,49866,2,0,L|280:150,1,83.9999974365235
367,155,50134,1,0,0:0:0:0:
245,58,50267,1,0,0:0:0:0:
279,235,50401,6,0,P|331:233|417:294,1,125.999996154785
444,271,50669,2,0,P|449:327|434:381,1,83.9999974365235
278,318,50937,2,0,P|272:276|278:234,1,83.9999974365235
367,155,51205,1,0,0:0:0:0:
461,190,51339,1,0,0:0:0:0:
394,66,51473,6,0,L|308:76,1,83.9999974365235
175,164,51741,2,0,L|258:154,1,83.9999974365235
88,183,52009,2,0,P|92:142|108:103,1,83.9999974365235
278,234,52276,2,0,P|273:192|258:153,1,83.9999974365235
223,305,52544,6,0,P|270:280|360:316,1,125.999996154785
382,321,52812,2,0,L|391:233,1,83.9999974365235
493,283,53080,2,0,L|484:366,1,83.9999974365235
390,237,53348,1,0,0:0:0:0:
474,191,53482,1,0,0:0:0:0:
435,105,53616,6,0,P|377:122|286:108,1,125.999996154785
266,94,53884,2,0,P|269:155|261:205,1,83.9999974365235
119,234,54151,2,0,P|116:192|119:150,1,83.9999974365235
220,265,54419,2,0,L|315:260,1,83.9999974365235
420,324,54687,6,0,B|414:284|414:284|424:237|424:237|417:178,1,125.999996154785
414,153,54955,2,0,L|330:157,1,83.9999974365235
266,94,55223,1,0,0:0:0:0:
177,150,55357,1,0,0:0:0:0:
242,282,55491,2,0,P|252:232|246:174,1,83.9999974365235
86,232,55759,6,0,P|85:273|94:314,1,83.9999974365235
179,350,56026,1,0,0:0:0:0:
242,282,56160,1,0,0:0:0:0:
324,364,56294,2,0,L|420:354,1,83.9999974365235
445,234,56562,2,0,L|361:242,1,83.9999974365235
257,169,56830,6,0,P|324:150|350:66,1,125.999996154785
368,57,57098,2,0,P|313:62|260:51,1,83.9999974365235
199,2,57366,1,0,0:0:0:0:
145,87,57500,1,0,0:0:0:0:
58,35,57634,2,0,L|49:135,1,83.9999974365235
160,262,57901,6,0,L|167:178,1,83.9999974365235
80,212,58169,1,0,0:0:0:0:
166,178,58303,1,0,0:0:0:0:
226,328,58437,2,0,P|176:347|132:347,1,83.9999974365235
166,178,58705,2,0,P|207:182|246:198,1,83.9999974365235
452,372,58973,6,0,L|454:287,1,83.9999974365235
335,168,59241,2,0,L|333:251,1,83.9999974365235
366,347,59509,1,0,0:0:0:0:
453,288,59642,1,0,0:0:0:0:
412,197,59776,2,0,P|367:173|307:170,1,83.9999974365235
177,109,60044,6,0,L|267:98,1,83.9999974365235
282,255,60312,2,0,L|198:265,1,83.9999974365235
120,214,60580,1,0,0:0:0:0:
107,353,60714,1,0,0:0:0:0:
198,264,60848,1,0,0:0:0:0:
120,214,60982,1,0,0:0:0:0:
177,109,61116,6,0,B|121:90|65:108|65:108|48:65|79:-3,2,210
65,108,62723,5,0,0:0:0:0:
64,287,62857,1,0,0:0:0:0:
178,163,62991,1,0,0:0:0:0:
346,292,63259,6,0,B|275:265|206:306|206:306|218:338|270:358,2,210
346,292,64866,5,0,0:0:0:0:
344,267,64932,1,0,0:0:0:0:
343,243,64999,1,0,0:0:0:0:
342,218,65066,1,0,0:0:0:0:
341,194,65133,1,0,0:0:0:0:
176,131,65401,6,0,P|191:86|237:171,2,210
47,230,66741,6,0,P|92:237|184:214,2,140
4,157,67410,1,0,0:0:0:0:
176,131,67544,6,0,P|222:141|226:290,2,210
398,40,69687,6,0,P|396:100|406:177,1,115.50000352478
440,181,69955,2,0,P|447:230|443:281,1,77.0000023498536
301,206,70223,2,0,P|300:167|307:129,1,77.0000023498536
241,63,70491,2,0,L|151:67,1,77.0000023498536
51,154,70759,6,0,P|98:149|190:169,1,115.50000352478
208,144,71026,2,0,P|211:188|206:239,1,77.0000023498536
133,260,71294,1,0,0:0:0:0:
50,230,71428,2,0,P|47:191|50:153,1,77.0000023498536
115,97,71696,1,0,0:0:0:0:
198,83,71830,6,0,P|243:130|325:137,1,115.50000352478
330,127,72098,2,0,L|338:234,1,77.0000023498536
243,294,72366,2,0,L|237:217,1,77.0000023498536
334,325,72634,1,0,0:0:0:0:
404,278,72767,1,0,0:0:0:0:
468,332,72901,6,0,P|480:269|471:201,1,115.50000352478
438,196,73169,2,0,P|429:151|433:108,1,77.0000023498536
461,40,73437,2,0,L|378:44,1,77.0000023498536
274,163,73705,2,0,L|350:159,1,77.0000023498536
227,94,73973,6,0,P|196:136|210:220,1,115.50000352478
202,239,74241,2,0,P|148:230|117:232,1,77.0000023498536
201,353,74509,2,0,P|239:352|277:344,1,77.0000023498536
355,311,74776,1,0,0:0:0:0:
318,234,74910,2,0,P|322:179|306:79,1,154.000004699707
237,31,75312,6,0,L|148:38,1,77.0000023498536
166,145,75580,2,0,L|242:138,1,77.0000023498536
318,234,75848,1,0,0:0:0:0:
378,126,75982,1,0,0:0:0:0:
444,272,76116,6,0,P|415:230|322:222,1,115.50000352478
318,234,76384,2,0,L|327:319,1,77.0000023498536
452,348,76651,2,0,L|443:271,1,77.0000023498536
492,201,76919,1,0,0:0:0:0:
439,134,77053,1,0,0:0:0:0:
494,70,77187,6,0,P|452:52|361:92,1,115.50000352478
345,81,77455,2,0,P|344:20|337:-16,1,77.0000023498536
220,68,77723,2,0,P|215:106|216:144,1,77.0000023498536
276,204,77991,1,0,0:0:0:0:
353,169,78125,1,0,0:0:0:0:
454,241,78259,6,0,P|471:285|426:370,1,115.50000352478
411,335,78526,2,0,P|366:327|321:330,1,77.0000023498536
260,370,78794,1,0,0:0:0:0:
214,298,78928,1,0,0:0:0:0:
105,384,79062,2,0,L|99:301,1,77.0000023498536
171,215,79330,6,0,P|122:224|49:223,1,115.50000352478
17,243,79598,2,0,P|7:186|4:143,1,77.0000023498536
150,68,79866,2,0,P|145:106|138:144,1,77.0000023498536
61,105,80134,1,0,0:0:0:0:
87,0,80267,1,0,0:0:0:0:
231,21,80401,6,0,P|271:25|323:105,1,115.50000352478
287,105,80669,2,0,L|281:202,1,77.0000023498536
402,160,80937,2,0,L|406:83,1,77.0000023498536
459,223,81205,2,0,P|415:240|364:239,1,77.0000023498536
201,210,81473,6,0,P|250:216|296:283,1,115.50000352478
304,304,81741,2,0,L|210:307,1,77.0000023498536
124,212,82009,2,0,L|200:209,1,77.0000023498536
58,261,82276,2,0,P|46:216|51:171,1,77.0000023498536
193,132,82544,6,0,L|201:217,1,77.0000023498536
200,208,82745,1,0,0:0:0:0:
200,208,82812,1,0,0:0:0:0:
153,278,82946,1,0,0:0:0:0:
304,304,83080,2,0,L|399:298,1,77.0000023498536
368,184,83348,2,0,L|291:188,1,77.0000023498536
440,226,83616,6,0,P|446:177|437:127,1,77.0000023498536
288,112,83884,2,0,P|285:150|291:188,1,77.0000023498536
378,72,84151,1,0,0:0:0:0:
291,11,84285,1,0,0:0:0:0:
214,93,84419,2,0,P|258:110|312:108,1,77.0000023498536
145,32,84687,6,0,L|136:119,1,77.0000023498536
6,181,84955,2,0,L|13:104,1,77.0000023498536
214,93,85223,2,0,L|205:180,1,77.0000023498536
75,242,85491,2,0,L|82:165,1,77.0000023498536
144,310,85759,6,0,P|98:333|44:334,1,77.0000023498536
73,336,85959,1,0,0:0:0:0:
73,336,86026,1,0,0:0:0:0:
81,165,86160,2,0,P|118:172|151:191,1,77.0000023498536
217,257,86428,1,0,0:0:0:0:
214,93,86562,1,0,0:0:0:0:
284,201,86696,6,0,P|343:190|434:197,1,140
504,214,87098,2,0,P|499:155|502:117,1,70
460,69,87366,5,0,0:0:0:0:
378,87,87500,1,0,0:0:0:0:
296,105,87634,1,0,0:0:0:0:
422,194,87767,6,0,P|391:227|392:333,1,140
337,247,88169,2,0,L|249:253,1,70
201,305,88437,1,0,0:0:0:0:
187,222,88571,1,0,0:0:0:0:
173,139,88705,1,0,0:0:0:0:
106,301,88839,6,0,P|117:259|41:188,1,140
24,113,89241,2,0,P|76:112|123:101,1,70
159,56,89509,1,0,0:0:0:0:
173,139,89643,1,0,0:0:0:0:
187,222,89777,1,0,0:0:0:0:
303,106,89910,6,0,P|299:160|308:262,1,140
279,326,90312,2,0,L|359:318,1,70
423,358,90580,1,0,0:0:0:0:
420,274,90714,1,0,0:0:0:0:
417,190,90848,1,0,0:0:0:0:
503,61,90982,6,0,P|434:70|353:65,1,140
286,31,91384,2,0,P|286:77|279:119,1,70
317,177,91651,1,0,0:0:0:0:
233,169,91785,1,0,0:0:0:0:
149,161,91919,1,0,0:0:0:0:
6,308,92053,6,0,P|75:317|156:312,1,140
203,252,92455,2,0,P|246:245|286:247,1,70
352,254,92723,1,0,0:0:0:0:
317,177,92857,1,0,0:0:0:0:
282,100,92991,1,0,0:0:0:0:
203,252,93125,1,0,0:0:0:0:
56,113,93259,6,0,L|154:107,1,83.9999974365235
203,252,93526,2,0,L|119:257,1,83.9999974365235
70,40,93794,2,0,L|168:34,1,83.9999974365235
217,179,94061,2,0,L|133:184,1,83.9999974365235
299,140,94330,6,0,L|293:235,1,83.9999974365235
113,340,94598,2,0,L|118:256,1,83.9999974365235
222,95,94866,2,0,L|216:190,1,83.9999974365235
36,295,95134,2,0,L|41:211,1,83.9999974365235
140,108,95401,6,0,P|185:95|237:97,1,83.9999974365235
380,153,95669,2,0,P|338:151|298:139,1,83.9999974365235
375,50,95937,1,0,0:0:0:0:
472,102,96071,1,0,0:0:0:0:
379,152,96205,2,0,L|375:236,1,83.9999974365235
447,293,96473,5,0,0:0:0:0:
477,80,97544,6,0,B|431:71|431:71|385:87|385:87|336:78,1,125.999996154785
308,74,97812,2,0,L|314:170,1,83.9999974365235
201,231,98080,2,0,L|195:147,1,83.9999974365235
221,48,98348,1,0,0:0:0:0:
314,158,98482,1,0,0:0:0:0:
201,231,98616,6,0,P|151:211|102:211,1,83.9999974365235
128,376,98884,2,0,P|169:371|207:353,1,83.9999974365235
276,291,99151,1,0,0:0:0:0:
363,356,99285,1,0,0:0:0:0:
449,234,99419,2,0,L|445:144,1,83.9999974365235
394,35,99687,6,0,P|337:53|307:132,1,125.999996154785
314,158,99955,2,0,P|255:142|204:136,1,83.9999974365235
284,310,100223,2,0,P|325:302|365:290,1,83.9999974365235
193,222,100491,6,0,L|200:309,1,83.9999974365235
58,255,100759,2,0,L|51:171,1,83.9999974365235
199,305,101026,1,0,0:0:0:0:
105,341,101160,1,0,0:0:0:0:
149,148,101294,6,0,L|253:135,1,83.9999974365235
364,235,101562,2,0,L|280:245,1,83.9999974365235
432,295,101830,6,0,P|450:255|417:167,1,125.999996154785
391,144,102098,2,0,L|394:48,1,83.9999974365235
283,161,102366,2,0,L|280:244,1,83.9999974365235
212,320,102634,1,0,0:0:0:0:
178,195,102767,1,0,0:0:0:0:
47,321,102901,6,0,P|36:271|40:215,1,83.9999974365235
190,113,103169,2,0,P|189:154|179:195,1,83.9999974365235
9,141,103437,2,0,L|96:143,1,83.9999974365235
236,24,103705,2,0,L|152:22,1,83.9999974365235
282,141,103973,6,0,P|341:116|430:111,1,125.999996154785
447,84,104241,2,0,L|455:180,1,83.9999974365235
357,289,104509,2,0,L|350:205,1,83.9999974365235
351,112,104776,1,0,0:0:0:0:
442,253,104910,1,0,0:0:0:0:
312,367,105044,6,0,P|366:374|408:370,1,83.9999974365235
264,259,105312,2,0,P|222:257|180:264,1,83.9999974365235
115,342,105580,1,0,0:0:0:0:
84,245,105714,1,0,0:0:0:0:
271,175,105848,2,0,L|263:262,1,83.9999974365235
127,159,106116,6,0,P|127:110|188:40,1,125.999996154785
213,77,106384,2,0,P|254:49|293:41,1,83.9999974365235
344,210,106651,2,0,P|303:199|270:174,1,83.9999974365235
424,160,106919,2,0,L|430:265,1,83.9999974365235
290,347,107187,6,0,P|287:294|258:212,1,125.999996154785
270,174,107455,2,0,P|225:162|184:164,1,83.9999974365235
124,317,107723,2,0,P|165:317|206:306,1,83.9999974365235
136,231,107991,1,0,0:0:0:0:
44,356,108125,1,0,0:0:0:0:
55,198,108259,6,0,P|66:144|58:69,1,125.999996154785
38,27,108526,2,0,L|124:21,1,83.9999974365235
240,122,108794,2,0,L|156:127,1,83.9999974365235
55,198,109062,1,0,0:0:0:0:
136,231,109196,1,0,0:0:0:0:
19,314,109330,6,0,P|70:328|117:320,1,83.9999974365235
217,219,109598,2,0,P|175:217|135:230,1,83.9999974365235
261,325,109866,2,0,L|358:317,1,83.9999974365235
374,178,110134,2,0,L|290:184,1,83.9999974365235
444,233,110401,6,0,P|457:178|455:135,1,83.9999974365235
277,101,110669,2,0,P|278:142|289:183,1,83.9999974365235
363,47,110937,1,0,0:0:0:0:
273,0,111071,1,0,0:0:0:0:
189,57,111205,2,0,L|106:50,1,83.9999974365235
122,194,111473,6,0,L|205:201,1,83.9999974365235
52,131,111741,1,0,0:0:0:0:
97,298,111875,1,0,0:0:0:0:
192,283,112009,2,0,P|204:238|202:174,1,83.9999974365235
10,275,112276,2,0,P|12:316|23:357,1,83.9999974365235
258,353,112544,6,0,L|355:345,1,83.9999974365235
402,171,112812,2,0,L|318:177,1,83.9999974365235
192,283,113080,2,0,L|289:275,1,83.9999974365235
336,101,113348,2,0,L|252:107,1,83.9999974365235
107,213,113616,6,0,P|95:168|92:111,1,83.9999974365235
252,107,113884,2,0,P|247:148|236:189,1,83.9999974365235
168,43,114151,1,0,0:0:0:0:
265,15,114285,1,0,0:0:0:0:
349,135,114419,1,0,0:0:0:0:
252,107,114553,1,0,0:0:0:0:
423,76,114687,6,0,L|440:184,1,83.9999974365235
291,266,114955,2,0,L|277:183,1,83.9999974365235
335,52,115223,2,0,L|352:160,1,83.9999974365235
203,242,115491,2,0,L|189:159,1,83.9999974365235
35,243,115759,6,0,P|79:224|123:215,1,83.9999974365235
203,374,116026,2,0,P|162:364|123:347,1,83.9999974365235
189,159,116294,1,0,0:0:0:0:
285,263,116428,1,0,0:0:0:0:
291,92,116562,2,0,P|303:149|304:228,1,125.999996154785
285,263,116830,6,0,L|369:257,1,83.9999974365235
374,86,117098,2,0,L|290:92,1,83.9999974365235
396,182,117366,2,0,L|480:176,1,83.9999974365235
485,5,117634,2,0,L|401:11,1,83.9999974365235
206,63,117901,6,0,P|207:105|219:146,1,83.9999974365235
396,182,118169,2,0,P|407:141|408:99,1,83.9999974365235
298,224,118437,1,0,0:0:0:0:
396,182,118571,1,0,0:0:0:0:
469,248,118705,2,0,P|482:300|478:350,1,83.9999974365235
285,306,118973,6,0,P|285:264|297:223,1,83.9999974365235
115,342,119241,2,0,L|210:350,1,83.9999974365235
154,221,119509,2,0,L|70:213,1,83.9999974365235
13,286,119776,1,0,0:0:0:0:
70,125,119910,1,0,0:0:0:0:
154,221,120044,6,0,P|173:164|174:129,1,83.9999974365235
49,44,120312,2,0,P|54:85|69:124,1,83.9999974365235
238,67,120580,1,0,0:0:0:0:
146,53,120714,1,0,0:0:0:0:
312,131,120848,2,0,P|327:92|301:0,1,125.999996154785
349,37,121116,6,0,L|440:27,1,83.9999974365235
395,215,121384,2,0,L|311:224,1,83.9999974365235
421,123,121651,2,0,L|512:113,1,83.9999974365235
467,301,121919,2,0,L|383:310,1,83.9999974365235
304,141,122187,6,0,P|313:195|306:246,1,83.9999974365235
144,288,122455,2,0,P|142:246|150:205,1,83.9999974365235
231,252,122723,1,0,0:0:0:0:
51,268,122857,1,0,0:0:0:0:
100,130,122991,2,0,P|146:118|202:124,1,83.9999974365235
349,59,123259,6,0,L|248:65,1,83.9999974365235
310,223,123526,2,0,L|393:218,1,83.9999974365235
447,133,123794,2,0,L|346:139,1,83.9999974365235
408,297,124061,2,0,L|491:292,1,83.9999974365235
304,306,124330,6,0,P|312:259|302:195,1,83.9999974365235
131,275,124598,2,0,P|128:316|136:358,1,83.9999974365235
207,216,124866,1,0,0:0:0:0:
215,309,125000,1,0,0:0:0:0:
47,265,125134,2,0,L|146:276,1,83.9999974365235
184,134,125401,6,0,L|100:124,1,83.9999974365235
35,58,125669,2,0,P|15:102|14:173,1,83.9999974365235
184,134,125937,2,0,P|177:92|159:54,1,83.9999974365235
207,216,126205,2,0,L|312:207,1,83.9999974365235
237,354,126473,6,0,L|153:361,1,83.9999974365235
306,288,126741,2,0,P|322:329|329:378,1,83.9999974365235
290,208,127009,1,0,0:0:0:0:
237,354,127142,1,0,0:0:0:0:
207,216,127276,1,0,0:0:0:0:
153,361,127410,1,0,0:0:0:0:
94,217,127544,6,0,B|150:198|206:216|206:216|223:173|192:105,2,210
94,217,129151,5,0,0:0:0:0:
265,275,129285,1,0,0:0:0:0:
199,122,129419,1,0,0:0:0:0:
158,318,129687,6,0,B|87:291|18:332|18:332|30:364|82:384,2,210
158,318,131294,5,0,0:0:0:0:
156,293,131360,1,0,0:0:0:0:
155,269,131427,1,0,0:0:0:0:
154,244,131494,1,0,0:0:0:0:
153,220,131561,1,0,0:0:0:0:
325,342,131830,6,0,P|350:299|259:326,2,210
467,181,133169,6,0,P|398:167|307:171,2,140
505,248,133839,1,0,0:0:0:0:
275,240,133973,6,0,P|246:202|316:76,2,210
256,192,134910,12,0,138325,0:0:0:0:
