osu file format v14

[General]
AudioFilename: audio.mp3
AudioLeadIn: 0
PreviewTime: 0
Countdown: 1
SampleSet: Normal
StackLeniency: 0.7
Mode: 0
LetterboxInBreaks: 0
WidescreenStoryboard: 1

[Editor]
DistanceSpacing: 0.6
BeatDivisor: 3
GridSize: 32
TimelineZoom: 1.7

[Metadata]
Title:Nordland
TitleUnicode:Nordland
Artist:Bathory
ArtistUnicode:Bathory
Creator:EijiKuinbii
Version:Endless Forest
Source:
Tags:Quorthon black viking metal Touhou
BeatmapID:1378116
BeatmapSetID:642224

[Difficulty]
HPDrainRate:6
CircleSize:4
OverallDifficulty:9
ApproachRate:9.6
SliderMultiplier:2.3
SliderTickRate:1

[Events]
//Background and Video events
0,0,"BG.jpg",0,0
//Break Periods
//Storyboard Layer 0 (Background)
//Storyboard Layer 1 (Fail)
//Storyboard Layer 2 (Pass)
//Storyboard Layer 3 (Foreground)
//Storyboard Sound Samples

[TimingPoints]
1238,500,4,2,2,70,1,0
3238,-142.857142857143,4,2,2,70,0,0
5238,-166.666666666667,4,2,2,70,0,0
7238,-200,4,2,2,70,0,0
11208,500,4,2,1,70,1,0
11208,-125,4,2,1,70,0,0
19208,-111.111111111111,4,2,1,70,0,0
27208,-100,4,2,1,70,0,0
75208,-66.6666666666667,4,2,2,70,0,0
75708,-66.6666666666667,4,2,1,50,0,0
77208,-66.6666666666667,4,2,2,70,0,0
77708,-66.6666666666667,4,2,1,50,0,0
78708,-66.6666666666667,4,2,1,70,0,0
78874,-66.6666666666667,4,2,1,50,0,0
79208,-66.6666666666667,4,2,2,70,0,0
79708,-66.6666666666667,4,2,1,50,0,0
81208,-66.6666666666667,4,2,2,50,0,0
82708,-200,4,2,2,50,0,0
83208,-66.6666666666667,4,1,1,60,0,0
115208,-83.3333333333333,4,1,1,60,0,0
147208,-66.6666666666667,4,2,2,80,0,0
147708,-200,4,1,2,40,0,0
149208,-66.6666666666667,4,2,2,80,0,0
149708,-66.6666666666667,4,1,2,40,0,0
150708,-66.6666666666667,4,1,1,70,0,0
151208,-66.6666666666667,4,2,2,70,0,0
151708,-133.333333333333,4,1,2,40,0,0
153208,-100,4,1,2,40,0,0
154708,-153.846153846154,4,1,2,40,0,0
155208,-66.6666666666667,4,1,1,70,0,0
171208,-83.3333333333333,4,1,1,70,0,0
172708,-100,4,1,1,70,0,0
175208,-83.3333333333333,4,1,1,70,0,0
176708,-100,4,1,1,70,0,0
179208,-83.3333333333333,4,1,1,70,0,0
180708,-100,4,1,1,70,0,0
183208,-83.3333333333333,4,1,1,70,0,0
184708,-100,4,1,1,70,0,0
187208,-83.3333333333333,4,1,1,70,0,0
201208,-100,4,1,1,70,0,0
201708,-90.9090909090909,4,1,1,70,0,0
203208,-83.3333333333333,4,1,1,70,0,0
231208,-66.6666666666667,4,2,2,70,0,0
231708,-66.6666666666667,4,2,1,50,0,0
233208,-66.6666666666667,4,2,2,70,0,0
233708,-66.6666666666667,4,2,1,50,0,0
234708,-66.6666666666667,4,2,1,70,0,0
234874,-66.6666666666667,4,2,1,50,0,0
235208,-66.6666666666667,4,2,2,70,0,0
235708,-66.6666666666667,4,2,1,50,0,0
237208,-66.6666666666667,4,2,2,50,0,0
238708,-200,4,2,2,50,0,0
239208,-66.6666666666667,4,1,1,70,0,0
255208,-83.3333333333333,4,1,1,70,0,0
287208,-66.6666666666667,4,1,1,70,0,0
287708,-66.6666666666667,4,1,1,40,0,0
289208,-66.6666666666667,4,1,1,70,0,0
289708,-66.6666666666667,4,1,1,40,0,0
290708,-66.6666666666667,4,1,1,70,0,0
291708,-133.333333333333,4,1,1,40,0,0
294708,-200,4,1,1,40,0,0
295208,-66.6666666666667,4,1,1,70,0,0
311208,-83.3333333333333,4,1,1,70,0,0
312708,-100,4,1,1,70,0,0
315208,-83.3333333333333,4,1,1,70,0,0
316708,-100,4,1,1,70,0,0
319208,-83.3333333333333,4,1,1,70,0,0
320708,-100,4,1,1,70,0,0
323208,-83.3333333333333,4,1,1,70,0,0
324708,-100,4,1,1,70,0,0
327208,-83.3333333333333,4,1,1,70,0,0
341208,-100,4,1,1,70,0,0
341708,-90.9090909090909,4,1,1,70,0,0
343208,-83.3333333333333,4,1,1,70,0,0
371208,-66.6666666666667,4,1,1,70,0,0
371708,-66.6666666666667,4,1,1,20,0,0
373208,-66.6666666666667,4,1,1,70,0,0
373708,-66.6666666666667,4,1,1,20,0,0
374708,-66.6666666666667,4,1,1,70,0,0
375708,-66.6666666666667,4,1,1,20,0,0
378708,-200,4,1,1,20,0,0
379208,-66.6666666666667,4,1,1,70,0,0
395208,-83.3333333333333,4,1,1,70,0,0
427208,-66.6666666666667,4,1,1,70,0,0
427708,-66.6666666666667,4,1,1,20,0,0
429208,-66.6666666666667,4,1,1,70,0,0
429708,-66.6666666666667,4,1,1,20,0,0
430708,-66.6666666666667,4,1,1,70,0,0
431708,-133.333333333333,4,1,1,20,0,0
434708,-200,4,1,1,20,0,0
435208,-66.6666666666667,4,1,1,70,0,0
451208,-83.3333333333333,4,1,1,70,0,0
452708,-100,4,1,1,70,0,0
455208,-83.3333333333333,4,1,1,70,0,0
456708,-100,4,1,1,70,0,0
459208,-83.3333333333333,4,1,1,70,0,0
460708,-100,4,1,1,70,0,0
463208,-83.3333333333333,4,1,1,70,0,0
464708,-100,4,1,1,70,0,0
467208,-83.3333333333333,4,1,1,70,0,0
481208,-100,4,1,1,70,0,0
481708,-90.9090909090909,4,1,1,70,0,0
483202,500,4,1,1,70,1,0
483202,-83.3333333333333,4,1,1,70,0,0
511202,-66.6666666666667,4,1,1,70,0,0
511702,-66.6666666666667,4,1,1,20,0,0
513202,-66.6666666666667,4,1,1,70,0,0
513702,-66.6666666666667,4,1,1,20,0,0
514702,-66.6666666666667,4,1,1,70,0,0
515702,-66.6666666666667,4,1,1,20,0,0
518702,-200,4,1,1,20,0,0
519202,-66.6666666666667,4,1,1,70,0,0
533202,-66.6666666666667,4,1,1,80,0,0
533368,-66.6666666666667,4,1,1,30,0,0
535202,-66.6666666666667,4,1,1,80,0,0
535368,-66.6666666666667,4,1,1,40,0,0
537202,-66.6666666666667,4,1,1,80,0,0
537368,-66.6666666666667,4,1,1,60,0,0
539202,-66.6666666666667,4,1,1,75,0,0
541202,-66.6666666666667,4,1,1,60,0,0
543202,-66.6666666666667,4,1,1,50,0,0
545202,-66.6666666666667,4,1,1,40,0,0
547202,-66.6666666666667,4,1,1,30,0,0
549202,-66.6666666666667,4,1,1,20,0,0
551202,-66.6666666666667,4,1,1,10,0,0
558952,-66.6666666666667,4,1,1,9,0,0
559035,-66.6666666666667,4,1,1,8,0,0
559118,-66.6666666666667,4,1,1,7,0,0
559202,-100,4,1,1,6,0,0
559285,-100,4,1,1,5,0,0

[Colours]
Combo1 : 52,105,105
Combo2 : 21,21,21
Combo3 : 210,210,210

[HitObjects]
186,135,3238,6,0,L|188:255,1,120.749996315003,4|4,0:0|0:0,0:0:0:0:
186,135,5238,6,0,L|187:237,1,103.499996841431,4|4,0:0|0:0,0:0:0:0:
186,135,7238,6,0,L|187:237,1,86.25,4|4,0:0|0:0,0:0:0:0:
186,135,11208,6,0,L|188:257,1,122.666666666667,14|0,0:0|0:0,0:0:0:0:
381,160,11708,1,10,0:0:0:0:
274,112,11874,1,2,0:0:0:0:
293,256,12041,1,2,0:0:0:0:
478,103,12208,2,0,L|464:237,1,122.666666666667,10|0,0:0|0:0,0:0:0:0:
293,256,12708,2,0,L|280:133,1,122.666666666667,10|0,0:0|0:0,0:0:0:0:
366,85,13208,6,0,L|505:80,1,122.666666666667,10|0,0:0|0:0,0:0:0:0:
311,22,13708,1,10,0:0:0:0:
375,166,13874,1,2,0:0:0:0:
243,88,14041,1,2,0:0:0:0:
396,15,14208,1,10,0:0:0:0:
288,164,14374,1,2,0:0:0:0:
288,164,14458,1,2,0:0:0:0:
288,164,14541,1,2,0:0:0:0:
163,64,14708,1,10,0:0:0:0:
366,85,14874,1,2,0:0:0:0:
307,249,15041,1,2,0:0:0:0:
194,142,15208,6,0,L|199:277,1,122.666666666667,14|0,0:0|0:0,0:0:0:0:
95,156,15708,1,10,0:0:0:0:
229,60,15874,1,2,0:0:0:0:
140,235,16041,1,2,0:0:0:0:
17,57,16208,2,0,L|4:208,1,122.666666666667,10|0,0:0|0:0,0:0:0:0:
68,364,16708,2,0,L|57:241,1,122.666666666667,10|0,0:0|0:0,0:0:0:0:
173,322,17208,6,0,L|311:313,1,122.666666666667,10|0,0:0|0:0,0:0:0:0:
440,146,17708,1,10,0:0:0:0:
375,349,17874,1,2,0:0:0:0:
375,349,17958,1,2,0:0:0:0:
375,349,18041,1,2,0:0:0:0:
346,177,18208,1,10,0:0:0:0:
488,295,18374,1,2,0:0:0:0:
488,295,18458,1,2,0:0:0:0:
488,295,18541,1,2,0:0:0:0:
306,251,18708,1,10,0:0:0:0:
358,70,18874,1,2,0:0:0:0:
443,188,19041,1,2,0:0:0:0:
232,103,19208,6,0,L|219:247,1,137.999995788574,14|0,0:0|0:0,0:0:0:0:
126,31,19708,1,10,0:0:0:0:
146,226,19874,1,2,0:0:0:0:
46,111,20041,1,2,0:0:0:0:
232,103,20208,2,0,L|384:96,1,137.999995788574,10|0,0:0|0:0,0:0:0:0:
203,25,20708,2,0,P|157:67|173:162,1,137.999995788574,10|0,0:0|0:0,0:0:0:0:
274,328,21208,6,0,L|279:182,1,137.999995788574,10|0,0:0|0:0,0:0:0:0:
95,252,21708,1,10,0:0:0:0:
177,308,21874,1,2,0:0:0:0:
159,185,22041,1,2,0:0:0:0:
95,336,22208,1,10,0:0:0:0:
232,236,22374,1,2,0:0:0:0:
74,165,22541,1,2,0:0:0:0:
177,308,22708,1,10,0:0:0:0:
237,150,22874,1,2,0:0:0:0:
179,5,23041,1,2,0:0:0:0:
232,237,23208,6,0,L|398:228,1,137.999995788574,14|0,0:0|0:0,0:0:0:0:
459,108,23708,1,10,0:0:0:0:
446,286,23874,1,2,0:0:0:0:
390,160,24041,1,2,0:0:0:0:
508,343,24208,2,0,P|458:370|373:330,1,137.999995788574,10|0,0:0|0:0,0:0:0:0:
320,281,24708,2,0,P|270:254|185:294,1,137.999995788574,10|0,0:0|0:0,0:0:0:0:
48,384,25208,6,0,L|43:220,1,137.999995788574,10|0,0:0|0:0,0:0:0:0:
139,87,25708,1,10,0:0:0:0:
122,193,25874,1,2,0:0:0:0:
59,48,26041,1,2,0:0:0:0:
213,144,26208,1,10,0:0:0:0:
300,54,26374,1,2,0:0:0:0:
300,54,26458,1,2,0:0:0:0:
300,54,26541,1,2,0:0:0:0:
296,229,26708,1,10,0:0:0:0:
208,57,26874,1,2,0:0:0:0:
365,115,27041,1,2,0:0:0:0:
214,228,27208,6,0,P|262:306|332:304,1,153.333333333333,14|0,0:0|0:0,0:0:0:0:
488,240,27708,1,10,0:0:0:0:
374,235,27874,1,2,0:0:0:0:
484,328,28041,1,2,0:0:0:0:
432,159,28208,2,0,L|439:6,1,153.333333333333,10|0,0:0|0:0,0:0:0:0:
292,31,28708,2,0,L|299:184,1,153.333333333333,10|0,0:0|0:0,0:0:0:0:
78,154,29208,6,0,P|143:110|218:143,1,153.333333333333,10|0,0:0|0:0,0:0:0:0:
217,298,29708,1,10,0:0:0:0:
152,195,29874,1,2,0:0:0:0:
299,184,30041,1,2,0:0:0:0:
134,275,30208,1,10,0:0:0:0:
322,277,30374,1,2,0:0:0:0:
322,277,30458,1,2,0:0:0:0:
322,277,30541,1,2,0:0:0:0:
362,97,30708,1,10,0:0:0:0:
408,302,30874,1,2,0:0:0:0:
487,156,31041,1,2,0:0:0:0:
290,195,31208,6,0,B|234:206|234:206|124:171,1,153.333333333333,14|0,0:0|0:0,0:0:0:0:
281,113,31708,1,10,0:0:0:0:
372,187,31874,1,2,0:0:0:0:
287,277,32041,1,2,0:0:0:0:
372,100,32207,2,0,P|441:135|451:219,1,153.333333333333,10|0,0:0|0:0,0:0:0:0:
390,336,32708,2,0,B|365:255|365:255|374:164,1,153.333333333333,10|0,0:0|0:0,0:0:0:0:
483,54,33208,6,0,P|352:101|311:91,1,153.333333333333,10|0,0:0|0:0,0:0:0:0:
140,21,33708,1,10,0:0:0:0:
294,27,33874,1,2,0:0:0:0:
187,140,34041,1,2,0:0:0:0:
23,35,34208,1,10,0:0:0:0:
222,66,34374,1,2,0:0:0:0:
222,66,34458,1,2,0:0:0:0:
222,66,34541,1,2,0:0:0:0:
126,244,34708,1,10,0:0:0:0:
90,91,34874,1,2,0:0:0:0:
273,167,35041,1,2,0:0:0:0:
398,5,35208,6,0,L|393:184,1,153.333333333333,14|0,0:0|0:0,0:0:0:0:
297,281,35708,1,10,0:0:0:0:
287,139,35874,1,2,0:0:0:0:
401,246,36041,1,2,0:0:0:0:
202,188,36208,2,0,L|49:185,1,153.333333333333,10|0,0:0|0:0,0:0:0:0:
20,83,36708,2,0,L|173:80,1,153.333333333333,10|0,0:0|0:0,0:0:0:0:
300,28,37208,6,0,B|274:77|274:77|286:209,1,153.333333333333,10|0,0:0|0:0,0:0:0:0:
399,224,37708,1,10,0:0:0:0:
460,126,37874,1,2,0:0:0:0:
356,98,38041,1,2,0:0:0:0:
484,271,38208,1,10,0:0:0:0:
285,256,38374,1,2,0:0:0:0:
285,256,38458,1,2,0:0:0:0:
285,256,38541,1,2,0:0:0:0:
86,271,38708,1,10,0:0:0:0:
213,181,38874,1,2,0:0:0:0:
209,329,39041,1,2,0:0:0:0:
127,156,39208,6,0,P|165:104|250:100,1,153.333333333333,14|0,0:0|0:0,0:0:0:0:
309,267,39708,1,10,0:0:0:0:
171,255,39874,1,2,0:0:0:0:
171,255,39958,1,2,0:0:0:0:
171,255,40041,1,2,0:0:0:0:
346,191,40208,2,0,L|510:201,1,153.333333333333,10|0,0:0|0:0,0:0:0:0:
383,73,40708,2,0,L|219:83,1,153.333333333333,10|0,0:0|0:0,0:0:0:0:
450,120,41208,6,0,P|461:50|402:-7,1,153.333333333333,10|0,0:0|0:0,0:0:0:0:
229,82,41708,1,10,0:0:0:0:
389,190,41874,1,2,0:0:0:0:
389,190,41958,1,2,0:0:0:0:
389,190,42041,1,2,0:0:0:0:
220,180,42208,1,10,0:0:0:0:
318,38,42374,1,2,0:0:0:0:
318,38,42458,1,2,0:0:0:0:
318,38,42541,1,2,0:0:0:0:
303,224,42708,1,10,0:0:0:0:
155,102,42874,1,2,0:0:0:0:
208,274,43041,1,2,0:0:0:0:
235,67,43208,6,0,P|183:21|80:53,1,153.333333333333,14|0,0:0|0:0,0:0:0:0:
102,217,43708,1,2,0:0:0:0:
234,151,43874,1,2,0:0:0:0:
56,142,44041,1,2,0:0:0:0:
223,249,44208,2,0,L|404:231,1,153.333333333333,10|0,0:0|0:0,0:0:0:0:
491,333,44708,2,0,L|310:315,1,153.333333333333,10|0,0:0|0:0,0:0:0:0:
431,104,45208,6,0,P|473:199|450:268,1,153.333333333333,10|0,0:0|0:0,0:0:0:0:
351,154,45708,1,10,0:0:0:0:
384,21,45874,1,2,0:0:0:0:
384,21,45958,1,2,0:0:0:0:
384,21,46041,1,2,0:0:0:0:
241,62,46208,1,10,0:0:0:0:
431,104,46374,1,2,0:0:0:0:
431,104,46458,1,2,0:0:0:0:
431,104,46541,1,2,0:0:0:0:
232,164,46708,1,10,0:0:0:0:
302,2,46874,1,2,0:0:0:0:
309,217,47041,1,2,0:0:0:0:
155,110,47208,6,0,B|106:98|106:98|4:126,1,153.333333333333,14|0,0:0|0:0,0:0:0:0:
161,213,47708,1,10,0:0:0:0:
241,120,47874,1,2,0:0:0:0:
203,14,48041,1,2,0:0:0:0:
235,254,48208,2,0,P|183:296|90:264,1,153.333333333333,8|0,0:0|0:0,0:0:0:0:
41,158,48708,2,0,L|22:332,1,153.333333333333,8|0,0:0|0:0,0:0:0:0:
229,366,49208,6,0,L|410:358,1,153.333333333333,10|0,0:0|0:0,0:0:0:0:
264,207,49708,1,10,0:0:0:0:
146,284,49874,1,2,0:0:0:0:
323,273,50041,1,2,0:0:0:0:
176,113,50208,1,10,0:0:0:0:
237,290,50374,1,2,0:0:0:0:
237,290,50458,1,2,0:0:0:0:
237,290,50541,1,2,0:0:0:0:
297,157,50708,1,10,0:0:0:0:
479,199,50874,1,2,0:0:0:0:
366,73,51041,1,2,0:0:0:0:
395,320,51208,6,0,L|386:160,1,153.333333333333,14|0,0:0|0:0,0:0:0:0:
299,312,51708,1,10,0:0:0:0:
481,351,51874,1,2,0:0:0:0:
468,177,52041,1,2,0:0:0:0:
337,225,52208,2,0,L|174:238,1,153.333333333333,10|0,0:0|0:0,0:0:0:0:
90,315,52708,2,0,L|253:328,1,153.333333333333,10|0,0:0|0:0,0:0:0:0:
412,299,53208,6,0,L|418:141,1,153.333333333333,10|0,0:0|0:0,0:0:0:0:
232,64,53708,1,10,0:0:0:0:
314,167,53874,1,2,0:0:0:0:
314,167,53958,1,2,0:0:0:0:
314,167,54041,1,2,0:0:0:0:
331,24,54208,1,10,0:0:0:0:
217,157,54374,1,2,0:0:0:0:
375,102,54541,1,2,0:0:0:0:
151,100,54708,1,10,0:0:0:0:
268,229,54874,1,2,0:0:0:0:
232,64,55041,1,2,0:0:0:0:
178,247,55208,6,0,P|175:300|268:377,1,153.333333333333,14|0,0:0|0:0,0:0:0:0:
394,240,55708,1,2,0:0:0:0:
297,308,55874,1,2,0:0:0:0:
467,334,56041,1,2,0:0:0:0:
302,211,56208,2,0,L|299:48,1,153.333333333333,10|0,0:0|0:0,0:0:0:0:
453,7,56708,2,0,L|450:160,1,153.333333333333,10|0,0:0|0:0,0:0:0:0:
323,291,57208,6,0,B|246:307|270:255|174:273,1,153.333333333333,10|0,0:0|0:0,0:0:0:0:
341,373,57708,1,10,0:0:0:0:
405,229,57874,1,2,0:0:0:0:
303,130,58041,1,2,0:0:0:0:
410,317,58208,1,10,0:0:0:0:
474,151,58374,1,2,0:0:0:0:
474,151,58458,1,2,0:0:0:0:
474,151,58541,1,2,0:0:0:0:
288,216,58708,1,10,0:0:0:0:
397,88,58874,1,2,0:0:0:0:
495,237,59041,1,2,0:0:0:0:
304,128,59208,6,0,L|138:134,1,153.333333333333,14|0,0:0|0:0,0:0:0:0:
270,35,59708,1,2,0:0:0:0:
373,73,59874,1,2,0:0:0:0:
312,227,60041,1,2,0:0:0:0:
421,360,60208,2,0,L|401:199,1,153.333333333333,10|0,0:0|0:0,0:0:0:0:
509,50,60708,2,0,L|491:203,1,153.333333333333,10|0,0:0|0:0,0:0:0:0:
312,227,61208,6,0,B|257:222|257:222|216:232|216:232|138:225,1,153.333333333333,10|0,0:0|0:0,0:0:0:0:
309,315,61708,1,10,0:0:0:0:
358,150,61874,1,2,0:0:0:0:
430,305,62041,1,2,0:0:0:0:
266,140,62208,1,10,0:0:0:0:
431,31,62374,1,2,0:0:0:0:
431,31,62458,1,2,0:0:0:0:
431,31,62541,1,2,0:0:0:0:
453,151,62708,1,10,0:0:0:0:
300,34,62874,1,2,0:0:0:0:
141,111,63041,1,2,0:0:0:0:
0,27,63208,6,0,L|155:19,1,153.333333333333,14|0,0:0|0:0,0:0:0:0:
93,217,63708,1,2,0:0:0:0:
244,175,63874,1,2,0:0:0:0:
59,121,64041,1,2,0:0:0:0:
216,260,64207,2,0,P|294:252|337:180,1,153.333333333333,10|0,0:0|0:0,0:0:0:0:
410,77,64707,2,0,L|421:260,1,153.333333333333,10|0,0:0|0:0,0:0:0:0:
210,341,65208,6,0,B|144:347|144:347|42:328,1,153.333333333333,10|0,0:0|0:0,0:0:0:0:
32,131,65708,1,10,0:0:0:0:
131,253,65874,1,2,0:0:0:0:
174,66,66041,1,2,0:0:0:0:
37,224,66208,1,10,0:0:0:0:
247,190,66374,1,2,0:0:0:0:
247,190,66458,1,2,0:0:0:0:
247,190,66541,1,2,0:0:0:0:
116,137,66708,1,10,0:0:0:0:
287,87,66874,1,2,0:0:0:0:
455,183,67041,1,2,0:0:0:0:
373,4,67208,6,0,L|370:172,1,153.333333333333,14|0,0:0|0:0,0:0:0:0:
463,309,67708,1,10,0:0:0:0:
314,230,67874,1,2,0:0:0:0:
179,306,68041,1,2,0:0:0:0:
225,78,68208,2,0,B|229:138|229:138|225:169|225:169|230:244,1,153.333333333333,10|0,0:0|0:0,0:0:0:0:
344,365,68708,2,0,P|358:306|299:221,1,153.333333333333,10|0,0:0|0:0,0:0:0:0:
101,220,69208,6,0,L|109:31,1,153.333333333333,10|0,0:0|0:0,0:0:0:0:
9,201,69708,1,10,0:0:0:0:
88,315,69874,1,2,0:0:0:0:
88,315,69958,1,2,0:0:0:0:
88,315,70041,1,2,0:0:0:0:
264,223,70208,1,10,0:0:0:0:
389,319,70374,1,2,0:0:0:0:
205,286,70541,1,2,0:0:0:0:
360,190,70708,1,10,0:0:0:0:
303,362,70874,1,2,0:0:0:0:
178,198,71041,1,2,0:0:0:0:
433,230,71208,6,0,L|441:60,1,153.333333333333,14|0,0:0|0:0,0:0:0:0:
262,29,71708,1,2,0:0:0:0:
134,120,71874,1,2,0:0:0:0:
352,94,72041,1,2,0:0:0:0:
163,41,72208,2,0,L|-17:33,1,153.333333333333,10|0,0:0|0:0,0:0:0:0:
82,222,72708,2,0,L|262:214,1,153.333333333333,10|0,0:0|0:0,0:0:0:0:
455,116,73208,6,0,P|399:207|414:272,1,153.333333333333,10|0,0:0|0:0,0:0:0:0:
316,129,73708,1,10,0:0:0:0:
175,189,73874,1,2,0:0:0:0:
259,40,74041,1,2,0:0:0:0:
266,226,74208,1,10,0:0:0:0:
181,89,74374,1,2,0:0:0:0:
181,89,74458,1,2,0:0:0:0:
181,89,74541,1,2,0:0:0:0:
139,274,74708,1,10,0:0:0:0:
32,148,74874,1,2,0:0:0:0:
266,128,75041,1,2,0:0:0:0:
389,337,75208,6,0,L|400:67,1,230.000008773804,14|4,0:0|0:0,0:0:0:0:
236,40,75708,5,10,0:0:0:0:
176,108,75874,1,2,0:0:0:0:
266,128,76041,1,2,0:0:0:0:
106,51,76208,5,10,0:0:0:0:
94,146,76374,1,2,0:0:0:0:
23,87,76541,1,2,0:0:0:0:
57,226,76708,5,10,0:0:0:0:
34,311,76874,1,2,0:0:0:0:
143,246,77041,1,2,0:0:0:0:
440,213,77208,6,0,L|209:189,1,230.000008773804,14|4,0:0|0:0,0:0:0:0:
314,30,77708,5,10,0:0:0:0:
394,63,77874,1,2,0:0:0:0:
328,113,78041,1,2,0:0:0:0:
474,102,78208,5,10,0:0:0:0:
419,168,78374,1,2,0:0:0:0:
501,186,78541,1,2,0:0:0:0:
243,118,78708,5,14,0:0:0:0:
62,268,78874,1,2,0:0:0:0:
303,257,79041,1,2,0:0:0:0:
156,38,79208,6,0,L|150:289,1,230.000008773804,14|4,0:0|0:0,0:0:0:0:
271,340,79708,5,10,0:0:0:0:
356,327,79874,1,2,0:0:0:0:
303,257,80041,1,2,0:0:0:0:
451,186,80208,5,10,0:0:0:0:
388,248,80374,1,2,0:0:0:0:
472,267,80541,1,2,0:0:0:0:
319,100,80708,5,10,0:0:0:0:
330,182,80874,1,2,0:0:0:0:
253,151,81041,1,2,0:0:0:0:
65,88,81208,5,14,0:0:0:0:
88,176,81374,1,8,0:3:0:0:
150,71,81541,1,4,0:3:0:0:
172,220,81708,5,14,0:0:0:0:
142,309,81874,1,8,0:3:0:0:
269,242,82041,1,4,0:3:0:0:
419,286,82208,5,14,0:0:0:0:
437,187,82374,1,8,0:3:0:0:
332,313,82541,1,4,0:3:0:0:
333,125,82708,6,0,B|353:183|326:178|340:219,1,95.8333333333333,14|0,0:0|0:0,0:0:0:0:
350,229,83208,6,0,L|104:220,1,230.000008773804,6|0,0:0|0:0,0:0:0:0:
386,115,83708,1,10,0:0:0:0:
428,324,83874,1,0,0:0:0:0:
260,140,84041,1,0,0:0:0:0:
472,156,84208,2,0,P|474:83|332:39,1,230.000008773804,2|0,0:0|0:0,0:0:0:0:
337,311,84708,1,10,0:0:0:0:
186,88,84874,1,0,0:0:0:0:
386,115,85041,1,0,0:0:0:0:
256,363,85208,6,0,B|215:234|314:264|268:117,1,230.000008773804,2|0,0:0|0:0,0:0:0:0:
49,46,85708,1,10,0:0:0:0:
186,211,85874,1,0,0:0:0:0:
143,19,86041,1,0,0:0:0:0:
10,260,86208,1,2,0:0:0:0:
182,307,86374,1,0,0:0:0:0:
77,179,86541,1,0,0:0:0:0:
261,218,86708,2,0,L|541:209,1,230.000008773804,14|0,0:0|0:0,0:0:0:0:
184,81,87208,6,0,B|192:153|192:153|173:225|173:225|183:311,1,230.000008773804,6|0,0:0|0:0,0:0:0:0:
289,94,87708,1,10,0:0:0:0:
83,73,87874,1,0,0:0:0:0:
241,7,88041,1,0,0:0:0:0:
302,189,88208,2,0,B|446:156|389:248|541:216,1,230.000008773804,2|0,0:0|0:0,0:0:0:0:
289,94,88708,1,10,0:0:0:0:
316,281,88874,1,0,0:0:0:0:
473,134,89041,1,0,0:0:0:0:
185,162,89208,5,14,0:0:0:0:
407,268,89374,1,8,0:3:0:0:
98,295,89541,1,4,0:3:0:0:
284,125,89708,5,14,0:0:0:0:
227,324,89874,1,8,0:3:0:0:
160,33,90041,1,4,0:3:0:0:
18,212,90208,5,14,0:0:0:0:
399,138,90374,1,8,0:3:0:0:
28,12,90541,1,4,0:3:0:0:
295,266,90708,5,14,0:0:0:0:
300,151,90874,1,8,0:0:0:0:
305,36,91041,1,8,0:0:0:0:
402,262,91208,6,0,P|353:354|226:345,1,230.000008773804,6|0,0:0|0:0,0:0:0:0:
81,160,91708,1,10,0:0:0:0:
295,266,91874,1,0,0:0:0:0:
118,288,92041,1,0,0:0:0:0:
275,137,92208,2,0,L|515:152,1,230.000008773804,2|0,0:0|0:0,0:0:0:0:
207,50,92708,1,10,0:0:0:0:
288,239,92874,1,0,0:0:0:0:
357,64,93041,1,0,0:0:0:0:
125,136,93208,6,0,B|136:235|136:235|159:261|159:261|170:361,1,230.000008773804,2|0,0:0|0:0,0:0:0:0:
9,133,93708,1,10,0:0:0:0:
228,116,93874,1,0,0:0:0:0:
56,222,94041,1,0,0:0:0:0:
145,28,94208,1,2,0:0:0:0:
201,206,94374,1,0,0:0:0:0:
9,133,94541,1,0,0:0:0:0:
32,328,94708,2,0,L|301:340,1,230.000008773804,14|0,0:0|0:0,0:0:0:0:
447,157,95208,6,0,P|397:227|469:341,1,230.000008773804,6|0,0:0|0:0,0:0:0:0:
382,69,95708,1,10,0:0:0:0:
305,272,95874,1,0,0:0:0:0:
490,246,96041,1,0,0:0:0:0:
286,88,96208,2,0,L|41:105,1,230.000008773804,2|0,0:0|0:0,0:0:0:0:
303,205,96708,1,10,0:0:0:0:
378,106,96874,1,0,0:0:0:0:
301,0,97041,1,0,0:0:0:0:
194,234,97208,5,14,0:0:0:0:
478,200,97374,1,8,0:3:0:0:
194,91,97541,1,4,0:3:0:0:
377,364,97708,5,14,0:0:0:0:
430,65,97874,1,8,0:3:0:0:
223,361,98041,1,4,0:3:0:0:
494,284,98208,5,14,0:0:0:0:
153,275,98374,1,8,0:3:0:0:
502,139,98541,1,4,0:3:0:0:
180,20,98708,5,14,0:0:0:0:
39,239,98874,1,8,0:0:0:0:
326,349,99041,1,8,0:0:0:0:
206,113,99208,6,0,B|182:246|256:194|238:334,1,230.000008773804,6|0,0:0|0:0,0:0:0:0:
57,111,99708,1,10,0:0:0:0:
289,161,99874,1,0,0:0:0:0:
117,251,100041,1,0,0:0:0:0:
271,38,100208,2,0,B|354:22|354:22|496:90,1,230.000008773804,2|0,0:0|0:0,0:0:0:0:
388,291,100708,1,10,0:0:0:0:
354,108,100874,1,0,0:0:0:0:
492,197,101041,1,0,0:0:0:0:
272,178,101208,6,0,L|39:195,1,230.000008773804,2|0,0:0|0:0,0:0:0:0:
261,85,101708,1,10,0:0:0:0:
366,239,101874,1,0,0:0:0:0:
442,111,102041,1,0,0:0:0:0:
158,49,102208,5,14,0:0:0:0:
206,266,102374,1,8,0:3:0:0:
354,42,102541,1,4,0:3:0:0:
52,25,102708,5,14,0:0:0:0:
341,173,102874,1,8,0:3:0:0:
58,235,103041,1,4,0:3:0:0:
436,97,103208,6,0,L|430:341,1,230.000008773804,6|0,0:0|0:0,0:0:0:0:
329,29,103708,1,10,0:0:0:0:
138,199,103874,1,0,0:0:0:0:
329,349,104041,1,0,0:0:0:0:
244,34,104208,2,0,L|257:296,1,230.000008773804,2|0,0:0|0:0,0:0:0:0:
94,131,104708,1,10,0:0:0:0:
356,109,104874,1,0,0:0:0:0:
423,331,105041,1,0,0:0:0:0:
148,303,105208,6,0,B|124:178|208:230|186:84,1,230.000008773804,2|0,0:0|0:0,0:0:0:0:
52,304,105708,1,10,0:0:0:0:
266,340,105874,1,0,0:0:0:0:
94,131,106041,1,0,0:0:0:0:
168,368,106208,5,14,0:0:0:0:
297,91,106374,1,8,0:3:0:0:
443,293,106541,1,4,0:3:0:0:
149,220,106708,5,14,0:0:0:0:
381,40,106874,1,8,0:3:0:0:
328,337,107041,1,4,0:3:0:0:
201,55,107208,6,0,L|77:48,1,115.000004386902,6|0,0:0|0:0,0:0:0:0:
68,57,107458,1,0,0:0:0:0:
50,66,107541,1,0,0:0:0:0:
168,204,107708,1,10,0:0:0:0:
186,213,107791,1,0,0:0:0:0:
204,221,107875,2,0,L|318:214,1,115.000004386902
81,160,108208,1,2,0:0:0:0:
81,160,108291,1,0,0:0:0:0:
81,160,108374,1,0,0:0:0:0:
174,329,108541,1,0,0:0:0:0:
258,67,108708,1,10,0:0:0:0:
379,163,108874,1,0,0:0:0:0:
207,155,109041,1,0,0:0:0:0:
356,64,109208,6,0,L|480:71,1,115.000004386902,2|0,0:0|0:0,0:0:0:0:
483,84,109458,1,0,0:0:0:0:
496,98,109541,1,0,0:0:0:0:
315,225,109708,1,10,0:0:0:0:
302,239,109791,1,0,0:0:0:0:
289,252,109875,2,0,L|174:258,1,115.000004386902
435,222,110208,5,14,0:0:0:0:
435,222,110291,1,0,0:0:0:0:
435,222,110374,1,8,0:3:0:0:
138,124,110541,1,4,0:3:0:0:
337,364,110708,5,14,0:0:0:0:
295,52,110874,1,8,0:3:0:0:
91,280,111041,1,4,0:3:0:0:
212,31,111208,6,0,L|222:195,1,115.000004386902,6|0,0:0|0:0,0:0:0:0:
212,164,111458,1,0,0:0:0:0:
206,183,111541,1,0,0:0:0:0:
15,337,111708,1,10,0:0:0:0:
9,318,111791,1,0,0:0:0:0:
2,299,111875,2,0,L|8:184,1,115.000004386902
194,288,112208,1,2,0:0:0:0:
194,288,112291,1,0,0:0:0:0:
194,288,112374,1,0,0:0:0:0:
382,193,112541,1,0,0:0:0:0:
226,114,112708,1,10,0:0:0:0:
288,298,112874,1,0,0:0:0:0:
417,109,113041,1,0,0:0:0:0:
164,183,113208,6,0,L|27:178,1,115.000004386902,2|0,0:0|0:0,0:0:0:0:
34,163,113458,1,0,0:0:0:0:
19,148,113541,1,0,0:0:0:0:
212,65,113708,1,10,0:0:0:0:
227,50,113791,1,0,0:0:0:0:
242,34,113874,2,0,L|356:29,1,115.000004386902
293,331,114208,5,14,0:0:0:0:
120,77,114374,1,8,0:3:0:0:
403,193,114541,1,4,0:3:0:0:
65,278,114708,5,14,0:0:0:0:
312,77,114874,1,8,0:3:0:0:
408,328,115041,1,4,0:3:0:0:
202,180,115208,6,0,L|-5:192,1,183.999994384766,6|0,0:0|0:0,0:0:0:0:
215,56,115708,1,8,0:0:0:0:
278,242,115874,1,0,0:0:0:0:
135,93,116041,1,0,0:0:0:0:
314,134,116208,2,0,L|521:146,1,183.999994384766,2|0,0:0|0:0,0:0:0:0:
278,242,116708,1,8,0:0:0:0:
113,175,116874,1,0,0:0:0:0:
212,49,117041,1,0,0:0:0:0:
154,312,117208,6,0,B|224:310|224:310|257:328|257:328|333:324,1,183.999994384766,2|0,0:0|0:0,0:0:0:0:
419,82,117708,1,8,0:0:0:0:
309,190,117874,1,0,0:0:0:0:
491,177,118041,1,0,0:0:0:0:
260,99,118208,2,0,L|77:99,1,183.999994384766,2|0,0:0|0:0,0:0:0:0:
203,322,118708,1,8,0:0:0:0:
222,194,118874,1,8,0:3:0:0:
75,258,119041,1,4,0:3:0:0:
284,254,119208,6,0,L|470:243,1,183.999994384766,6|0,0:0|0:0,0:0:0:0:
195,84,119708,1,8,0:0:0:0:
193,204,119874,1,0,0:0:0:0:
303,124,120041,1,0,0:0:0:0:
98,204,120208,2,0,L|81:12,1,183.999994384766,2|0,0:0|0:0,0:0:0:0:
303,124,120708,1,8,0:0:0:0:
372,322,120874,1,0,0:0:0:0:
196,261,121041,1,0,0:0:0:0:
480,132,121208,6,0,L|463:315,1,183.999994384766,2|0,0:0|0:0,0:0:0:0:
259,48,121708,1,8,0:0:0:0:
397,89,121874,1,0,0:0:0:0:
183,175,122041,1,0,0:0:0:0:
0,84,122208,2,0,L|211:96,1,183.999994384766,2|0,0:0|0:0,0:0:0:0:
292,350,122708,1,8,0:0:0:0:
323,212,122874,1,8,0:3:0:0:
468,276,123041,1,4,0:3:0:0:
230,276,123208,6,0,B|132:247|145:313|50:281,1,183.999994384766,6|0,0:0|0:0,0:0:0:0:
274,120,123708,1,8,0:0:0:0:
192,361,123874,1,0,0:0:0:0:
140,169,124041,1,0,0:0:0:0:
375,301,124208,2,0,L|361:109,1,183.999994384766,2|0,0:0|0:0,0:0:0:0:
51,111,124708,1,8,0:0:0:0:
126,281,124874,1,0,0:0:0:0:
217,95,125041,1,0,0:0:0:0:
71,350,125208,6,0,B|171:390|156:321|249:356,1,183.999994384766,2|0,0:0|0:0,0:0:0:0:
457,262,125708,1,8,0:0:0:0:
314,136,125874,1,0,0:0:0:0:
365,318,126041,1,0,0:0:0:0:
443,54,126208,2,0,L|242:37,1,183.999994384766,2|0,0:0|0:0,0:0:0:0:
107,249,126708,1,8,0:0:0:0:
246,191,126874,1,8,0:3:0:0:
130,75,127041,1,4,0:3:0:0:
197,298,127208,6,0,B|266:308|266:308|305:300|305:300|397:313,1,183.999994384766,6|0,0:0|0:0,0:0:0:0:
126,346,127708,1,8,0:0:0:0:
82,170,127874,1,0,0:0:0:0:
245,211,128041,1,0,0:0:0:0:
7,216,128207,2,0,B|-25:115|51:121|23:39,1,183.999994384766,2|0,0:0|0:0,0:0:0:0:
272,80,128707,1,8,0:0:0:0:
165,251,128874,1,0,0:0:0:0:
138,86,129041,1,0,0:0:0:0:
261,300,129207,6,0,L|447:309,1,183.999994384766,2|0,0:0|0:0,0:0:0:0:
246,190,129707,1,8,0:0:0:0:
177,353,129874,1,0,0:0:0:0:
353,219,130041,1,0,0:0:0:0:
137,85,130207,2,0,L|146:269,1,183.999994384766,2|0,0:0|0:0,0:0:0:0:
24,75,130707,1,8,0:0:0:0:
225,40,130874,1,8,0:3:0:0:
450,102,131041,1,4,0:3:0:0:
314,308,131208,6,0,B|305:248|305:248|312:211|312:211|300:125,1,183.999994384766,6|0,0:0|0:0,0:0:0:0:
215,346,131708,1,8,0:0:0:0:
401,264,131874,1,0,0:0:0:0:
232,202,132041,1,0,0:0:0:0:
20,314,132208,2,0,L|212:332,1,183.999994384766,2|0,0:0|0:0,0:0:0:0:
136,93,132708,1,8,0:0:0:0:
48,189,132874,1,0,0:0:0:0:
250,215,133041,1,0,0:0:0:0:
434,97,133208,6,0,L|446:289,1,183.999994384766,2|0,0:0|0:0,0:0:0:0:
290,124,133708,1,8,0:0:0:0:
138,234,133874,1,0,0:0:0:0:
345,208,134041,1,0,0:0:0:0:
138,66,134208,2,0,B|237:94|230:15|334:46,1,183.999994384766,2|0,0:0|0:0,0:0:0:0:
216,303,134708,1,8,0:0:0:0:
164,159,134874,1,8,0:3:0:0:
74,264,135041,1,4,0:3:0:0:
312,290,135208,6,0,L|495:306,1,183.999994384766,6|0,0:0|0:0,0:0:0:0:
279,374,135708,1,8,0:0:0:0:
383,193,135874,1,0,0:0:0:0:
379,379,136041,1,0,0:0:0:0:
222,225,136208,2,0,L|229:31,1,183.999994384766,2|0,0:0|0:0,0:0:0:0:
38,146,136708,1,8,0:0:0:0:
133,238,136874,1,0,0:0:0:0:
107,62,137041,1,0,0:0:0:0:
85,317,137208,6,0,B|199:352|165:277|264:306,1,183.999994384766,2|0,0:0|0:0,0:0:0:0:
454,155,137708,1,8,0:0:0:0:
476,331,137874,1,0,0:0:0:0:
336,198,138041,1,0,0:0:0:0:
133,246,138208,2,0,L|146:63,1,183.999994384766,2|0,0:0|0:0,0:0:0:0:
425,84,138708,1,8,0:0:0:0:
357,297,138874,1,8,0:3:0:0:
83,328,139041,1,4,0:3:0:0:
285,152,139208,6,0,L|481:171,1,183.999994384766,6|0,0:0|0:0,0:0:0:0:
181,109,139708,1,8,0:0:0:0:
263,257,139874,1,0,0:0:0:0:
258,54,140041,1,0,0:0:0:0:
145,366,140208,2,0,L|127:178,1,183.999994384766,2|0,0:0|0:0,0:0:0:0:
14,316,140708,1,8,0:0:0:0:
228,313,140874,1,0,0:0:0:0:
181,109,141041,1,0,0:0:0:0:
451,242,141208,6,0,L|257:222,1,183.999994384766,2|0,0:0|0:0,0:0:0:0:
461,128,141708,1,8,0:0:0:0:
498,317,141874,1,0,0:0:0:0:
347,151,142041,1,0,0:0:0:0:
231,310,142208,2,0,L|47:328,1,183.999994384766,2|0,0:0|0:0,0:0:0:0:
150,86,142708,1,8,0:0:0:0:
228,208,142874,1,8,0:3:0:0:
57,164,143041,1,4,0:3:0:0:
313,166,143208,6,0,B|334:286|268:235|292:342,1,183.999994384766,6|0,0:0|0:0,0:0:0:0:
412,144,143708,1,8,0:0:0:0:
209,103,143874,1,0,0:0:0:0:
366,47,144041,1,0,0:0:0:0:
192,196,144208,2,0,B|124:213|124:213|1:202,1,183.999994384766,2|0,0:0|0:0,0:0:0:0:
228,280,144708,1,8,0:0:0:0:
255,83,144874,1,0,0:0:0:0:
115,129,145041,1,0,0:0:0:0:
316,168,145208,6,0,B|311:227|311:227|320:278|320:278|315:351,1,183.999994384766,2|0,0:0|0:0,0:0:0:0:
413,97,145708,1,8,0:0:0:0:
209,103,145874,1,0,0:0:0:0:
392,229,146041,1,0,0:0:0:0:
351,36,146208,2,0,P|445:18|503:94,1,183.999994384766,2|0,0:0|0:0,0:0:0:0:
316,168,146708,1,8,0:0:0:0:
91,123,146874,1,8,0:3:0:0:
10,336,147041,1,4,0:3:0:0:
404,341,147208,6,0,L|397:226,1,115.000004386902,14|0,0:0|0:0,0:0:0:0:
402,212,147458,1,0,0:0:0:0:
408,199,147541,1,4,0:0:0:0:
422,31,147708,5,2,0:0:0:0:
449,104,147874,1,2,0:0:0:0:
430,108,147957,1,2,0:0:0:0:
411,109,148040,1,2,0:0:0:0:
258,71,148208,5,2,0:0:0:0:
231,144,148374,1,2,0:0:0:0:
249,148,148457,1,2,0:0:0:0:
268,149,148540,1,2,0:0:0:0:
71,128,148708,5,2,0:0:0:0:
152,98,148874,1,2,0:0:0:0:
87,40,149041,1,2,0:0:0:0:
52,272,149208,6,0,L|166:278,1,115.000004386902,14|0,0:0|0:0,0:0:0:0:
181,274,149458,1,0,0:0:0:0:
194,268,149541,1,4,0:0:0:0:
352,219,149708,5,2,0:0:0:0:
362,297,149874,1,2,0:0:0:0:
343,296,149957,1,2,0:0:0:0:
325,292,150040,1,2,0:0:0:0:
452,139,150208,5,2,0:0:0:0:
442,217,150374,1,2,0:0:0:0:
461,216,150457,1,2,0:0:0:0:
479,212,150540,1,2,0:0:0:0:
188,40,150708,6,0,L|176:289,1,230.000008773804,4|0,0:0|0:0,0:0:0:0:
351,340,151208,6,0,B|290:330|305:373|241:364,1,115.000004386902,14|0,0:0|0:0,0:0:0:0:
225,355,151458,1,0,0:0:0:0:
208,346,151541,1,4,0:0:0:0:
80,202,151708,6,0,L|137:200,1,57.500002193451,2|2,0:0|0:0,0:0:0:0:
158,198,151958,1,2,0:0:0:0:
181,197,152041,1,2,0:0:0:0:
325,119,152208,6,0,L|267:117,1,57.500002193451,2|2,0:0|0:0,0:0:0:0:
246,115,152458,1,2,0:0:0:0:
223,114,152541,1,2,0:0:0:0:
250,255,152708,5,2,0:0:0:0:
333,246,152874,1,2,0:0:0:0:
416,237,153041,1,2,0:0:0:0:
141,315,153208,5,14,0:0:0:0:
126,200,153374,1,10,0:3:0:0:
131,238,153458,1,2,0:0:0:0:
131,238,153541,1,14,0:3:0:0:
270,146,153708,5,14,0:0:0:0:
267,272,153874,1,10,0:3:0:0:
268,230,153958,1,2,0:0:0:0:
268,230,154041,1,6,0:3:0:0:
410,309,154208,5,14,0:0:0:0:
425,171,154374,1,10,0:3:0:0:
420,217,154458,1,2,0:0:0:0:
420,217,154541,1,6,0:3:0:0:
459,98,154708,6,0,B|401:78|406:105|361:89,1,99.6666621042889,14|2,0:0|0:0,0:0:0:0:
334,79,155208,6,0,L|339:321,1,230.000008773804,6|0,0:0|0:0,0:0:0:0:
148,80,155708,1,10,0:0:0:0:
249,162,155874,1,0,0:0:0:0:
54,124,156041,1,0,0:0:0:0:
256,52,156208,2,0,L|501:60,1,230.000008773804,2|0,0:0|0:0,0:0:0:0:
277,301,156708,1,10,0:0:0:0:
240,148,156874,1,0,0:0:0:0:
408,256,157041,1,0,0:0:0:0:
156,342,157208,6,0,L|135:113,1,230.000008773804,2|0,0:0|0:0,0:0:0:0:
59,252,157708,1,10,0:0:0:0:
281,313,157874,1,0,0:0:0:0:
46,349,158041,1,0,0:0:0:0:
270,127,158208,1,2,0:0:0:0:
201,275,158374,1,0,0:0:0:0:
153,106,158541,1,0,0:0:0:0:
307,242,158708,2,0,L|539:255,1,230.000008773804,14|0,0:0|0:0,0:0:0:0:
238,60,159208,6,0,B|271:198|191:144|225:284,1,230.000008773804,6|0,0:0|0:0,0:0:0:0:
151,38,159708,1,10,0:0:0:0:
350,113,159874,1,0,0:0:0:0:
139,147,160041,1,0,0:0:0:0:
63,376,160208,2,0,L|47:140,1,230.000008773804,2|0,0:0|0:0,0:0:0:0:
276,255,160708,1,10,0:0:0:0:
142,324,160874,1,0,0:0:0:0:
130,161,161041,1,0,0:0:0:0:
383,53,161208,5,14,0:0:0:0:
392,324,161374,1,8,0:3:0:0:
225,60,161541,1,4,0:3:0:0:
476,216,161708,5,14,0:0:0:0:
183,269,161874,1,8,0:3:0:0:
481,93,162041,1,4,0:3:0:0:
121,21,162208,5,14,0:0:0:0:
86,342,162374,1,8,0:3:0:0:
361,34,162541,1,4,0:3:0:0:
408,296,162708,5,10,0:0:0:0:
231,247,162874,1,8,0:0:0:0:
54,198,163041,1,8,0:0:0:0:
319,116,163208,6,0,B|313:186|313:186|323:250|323:250|314:367,1,230.000008773804,6|0,0:0|0:0,0:0:0:0:
203,134,163708,1,10,0:0:0:0:
107,268,163874,1,0,0:0:0:0:
231,247,164041,1,0,0:0:0:0:
30,62,164208,2,0,B|170:105|134:27|254:61,1,230.000008773804,2|0,0:0|0:0,0:0:0:0:
341,268,164708,1,10,0:0:0:0:
373,72,164874,1,0,0:0:0:0:
252,180,165041,1,0,0:0:0:0:
475,306,165208,6,0,L|464:76,1,230.000008773804,2|0,0:0|0:0,0:0:0:0:
263,295,165708,1,10,0:0:0:0:
182,101,165874,1,0,0:0:0:0:
366,217,166041,1,0,0:0:0:0:
113,184,166208,1,2,0:0:0:0:
341,79,166374,1,0,0:0:0:0:
149,296,166541,1,0,0:0:0:0:
264,51,166708,2,0,L|253:292,1,230.000008773804,14|0,0:0|0:0,0:0:0:0:
0,80,167208,6,0,P|74:41|187:147,1,230.000008773804,6|0,0:0|0:0,0:0:0:0:
49,315,167708,1,10,0:0:0:0:
83,140,167874,1,0,0:0:0:0:
265,214,168041,1,0,0:0:0:0:
492,108,168208,2,0,L|251:124,1,230.000008773804,2|0,0:0|0:0,0:0:0:0:
206,338,168708,1,10,0:0:0:0:
357,195,168874,1,0,0:0:0:0:
157,146,169041,1,0,0:0:0:0:
272,29,169208,5,14,0:0:0:0:
347,315,169374,1,8,0:3:0:0:
65,213,169541,1,4,0:3:0:0:
440,268,169708,5,14,0:0:0:0:
160,366,169874,1,8,0:3:0:0:
160,28,170041,1,4,0:3:0:0:
301,378,170208,5,14,0:0:0:0:
32,118,170374,1,8,0:3:0:0:
441,95,170541,1,4,0:3:0:0:
160,366,170708,5,14,0:0:0:0:
207,202,170874,1,8,0:0:0:0:
254,38,171041,1,8,0:0:0:0:
430,335,171208,6,0,B|357:329|357:329|328:339|328:339|230:332,1,183.999994384766,6|0,0:0|0:0,0:0:0:0:
125,164,171708,1,10,0:0:0:0:
298,132,171874,1,0,0:0:0:0:
132,280,172041,1,0,0:0:0:0:
211,29,172208,2,0,L|207:147,1,91.9999971923829,2|0,0:0|0:0,0:0:0:0:
269,269,172541,1,0,0:0:0:0:
480,201,172708,2,0,L|296:214,1,153.333333333333,14|0,0:0|0:0,0:0:0:0:
75,221,173208,6,0,P|143:189|217:203,1,153.333333333333,2|0,0:0|0:0,0:0:0:0:
394,263,173708,2,0,L|384:360,1,76.6666666666667,10|0,0:0|0:0,0:0:0:0:
328,213,174041,1,0,0:0:0:0:
180,191,174208,2,0,L|190:288,1,76.6666666666667,2|0,0:0|0:0,0:0:0:0:
246,141,174541,1,0,0:0:0:0:
498,71,174708,5,10,0:0:0:0:
393,51,174874,1,8,0:3:0:0:
288,31,175041,1,4,0:3:0:0:
16,100,175208,6,0,L|218:80,1,183.999994384766,6|0,0:0|0:0,0:0:0:0:
120,286,175708,1,10,0:0:0:0:
22,190,175874,1,0,0:0:0:0:
211,232,176041,1,0,0:0:0:0:
321,124,176208,2,0,B|412:133,1,91.9999971923829,2|0,0:0|0:0,0:0:0:0:
476,306,176541,1,0,0:0:0:0:
330,367,176708,2,0,L|337:207,1,153.333333333333,6|0,0:0|0:0,0:0:0:0:
237,142,177208,6,0,L|243:295,1,153.333333333333,2|0,0:0|0:0,0:0:0:0:
137,174,177708,1,10,0:0:0:0:
183,71,177874,1,8,0:3:0:0:
303,78,178041,1,4,0:3:0:0:
247,220,178208,5,10,0:0:0:0:
137,174,178374,1,8,0:3:0:0:
26,127,178541,1,4,0:3:0:0:
303,78,178708,5,10,0:0:0:0:
247,220,178874,1,8,0:3:0:0:
191,362,179041,1,4,0:3:0:0:
322,169,179208,6,0,L|515:159,1,183.999994384766,6|0,0:0|0:0,0:0:0:0:
303,78,179708,1,10,0:0:0:0:
326,263,179874,1,0,0:0:0:0:
413,83,180041,1,0,0:0:0:0:
212,147,180208,2,0,L|98:137,1,91.9999971923829,2|0,0:0|0:0,0:0:0:0:
17,38,180541,1,0,0:0:0:0:
43,197,180708,2,0,L|27:380,1,153.333333333333,14|0,0:0|0:0,0:0:0:0:
255,273,181208,6,0,P|201:251|114:279,1,153.333333333333,2|0,0:0|0:0,0:0:0:0:
371,365,181708,2,0,L|465:361,1,76.6666666666667,10|0,0:0|0:0,0:0:0:0:
334,294,182041,1,0,0:0:0:0:
208,164,182208,2,0,L|114:160,1,76.6666666666667,2|0,0:0|0:0,0:0:0:0:
245,93,182541,1,0,0:0:0:0:
430,32,182708,5,10,0:0:0:0:
423,164,182874,1,8,0:3:0:0:
416,296,183041,1,4,0:3:0:0:
183,247,183208,6,0,B|297:270|261:202|359:221,1,183.999994384766,6|0,0:0|0:0,0:0:0:0:
124,321,183708,1,10,0:0:0:0:
8,178,183874,1,0,0:0:0:0:
225,176,184041,1,0,0:0:0:0:
83,133,184208,2,0,L|104:13,1,91.9999971923829,2|0,0:0|0:0,0:0:0:0:
135,212,184541,1,0,0:0:0:0:
294,121,184708,2,0,P|314:202|283:322,1,191.666666666667,14|0,0:0|0:0,0:0:0:0:
282,310,185208,5,2,0:0:0:0:
270,310,185707,5,10,0:0:0:0:
171,283,185874,1,8,0:3:0:0:
72,256,186041,1,4,0:3:0:0:
345,55,186208,5,10,0:0:0:0:
357,196,186375,1,8,0:3:0:0:
369,337,186541,1,4,0:3:0:0:
103,112,186708,5,10,0:0:0:0:
265,123,186874,1,8,0:3:0:0:
427,134,187041,1,4,0:3:0:0:
192,252,187208,6,0,B|226:177|159:157|190:70,1,183.999994384766,6|0,0:0|0:0,0:0:0:0:
379,284,187708,1,10,0:0:0:0:
269,326,187874,1,0,0:0:0:0:
332,207,188041,1,0,0:0:0:0:
469,336,188208,2,0,L|484:153,1,183.999994384766,2|0,0:0|0:0,0:0:0:0:
226,138,188708,1,10,0:0:0:0:
294,51,188874,1,0,0:0:0:0:
305,193,189041,1,0,0:0:0:0:
189,55,189208,6,0,L|3:66,1,183.999994384766,2|0,0:0|0:0,0:0:0:0:
176,210,189708,1,10,0:0:0:0:
246,144,189874,1,0,0:0:0:0:
107,150,190041,1,0,0:0:0:0:
268,233,190208,2,0,B|338:225|338:225|363:203|363:203|442:196,1,183.999994384766,2|0,0:0|0:0,0:0:0:0:
283,51,190708,1,10,0:0:0:0:
292,146,190874,1,0,0:0:0:0:
386,71,191041,1,0,0:0:0:0:
194,108,191208,6,0,L|219:295,1,183.999994384766,2|0,0:0|0:0,0:0:0:0:
29,168,191708,1,10,0:0:0:0:
122,189,191874,1,0,0:0:0:0:
15,265,192041,1,0,0:0:0:0:
45,73,192208,2,0,B|131:64|131:64|150:74|150:74|251:64,1,183.999994384766,2|0,0:0|0:0,0:0:0:0:
390,233,192708,1,10,0:0:0:0:
444,155,192874,1,0,0:0:0:0:
478,269,193041,1,0,0:0:0:0:
309,184,193208,6,0,L|119:195,1,183.999994384766,2|0,0:0|0:0,0:0:0:0:
292,344,193708,1,10,0:0:0:0:
368,279,193874,1,0,0:0:0:0:
231,267,194041,1,0,0:0:0:0:
453,340,194208,2,0,L|463:129,1,183.999994384766,2|0,0:0|0:0,0:0:0:0:
232,68,194708,1,10,0:0:0:0:
326,51,194874,1,0,0:0:0:0:
251,165,195041,1,0,0:0:0:0:
95,67,195208,6,0,B|122:182|70:138|96:248,1,183.999994384766,2|0,0:0|0:0,0:0:0:0:
334,292,195708,1,10,0:0:0:0:
413,235,195874,1,0,0:0:0:0:
292,191,196041,1,0,0:0:0:0:
208,323,196208,2,0,L|18:304,1,183.999994384766,2|0,0:0|0:0,0:0:0:0:
181,45,196708,1,10,0:0:0:0:
206,146,196874,1,0,0:0:0:0:
99,102,197041,1,0,0:0:0:0:
283,95,197208,6,0,L|472:106,1,183.999994384766,2|0,0:0|0:0,0:0:0:0:
316,275,197708,1,10,0:0:0:0:
486,277,197874,1,0,0:0:0:0:
388,206,198041,1,0,0:0:0:0:
240,313,198208,2,0,B|217:203|283:247|263:136,1,183.999994384766,2|0,0:0|0:0,0:0:0:0:
37,100,198708,1,10,0:0:0:0:
87,198,198874,1,0,0:0:0:0:
130,66,199041,1,0,0:0:0:0:
189,329,199208,6,0,L|180:141,1,183.999994384766,2|0,0:0|0:0,0:0:0:0:
449,73,199708,1,10,0:0:0:0:
385,149,199874,1,0,0:0:0:0:
510,135,200041,1,0,0:0:0:0:
306,60,200208,2,0,L|297:243,1,183.999994384766,2|0,0:0|0:0,0:0:0:0:
477,349,200708,1,10,0:0:0:0:
417,279,200874,1,0,0:0:0:0:
319,345,201041,1,0,0:0:0:0:
102,287,201208,6,0,L|92:175,1,76.6666666666667,8|8,0:3|0:3,0:0:0:0:
104,191,201458,1,8,0:3:0:0:
113,172,201541,1,8,0:3:0:0:
339,137,201708,6,0,P|270:174|229:169,1,84.3333359069825,8|8,0:3|0:3,0:0:0:0:
245,168,201958,1,8,0:3:0:0:
224,162,202041,1,8,0:3:0:0:
402,52,202208,5,4,0:3:0:0:
436,155,202374,1,4,0:3:0:0:
310,57,202541,1,4,0:3:0:0:
45,114,202708,5,4,0:3:0:0:
104,191,202874,1,4,0:3:0:0:
115,40,203041,1,4,0:3:0:0:
45,270,203208,6,0,B|95:287|95:287|234:281,1,183.999994384766,6|0,0:0|0:0,0:0:0:0:
233,113,203708,1,10,0:0:0:0:
190,198,203874,1,0,0:0:0:0:
345,126,204041,1,0,0:0:0:0:
183,35,204208,2,0,L|0:43,1,183.999994384766,2|0,0:0|0:0,0:0:0:0:
190,198,204708,1,10,0:0:0:0:
307,60,204874,1,0,0:0:0:0:
129,129,205041,1,0,0:0:0:0:
340,157,205208,6,0,L|339:346,1,183.999994384766,2|0,0:0|0:0,0:0:0:0:
99,269,205708,1,10,0:0:0:0:
190,198,205874,1,0,0:0:0:0:
149,349,206041,1,0,0:0:0:0:
55,126,206208,2,0,B|103:151|142:138|146:115|186:103|244:131,1,183.999994384766,2|0,0:0|0:0,0:0:0:0:
411,244,206708,1,10,0:0:0:0:
507,187,206874,1,8,0:3:0:0:
326,167,207041,1,4,0:3:0:0:
472,334,207208,6,0,L|272:325,1,183.999994384766,6|0,0:0|0:0,0:0:0:0:
70,226,207708,1,10,0:0:0:0:
199,182,207874,1,0,0:0:0:0:
95,316,208041,1,0,0:0:0:0:
76,86,208208,2,0,L|266:100,1,183.999994384766,2|0,0:0|0:0,0:0:0:0:
426,273,208708,1,10,0:0:0:0:
497,159,208874,1,0,0:0:0:0:
483,348,209041,1,0,0:0:0:0:
346,178,209208,6,0,B|333:244|333:244|348:372,1,183.999994384766,2|0,0:0|0:0,0:0:0:0:
445,175,209708,1,10,0:0:0:0:
348,83,209874,1,0,0:0:0:0:
250,180,210041,1,0,0:0:0:0:
67,82,210208,2,0,L|260:94,1,183.999994384766,2|0,0:0|0:0,0:0:0:0:
408,289,210708,1,10,0:0:0:0:
191,315,210874,1,8,0:3:0:0:
24,192,211041,1,4,0:3:0:0:
317,154,211208,6,0,B|314:236|314:236|325:254|325:254|322:365,1,183.999994384766,6|0,0:0|0:0,0:0:0:0:
479,140,211708,1,10,0:0:0:0:
412,33,211874,1,0,0:0:0:0:
410,208,212041,1,0,0:0:0:0:
293,57,212208,2,0,L|105:53,1,183.999994384766,2|0,0:0|0:0,0:0:0:0:
232,285,212708,1,10,0:0:0:0:
324,156,212874,1,0,0:0:0:0:
186,155,213041,1,0,0:0:0:0:
323,254,213208,6,0,L|511:250,1,183.999994384766,2|0,0:0|0:0,0:0:0:0:
279,352,213708,1,10,0:0:0:0:
206,237,213874,1,0,0:0:0:0:
54,329,214041,1,0,0:0:0:0:
131,184,214208,2,0,B|98:298|165:272|140:362,1,183.999994384766,2|0,0:0|0:0,0:0:0:0:
59,91,214708,1,10,0:0:0:0:
211,146,214874,1,8,0:3:0:0:
41,195,215041,1,4,0:3:0:0:
161,51,215208,6,0,L|360:65,1,183.999994384766,6|0,0:0|0:0,0:0:0:0:
357,324,215708,1,10,0:0:0:0:
281,254,215874,1,0,0:0:0:0:
442,258,216041,1,0,0:0:0:0:
203,327,216208,2,0,B|191:252|191:252|212:138,1,183.999994384766,2|0,0:0|0:0,0:0:0:0:
109,289,216708,1,10,0:0:0:0:
276,377,216874,1,0,0:0:0:0:
139,384,217041,1,0,0:0:0:0:
294,288,217208,6,0,L|285:99,1,183.999994384766,2|0,0:0|0:0,0:0:0:0:
30,196,217708,5,10,0:0:0:0:
189,321,217874,1,8,0:3:0:0:
154,119,218041,1,4,0:3:0:0:
57,336,218208,5,10,0:0:0:0:
336,332,218374,1,8,0:3:0:0:
53,111,218541,1,4,0:3:0:0:
137,380,218708,5,10,0:0:0:0:
271,51,218874,1,8,0:3:0:0:
437,335,219041,1,4,0:3:0:0:
132,226,219208,6,0,L|146:26,1,183.999994384766,6|0,0:0|0:0,0:0:0:0:
232,204,219708,1,10,0:0:0:0:
177,309,219874,1,0,0:0:0:0:
49,216,220041,1,0,0:0:0:0:
272,285,220208,2,0,L|471:272,1,183.999994384766,2|0,0:0|0:0,0:0:0:0:
244,372,220708,1,10,0:0:0:0:
97,298,220874,1,0,0:0:0:0:
228,211,221041,1,0,0:0:0:0:
131,43,221208,6,0,L|140:226,1,183.999994384766,2|0,0:0|0:0,0:0:0:0:
374,272,221708,1,10,0:0:0:0:
243,315,221874,1,0,0:0:0:0:
445,345,222041,1,0,0:0:0:0:
423,170,222208,2,0,L|238:157,1,183.999994384766,2|0,0:0|0:0,0:0:0:0:
493,106,222708,1,10,0:0:0:0:
465,240,222874,1,8,0:3:0:0:
411,57,223041,1,4,0:3:0:0:
238,156,223208,6,0,L|246:340,1,183.999994384766,6|0,0:0|0:0,0:0:0:0:
39,170,223708,1,10,0:0:0:0:
157,112,223874,1,0,0:0:0:0:
108,239,224041,1,0,0:0:0:0:
13,41,224208,2,0,B|68:62|108:58|115:27|152:22|197:39,1,183.999994384766,2|0,0:0|0:0,0:0:0:0:
293,181,224708,5,10,0:0:0:0:
433,121,224874,1,0,0:0:0:0:
265,75,225041,1,0,0:0:0:0:
385,196,225208,2,0,L|381:386,1,183.999994384766,2|0,0:0|0:0,0:0:0:0:
166,260,225708,1,10,0:0:0:0:
51,301,225874,1,0,0:0:0:0:
246,342,226041,1,0,0:0:0:0:
87,215,226208,2,0,L|83:31,1,183.999994384766,2|0,0:0|0:0,0:0:0:0:
129,347,226708,1,10,0:0:0:0:
351,276,226874,1,8,0:3:0:0:
464,70,227041,1,4,0:3:0:0:
182,37,227208,6,0,L|178:220,1,183.999994384766,6|0,0:0|0:0,0:0:0:0:
455,208,227708,1,10,0:0:0:0:
365,116,227874,1,0,0:0:0:0:
428,313,228041,1,0,0:0:0:0:
178,220,228208,2,0,L|395:207,1,183.999994384766,2|0,0:0|0:0,0:0:0:0:
117,144,228708,1,10,0:0:0:0:
21,283,228874,1,0,0:0:0:0:
163,302,229041,1,0,0:0:0:0:
27,186,229208,6,0,B|35:117|35:117|53:70|53:70|60:3,1,183.999994384766,2|0,0:0|0:0,0:0:0:0:
234,188,229708,1,10,0:0:0:0:
308,90,229874,1,0,0:0:0:0:
117,144,230041,1,0,0:0:0:0:
326,195,230208,2,0,L|333:385,1,183.999994384766,2|0,0:0|0:0,0:0:0:0:
11,210,230708,1,10,0:0:0:0:
267,47,230874,1,0,0:0:0:0:
194,314,231041,1,0,0:0:0:0:
3,112,231208,6,0,L|245:125,1,230.000008773804,14|4,0:0|0:0,0:0:0:0:
405,63,231708,5,10,0:0:0:0:
357,131,231874,1,2,0:0:0:0:
435,141,232041,1,2,0:0:0:0:
295,191,232208,5,10,0:0:0:0:
317,274,232374,1,2,0:0:0:0:
376,214,232541,1,2,0:0:0:0:
210,222,232708,5,10,0:0:0:0:
120,215,232874,1,2,0:0:0:0:
169,145,233041,1,2,0:0:0:0:
29,362,233208,6,0,L|22:132,1,230.000008773804,14|4,0:0|0:0,0:0:0:0:
224,76,233708,5,10,0:0:0:0:
256,155,233874,1,2,0:0:0:0:
169,145,234041,1,2,0:0:0:0:
340,129,234208,5,10,0:0:0:0:
428,141,234374,1,2,0:0:0:0:
374,208,234541,1,2,0:0:0:0:
302,48,234708,5,14,0:0:0:0:
41,173,234874,1,2,0:0:0:0:
327,285,235041,1,2,0:0:0:0:
105,18,235208,6,0,B|115:118|115:118|129:136|129:136|143:241,1,230.000008773804,14|4,0:0|0:0,0:0:0:0:
0,310,235708,5,10,0:0:0:0:
73,274,235874,1,2,0:0:0:0:
68,355,236041,1,2,0:0:0:0:
203,320,236208,5,10,0:0:0:0:
272,373,236374,1,2,0:0:0:0:
282,291,236541,1,2,0:0:0:0:
228,164,236708,5,10,0:0:0:0:
274,90,236874,1,2,0:0:0:0:
310,163,237041,1,2,0:0:0:0:
107,140,237208,5,14,0:0:0:0:
72,59,237374,1,8,0:3:0:0:
186,86,237541,1,4,0:3:0:0:
119,270,237708,5,14,0:0:0:0:
203,333,237874,1,8,0:3:0:0:
48,311,238041,1,4,0:3:0:0:
249,260,238208,5,14,0:0:0:0:
350,314,238374,1,8,0:3:0:0:
299,162,238541,1,4,0:3:0:0:
139,197,238708,6,0,B|122:151|160:163|143:103,1,95.8333333333333,14|0,0:0|0:0,0:0:0:0:
127,95,239208,6,0,B|255:116|220:44|350:65,1,230.000008773804,6|0,0:0|0:0,0:0:0:0:
31,180,239708,1,10,0:0:0:0:
15,38,239874,1,0,0:0:0:0:
142,185,240041,1,0,0:0:0:0:
18,318,240208,2,0,L|257:309,1,230.000008773804,2|0,0:0|0:0,0:0:0:0:
356,106,240708,1,10,0:0:0:0:
311,238,240874,1,0,0:0:0:0:
469,166,241041,1,0,0:0:0:0:
246,170,241208,6,0,L|11:153,1,230.000008773804,2|0,0:0|0:0,0:0:0:0:
303,71,241708,1,10,0:0:0:0:
351,237,241874,1,0,0:0:0:0:
194,82,242041,1,0,0:0:0:0:
435,139,242208,1,2,0:0:0:0:
227,231,242374,1,0,0:0:0:0:
394,36,242541,1,0,0:0:0:0:
107,24,242708,2,0,L|92:287,1,230.000008773804,10|0,0:0|0:0,0:0:0:0:
320,336,243208,6,0,P|329:224|221:138,1,230.000008773804,6|0,0:0|0:0,0:0:0:0:
60,313,243708,1,10,0:0:0:0:
203,338,243874,1,0,0:0:0:0:
75,144,244041,1,0,0:0:0:0:
171,50,244208,2,0,L|138:287,1,230.000008773804,2|0,0:0|0:0,0:0:0:0:
355,194,244708,1,10,0:0:0:0:
288,66,244874,1,0,0:0:0:0:
268,257,245041,1,0,0:0:0:0:
438,106,245208,5,14,0:0:0:0:
173,68,245374,1,8,0:3:0:0:
437,291,245541,1,4,0:3:0:0:
140,254,245708,5,14,0:0:0:0:
355,28,245874,1,8,0:3:0:0:
346,354,246041,1,4,0:3:0:0:
74,76,246208,5,14,0:0:0:0:
477,98,246374,1,8,0:3:0:0:
194,358,246541,1,4,0:3:0:0:
355,28,246708,5,14,0:0:0:0:
383,188,246874,1,8,0:0:0:0:
411,348,247041,1,8,0:0:0:0:
282,179,247208,6,0,L|144:171,1,115.000004386902,6|0,0:0|0:0,0:0:0:0:
156,164,247458,1,0,0:0:0:0:
145,156,247541,1,0,0:0:0:0:
25,303,247708,1,8,0:0:0:0:
36,311,247791,1,0,0:0:0:0:
47,319,247875,2,0,L|161:325,1,115.000004386902
346,197,248208,1,2,0:0:0:0:
346,197,248291,1,0,0:0:0:0:
346,197,248374,1,0,0:0:0:0:
243,69,248541,1,0,0:0:0:0:
290,294,248708,1,8,0:0:0:0:
427,134,248874,1,0,0:0:0:0:
201,254,249041,1,0,0:0:0:0:
422,360,249208,6,0,L|426:246,1,115.000004386902,2|0,0:0|0:0,0:0:0:0:
415,232,249458,1,0,0:0:0:0:
404,218,249541,1,0,0:0:0:0:
265,41,249708,1,8,0:0:0:0:
254,55,249791,1,0,0:0:0:0:
243,69,249875,2,0,L|246:183,1,115.000004386902
465,133,250208,1,2,0:0:0:0:
356,62,250374,1,0,0:0:0:0:
356,62,250458,1,0,0:0:0:0:
356,62,250541,1,0,0:0:0:0:
356,190,250708,1,8,0:0:0:0:
465,48,250874,1,0,0:0:0:0:
226,51,251041,1,0,0:0:0:0:
274,342,251208,6,0,L|277:227,1,115.000004386902,2|0,0:0|0:0,0:0:0:0:
267,213,251458,1,0,0:0:0:0:
256,199,251541,1,0,0:0:0:0:
61,84,251708,1,8,0:0:0:0:
50,98,251791,1,0,0:0:0:0:
39,112,251875,2,0,L|42:226,1,115.000004386902
192,317,252208,1,2,0:0:0:0:
211,116,252374,1,0,0:0:0:0:
211,116,252458,1,0,0:0:0:0:
211,116,252541,1,0,0:0:0:0:
101,260,252708,1,8,0:0:0:0:
312,301,252874,1,0,0:0:0:0:
459,152,253041,1,0,0:0:0:0:
285,24,253208,5,2,0:0:0:0:
414,313,253374,1,0,0:0:0:0:
447,37,253541,1,0,0:0:0:0:
123,186,253708,5,8,0:0:0:0:
475,244,253874,1,0,0:0:0:0:
67,337,254041,1,0,0:0:0:0:
250,23,254208,5,2,0:0:0:0:
335,311,254374,1,0,0:0:0:0:
19,106,254541,1,0,0:0:0:0:
327,45,254708,5,8,0:0:0:0:
296,214,254874,1,0,0:0:0:0:
265,383,255041,1,0,0:0:0:0:
24,205,255208,6,0,B|80:186|80:186|203:204,1,183.999994384766,2|0,0:0|0:0,0:0:0:0:
419,134,255708,1,8,0:0:0:0:
321,261,255874,1,0,0:0:0:0:
468,314,256041,1,0,0:0:0:0:
338,179,256207,2,0,B|302:83|385:98|355:3,1,183.999994384766,2|0,0:0|0:0,0:0:0:0:
130,129,256707,1,8,0:0:0:0:
255,42,256874,1,0,0:0:0:0:
232,232,257041,1,0,0:0:0:0:
52,52,257207,6,0,B|29:115|29:115|45:255,1,183.999994384766,2|0,0:0|0:0,0:0:0:0:
226,340,257707,1,8,0:0:0:0:
260,142,257874,1,0,0:0:0:0:
135,262,258041,1,0,0:0:0:0:
347,384,258207,2,0,L|336:194,1,183.999994384766,2|0,0:0|0:0,0:0:0:0:
457,26,258707,1,8,0:0:0:0:
337,81,258874,1,0,0:0:0:0:
481,152,259041,1,0,0:0:0:0:
238,15,259207,6,0,L|227:198,1,183.999994384766,2|0,0:0|0:0,0:0:0:0:
99,291,259707,1,8,0:0:0:0:
10,195,259874,1,0,0:0:0:0:
207,301,260041,1,0,0:0:0:0:
404,162,260207,2,0,B|327:171|327:171|303:188|303:188|225:198,1,183.999994384766,2|0,0:0|0:0,0:0:0:0:
488,205,260707,1,8,0:0:0:0:
372,78,260874,1,0,0:0:0:0:
374,261,261041,1,0,0:0:0:0:
512,22,261207,6,0,B|429:53|420:-22|335:5,1,183.999994384766,2|0,0:0|0:0,0:0:0:0:
118,38,261707,1,8,0:0:0:0:
298,98,261874,1,0,0:0:0:0:
68,137,262041,1,0,0:0:0:0:
211,24,262208,2,0,L|199:223,1,183.999994384766,2|0,0:0|0:0,0:0:0:0:
495,137,262708,1,8,0:0:0:0:
326,277,262874,1,0,0:0:0:0:
75,258,263041,1,0,0:0:0:0:
404,73,263208,6,0,L|416:272,1,183.999994384766,2|0,0:0|0:0,0:0:0:0:
163,311,263708,1,8,0:0:0:0:
282,165,263874,1,0,0:0:0:0:
301,320,264041,1,0,0:0:0:0:
191,186,264208,2,0,B|121:202|121:202|6:188,1,183.999994384766,2|0,0:0|0:0,0:0:0:0:
319,51,264708,1,8,0:0:0:0:
297,210,264874,1,0,0:0:0:0:
181,93,265041,1,0,0:0:0:0:
385,135,265208,6,0,B|418:235|367:229|396:315,1,183.999994384766,2|0,0:0|0:0,0:0:0:0:
476,135,265708,1,8,0:0:0:0:
296,34,265874,1,0,0:0:0:0:
461,30,266041,1,0,0:0:0:0:
282,168,266208,2,0,L|95:157,1,183.999994384766,2|0,0:0|0:0,0:0:0:0:
322,252,266708,2,0,P|376:182|348:99,1,183.999994384766,8|0,0:0|0:0,0:0:0:0:
239,346,267208,6,0,L|426:335,1,183.999994384766,2|0,0:0|0:0,0:0:0:0:
184,215,267708,1,8,0:0:0:0:
101,344,267874,1,0,0:0:0:0:
271,264,268041,1,0,0:0:0:0:
90,192,268208,2,0,L|98:9,1,183.999994384766,2|0,0:0|0:0,0:0:0:0:
339,98,268708,1,8,0:0:0:0:
235,188,268874,1,0,0:0:0:0:
252,35,269041,1,0,0:0:0:0:
317,262,269208,6,0,B|272:288|272:288|126:277,1,183.999994384766,2|0,0:0|0:0,0:0:0:0:
341,164,269708,1,8,0:0:0:0:
466,268,269874,1,0,0:0:0:0:
246,196,270041,1,0,0:0:0:0:
431,187,270208,2,0,L|423:4,1,183.999994384766,2|0,0:0|0:0,0:0:0:0:
100,28,270708,1,8,0:0:0:0:
185,246,270874,1,0,0:0:0:0:
442,318,271041,1,0,0:0:0:0:
126,109,271208,6,0,B|153:216|79:184|108:285,1,183.999994384766,2|0,0:0|0:0,0:0:0:0:
100,28,271708,1,8,0:0:0:0:
214,131,271875,1,0,0:0:0:0:
46,149,272041,1,0,0:0:0:0:
213,36,272208,2,0,L|417:51,1,183.999994384766,2|0,0:0|0:0,0:0:0:0:
370,278,272708,1,8,0:0:0:0:
294,162,272874,1,0,0:0:0:0:
462,193,273041,1,0,0:0:0:0:
261,268,273208,6,0,B|191:260|191:260|163:240|163:240|84:230,1,183.999994384766,2|0,0:0|0:0,0:0:0:0:
269,361,273708,1,8,0:0:0:0:
424,321,273874,1,0,0:0:0:0:
296,182,274041,1,0,0:0:0:0:
389,49,274208,2,0,L|383:233,1,183.999994384766,2|0,0:0|0:0,0:0:0:0:
160,98,274708,1,8,0:0:0:0:
296,52,274874,1,0,0:0:0:0:
235,182,275041,1,0,0:0:0:0:
73,61,275208,6,0,B|55:170|113:129|92:239,1,183.999994384766,2|0,0:0|0:0,0:0:0:0:
292,291,275708,1,8,0:0:0:0:
235,182,275874,1,0,0:0:0:0:
183,329,276041,1,0,0:0:0:0:
341,209,276208,2,0,L|346:21,1,183.999994384766,2|0,0:0|0:0,0:0:0:0:
464,274,276708,1,8,0:0:0:0:
327,299,276874,1,0,0:0:0:0:
427,176,277041,1,0,0:0:0:0:
357,381,277208,6,0,B|263:398|276:339|178:358,1,183.999994384766,2|0,0:0|0:0,0:0:0:0:
86,148,277708,1,8,0:0:0:0:
187,262,277874,1,0,0:0:0:0:
25,231,278041,1,0,0:0:0:0:
191,162,278208,2,0,L|389:172,1,183.999994384766,2|0,0:0|0:0,0:0:0:0:
133,20,278708,1,8,0:0:0:0:
187,262,278874,1,0,0:0:0:0:
425,332,279041,1,0,0:0:0:0:
469,28,279208,6,0,L|477:240,1,183.999994384766,2|0,0:0|0:0,0:0:0:0:
300,140,279708,1,8,0:0:0:0:
205,44,279874,1,0,0:0:0:0:
378,47,280041,1,0,0:0:0:0:
201,143,280208,2,0,L|193:355,1,183.999994384766,2|0,0:0|0:0,0:0:0:0:
12,131,280708,1,8,0:0:0:0:
123,94,280874,1,0,0:0:0:0:
73,228,281041,1,0,0:0:0:0:
67,15,281208,6,0,B|172:-10|161:41|248:18,1,183.999994384766,2|0,0:0|0:0,0:0:0:0:
436,226,281708,1,8,0:0:0:0:
343,140,281874,1,0,0:0:0:0:
490,142,282041,1,0,0:0:0:0:
331,250,282208,2,0,L|117:241,1,183.999994384766,2|0,0:0|0:0,0:0:0:0:
7,331,282708,1,8,0:0:0:0:
102,177,282874,1,0,0:0:0:0:
132,327,283041,1,0,0:0:0:0:
33,107,283208,6,0,B|97:92|97:92|213:110,1,183.999994384766,2|0,0:0|0:0,0:0:0:0:
345,295,283708,1,8,0:0:0:0:
494,167,283874,1,0,0:0:0:0:
313,134,284041,1,0,0:0:0:0:
114,216,284208,2,0,L|332:223,1,183.999994384766,2|0,0:0|0:0,0:0:0:0:
512,77,284708,1,8,0:0:0:0:
367,87,284874,1,0,0:0:0:0:
480,171,285041,1,0,0:0:0:0:
291,43,285208,6,0,B|259:135|324:123|297:221,1,183.999994384766,2|0,0:0|0:0,0:0:0:0:
86,167,285708,1,8,0:0:0:0:
196,64,285874,1,0,0:0:0:0:
220,180,286041,1,0,0:0:0:0:
26,96,286208,2,0,B|-4:157|-4:157|22:269,1,183.999994384766,2|0,0:0|0:0,0:0:0:0:
319,26,286708,1,8,0:0:0:0:
329,266,286874,1,0,0:0:0:0:
104,342,287041,1,0,0:0:0:0:
150,120,287208,6,0,L|295:109,1,115.000004386902,2|0,0:0|0:0,0:0:0:0:
278,116,287458,1,0,0:0:0:0:
292,121,287541,1,0,0:0:0:0:
459,207,287708,5,8,0:0:0:0:
369,233,287874,1,0,0:0:0:0:
369,233,287958,1,0,0:0:0:0:
369,233,288041,1,0,0:0:0:0:
204,300,288208,5,2,0:0:0:0:
294,326,288374,1,0,0:0:0:0:
294,326,288458,1,0,0:0:0:0:
294,326,288541,1,0,0:0:0:0:
143,225,288708,5,8,0:0:0:0:
63,275,288874,1,0,0:0:0:0:
124,351,289041,1,0,0:0:0:0:
74,180,289208,6,0,L|85:35,1,115.000004386902,2|0,0:0|0:0,0:0:0:0:
78,52,289458,1,0,0:0:0:0:
73,38,289541,1,0,0:0:0:0:
184,171,289708,5,8,0:0:0:0:
232,98,289874,1,0,0:0:0:0:
206,85,289957,1,0,0:0:0:0:
177,83,290040,1,0,0:0:0:0:
274,214,290208,5,2,0:0:0:0:
226,287,290374,1,0,0:0:0:0:
252,300,290457,1,0,0:0:0:0:
281,302,290540,1,0,0:0:0:0:
376,28,290708,6,0,L|359:262,1,230.000008773804,8|0,0:0|0:0,0:0:0:0:
281,83,291208,6,0,B|228:100|225:70|168:89,1,115.000004386902,2|0,0:0|0:0,0:0:0:0:
159,100,291458,1,0,0:0:0:0:
150,111,291541,1,0,0:0:0:0:
20,234,291708,6,0,L|78:232,1,57.500002193451
99,230,291958,1,0,0:0:0:0:
122,229,292041,1,0,0:0:0:0:
297,314,292208,6,0,L|239:312,1,57.500002193451,2|0,0:0|0:0,0:0:0:0:
218,310,292458,1,0,0:0:0:0:
195,309,292541,1,0,0:0:0:0:
350,163,292708,5,8,0:0:0:0:
419,243,292874,1,0,0:0:0:0:
265,220,293041,1,0,0:0:0:0:
472,174,293208,5,2,0:0:0:0:
463,30,293374,1,0,0:0:0:0:
465,59,293457,1,0,0:0:0:0:
466,87,293541,1,0,0:0:0:0:
364,61,293708,5,8,0:0:0:0:
343,231,293874,1,0,0:0:0:0:
347,196,293957,1,0,0:0:0:0:
350,163,294041,1,0,0:0:0:0:
199,215,294208,5,2,0:0:0:0:
259,18,294374,1,0,0:0:0:0:
247,59,294457,1,0,0:0:0:0:
236,96,294541,1,0,0:0:0:0:
41,118,294708,6,0,B|97:104|84:133|135:118,1,95.8333333333333,8|0,0:0|0:0,0:0:0:0:
152,106,295208,6,0,B|143:207|143:207|152:232|152:232|141:345,1,230.000008773804,2|0,0:0|0:0,0:0:0:0:
375,148,295708,1,8,0:0:0:0:
254,76,295874,1,0,0:0:0:0:
294,200,296041,1,0,0:0:0:0:
448,72,296208,2,0,B|467:149|467:149|428:307,1,230.000008773804,2|0,0:0|0:0,0:0:0:0:
188,177,296708,1,8,0:0:0:0:
293,97,296874,1,0,0:0:0:0:
240,261,297041,1,0,0:0:0:0:
92,103,297208,6,0,B|100:202|100:202|126:244|126:244|132:326,1,230.000008773804,2|0,0:0|0:0,0:0:0:0:
3,89,297708,1,8,0:0:0:0:
214,44,297874,1,0,0:0:0:0:
241,202,298041,1,0,0:0:0:0:
123,38,298208,1,2,0:0:0:0:
327,150,298374,1,0,0:0:0:0:
437,33,298541,1,0,0:0:0:0:
157,140,298708,2,0,L|176:375,1,230.000008773804,8|0,0:0|0:0,0:0:0:0:
1,147,299208,6,0,P|44:47|153:50,1,230.000008773804,2|0,0:0|0:0,0:0:0:0:
66,257,299708,1,8,0:0:0:0:
94,128,299874,1,0,0:0:0:0:
249,176,300041,1,0,0:0:0:0:
420,67,300208,2,0,L|190:86,1,230.000008773804,2|0,0:0|0:0,0:0:0:0:
349,283,300708,1,8,0:0:0:0:
461,161,300874,1,0,0:0:0:0:
330,158,301041,1,0,0:0:0:0:
505,313,301208,5,2,0:0:0:0:
390,24,301374,1,0,0:0:0:0:
198,283,301541,1,0,0:0:0:0:
485,144,301708,5,8,0:0:0:0:
101,59,301874,1,0,0:0:0:0:
325,336,302041,1,0,0:0:0:0:
12,264,302208,5,2,0:0:0:0:
312,25,302374,1,0,0:0:0:0:
421,359,302541,1,0,0:0:0:0:
6,158,302708,5,8,0:0:0:0:
251,141,302874,1,0,0:0:0:0:
496,124,303041,1,0,0:0:0:0:
171,304,303208,6,0,B|212:173|130:207|173:80,1,230.000008773804,2|0,0:0|0:0,0:0:0:0:
279,325,303708,1,8,0:0:0:0:
94,250,303874,1,0,0:0:0:0:
291,157,304041,1,0,0:0:0:0:
181,319,304208,2,0,P|103:371|-3:275,1,230.000008773804,2|0,0:0|0:0,0:0:0:0:
92,103,304708,1,8,0:0:0:0:
92,271,304874,1,0,0:0:0:0:
14,166,305041,1,0,0:0:0:0:
216,229,305208,6,0,L|458:202,1,230.000008773804,2|0,0:0|0:0,0:0:0:0:
202,18,305708,1,8,0:0:0:0:
140,175,305874,1,0,0:0:0:0:
276,84,306041,1,0,0:0:0:0:
21,106,306208,1,2,0:0:0:0:
95,271,306374,1,0,0:0:0:0:
112,76,306541,1,0,0:0:0:0:
17,346,306708,2,0,B|92:353|92:353|256:328,1,230.000008773804,8|0,0:0|0:0,0:0:0:0:
341,96,307208,6,0,P|281:189|323:292,1,230.000008773804,2|0,0:0|0:0,0:0:0:0:
370,20,307708,1,8,0:0:0:0:
225,102,307874,1,0,0:0:0:0:
430,113,308041,1,0,0:0:0:0:
283,20,308208,2,0,L|47:32,1,230.000008773804,2|0,0:0|0:0,0:0:0:0:
81,293,308708,1,8,0:0:0:0:
193,249,308874,1,0,0:0:0:0:
77,188,309041,1,0,0:0:0:0:
365,335,309208,5,2,0:0:0:0:
259,18,309374,1,0,0:0:0:0:
163,349,309541,1,0,0:0:0:0:
460,162,309708,5,8,0:0:0:0:
99,73,309874,1,0,0:0:0:0:
461,347,310041,1,0,0:0:0:0:
31,269,310208,5,2,0:0:0:0:
356,20,310374,1,0,0:0:0:0:
323,378,310541,1,0,0:0:0:0:
1,169,310708,5,8,0:0:0:0:
241,144,310874,1,0,0:0:0:0:
481,119,311041,1,0,0:0:0:0:
169,281,311208,6,0,B|201:205|133:181|163:102,1,183.999994384766,2|0,0:0|0:0,0:0:0:0:
213,361,311708,1,8,0:0:0:0:
99,237,311874,1,0,0:0:0:0:
265,288,312041,1,0,0:0:0:0:
55,171,312208,2,0,P|25:205|20:250,1,91.9999971923829,2|0,0:0|0:0,0:0:0:0:
247,204,312541,1,0,0:0:0:0:
178,33,312708,2,0,L|168:204,1,153.333333333333,8|0,0:0|0:0,0:0:0:0:
47,284,313208,6,0,B|102:253|102:253|188:277,1,153.333333333333,2|0,0:0|0:0,0:0:0:0:
329,214,313708,2,0,L|223:222,1,76.6666666666667,8|0,0:0|0:0,0:0:0:0:
395,260,314041,1,0,0:0:0:0:
283,117,314208,2,0,L|177:109,1,76.6666666666667,2|0,0:0|0:0,0:0:0:0:
349,71,314541,1,0,0:0:0:0:
162,327,314708,5,8,0:0:0:0:
143,188,314874,1,0,0:0:0:0:
124,49,315041,1,0,0:0:0:0:
220,250,315208,6,0,P|297:275|403:268,1,183.999994384766,2|0,0:0|0:0,0:0:0:0:
421,63,315708,1,8,0:0:0:0:
386,171,315874,1,0,0:0:0:0:
495,131,316041,1,0,0:0:0:0:
306,68,316208,2,0,P|258:55|199:75,1,91.9999971923829,2|0,0:0|0:0,0:0:0:0:
135,186,316541,1,0,0:0:0:0:
243,336,316708,2,0,B|247:257|247:257|258:229|258:229|261:146,1,191.666666666667,8|0,0:0|0:0,0:0:0:0:
245,128,317208,5,2,0:0:0:0:
233,118,317708,5,8,0:0:0:0:
97,84,317874,1,0,0:0:0:0:
299,36,318041,1,0,0:0:0:0:
152,217,318208,5,2,0:0:0:0:
186,15,318374,1,0,0:0:0:0:
312,209,318541,1,0,0:0:0:0:
53,164,318708,5,8,0:0:0:0:
281,124,318874,1,0,0:0:0:0:
144,328,319041,1,0,0:0:0:0:
24,77,319208,2,0,B|127:51|101:117|202:98,1,183.999994384766,2|0,0:0|0:0,0:0:0:0:
440,170,319708,1,8,0:0:0:0:
281,124,319874,1,0,0:0:0:0:
418,37,320041,1,0,0:0:0:0:
312,217,320208,2,0,L|325:338,1,91.9999971923829,2|0,0:0|0:0,0:0:0:0:
373,114,320541,1,0,0:0:0:0:
214,235,320708,2,0,B|152:228|152:228|126:218|126:218|53:210,1,153.333333333333,8|0,0:0|0:0,0:0:0:0:
140,12,321208,6,0,P|185:71|181:146,1,153.333333333333,2|0,0:0|0:0,0:0:0:0:
274,295,321708,2,0,P|295:255|285:197,1,76.6666666666667,8|0,0:0|0:0,0:0:0:0:
343,353,322041,1,0,0:0:0:0:
277,148,322208,2,0,P|256:108|266:50,1,76.6666666666667,2|0,0:0|0:0,0:0:0:0:
208,206,322541,1,0,0:0:0:0:
509,128,322708,5,8,0:0:0:0:
340,97,322875,1,0,0:0:0:0:
171,66,323041,1,0,0:0:0:0:
23,320,323208,6,0,L|217:295,1,183.999994384766,2|0,0:0|0:0,0:0:0:0:
31,127,323708,1,8,0:0:0:0:
49,240,323874,1,0,0:0:0:0:
179,180,324041,1,0,0:0:0:0:
117,24,324208,2,0,L|118:116,1,91.9999971923829,2|0,0:0|0:0,0:0:0:0:
230,44,324541,1,0,0:0:0:0:
455,144,324708,2,0,B|392:153|392:153|256:140,1,191.666666666667,8|0,0:0|0:0,0:0:0:0:
253,132,325208,5,2,0:0:0:0:
239,116,325708,5,8,0:0:0:0:
268,266,325874,1,0,0:0:0:0:
327,62,326041,1,0,0:0:0:0:
96,154,326208,5,2,0:0:0:0:
351,215,326374,1,0,0:0:0:0:
197,11,326541,1,0,0:0:0:0:
154,288,326708,5,8,0:0:0:0:
9,93,326874,1,0,0:0:0:0:
375,120,327041,1,0,0:0:0:0:
231,325,327208,6,0,B|256:227|188:254|213:147,1,183.999994384766,2|0,0:0|0:0,0:0:0:0:
393,310,327708,1,8,0:0:0:0:
397,175,327874,1,0,0:0:0:0:
310,249,328041,1,0,0:0:0:0:
489,221,328208,2,0,L|465:25,1,183.999994384766,2|0,0:0|0:0,0:0:0:0:
237,149,328708,1,8,0:0:0:0:
136,103,328874,1,0,0:0:0:0:
314,72,329041,1,0,0:0:0:0:
161,184,329208,6,0,L|150:369,1,183.999994384766,2|0,0:0|0:0,0:0:0:0:
36,129,329708,1,8,0:0:0:0:
222,108,329874,1,0,0:0:0:0:
73,208,330041,1,0,0:0:0:0:
162,33,330208,2,0,P|263:24|318:91,1,183.999994384766,2|0,0:0|0:0,0:0:0:0:
266,307,330708,1,8,0:0:0:0:
389,213,330874,1,0,0:0:0:0:
261,191,331041,1,0,0:0:0:0:
465,262,331208,6,0,B|491:147|435:190|452:82,1,183.999994384766,2|0,0:0|0:0,0:0:0:0:
255,78,331708,1,8,0:0:0:0:
209,256,331874,1,0,0:0:0:0:
337,130,332041,1,0,0:0:0:0:
182,136,332208,2,0,L|-5:115,1,183.999994384766,2|0,0:0|0:0,0:0:0:0:
155,331,332708,1,8,0:0:0:0:
211,215,332874,1,0,0:0:0:0:
79,249,333041,1,0,0:0:0:0:
250,323,333208,6,0,B|329:315|329:315|353:329|353:329|432:322,1,183.999994384766,2|0,0:0|0:0,0:0:0:0:
336,93,333708,1,8,0:0:0:0:
341,217,333874,1,0,0:0:0:0:
452,95,334041,1,0,0:0:0:0:
229,39,334208,2,0,L|243:266,1,183.999994384766,2|0,0:0|0:0,0:0:0:0:
383,362,334708,1,8,0:0:0:0:
326,225,334874,1,0,0:0:0:0:
464,276,335041,1,0,0:0:0:0:
252,337,335208,6,0,L|59:327,1,183.999994384766,2|0,0:0|0:0,0:0:0:0:
99,93,335708,1,8,0:0:0:0:
155,196,335874,1,0,0:0:0:0:
41,180,336041,1,0,0:0:0:0:
235,58,336208,2,0,B|209:137|268:154|241:238,1,183.999994384766,2|0,0:0|0:0,0:0:0:0:
471,152,336708,1,8,0:0:0:0:
317,100,336874,1,0,0:0:0:0:
456,48,337041,1,0,0:0:0:0:
416,224,337208,6,0,B|363:254|363:254|219:235,1,183.999994384766,2|0,0:0|0:0,0:0:0:0:
10,292,337708,1,8,0:0:0:0:
131,217,337874,1,0,0:0:0:0:
80,358,338041,1,0,0:0:0:0:
42,207,338208,2,0,L|57:10,1,183.999994384766,2|0,0:0|0:0,0:0:0:0:
259,205,338708,1,8,0:0:0:0:
157,260,338874,1,0,0:0:0:0:
130,157,339041,1,0,0:0:0:0:
252,302,339208,6,0,L|455:287,1,183.999994384766,2|0,0:0|0:0,0:0:0:0:
351,41,339708,1,8,0:0:0:0:
311,160,339874,1,0,0:0:0:0:
434,122,340041,1,0,0:0:0:0:
263,71,340208,2,0,L|60:56,1,183.999994384766,2|0,0:0|0:0,0:0:0:0:
80,309,340708,1,8,0:0:0:0:
16,187,340874,1,0,0:0:0:0:
179,240,341041,1,0,0:0:0:0:
295,81,341208,6,0,P|314:149|306:177,1,76.6666666666667,2|0,0:0|0:0,0:0:0:0:
304,172,341458,1,0,0:0:0:0:
295,191,341541,1,0,0:0:0:0:
89,57,341708,6,0,L|203:50,1,84.3333359069825,8|0,0:0|0:0,0:0:0:0:
193,49,341958,1,0,0:0:0:0:
213,47,342041,1,0,0:0:0:0:
196,226,342208,5,2,0:0:0:0:
125,358,342374,1,0,0:0:0:0:
78,215,342541,1,0,0:0:0:0:
412,299,342708,5,8,0:0:0:0:
342,143,342874,1,0,0:0:0:0:
299,331,343041,1,0,0:0:0:0:
443,191,343208,6,0,B|471:93|416:109|434:10,1,183.999994384766,2|0,0:0|0:0,0:0:0:0:
278,200,343708,1,8,0:0:0:0:
388,274,343874,1,0,0:0:0:0:
356,141,344041,1,0,0:0:0:0:
215,268,344208,2,0,L|23:274,1,183.999994384766,2|0,0:0|0:0,0:0:0:0:
150,73,344708,1,8,0:0:0:0:
185,183,344874,1,0,0:0:0:0:
70,124,345041,1,0,0:0:0:0:
242,104,345208,6,0,L|434:110,1,183.999994384766,2|0,0:0|0:0,0:0:0:0:
342,334,345708,1,8,0:0:0:0:
305,200,345874,1,0,0:0:0:0:
434,285,346041,1,0,0:0:0:0:
223,319,346208,2,0,B|227:246|227:246|217:218|217:218|220:134,1,183.999994384766,2|0,0:0|0:0,0:0:0:0:
17,143,346708,1,8,0:0:0:0:
148,99,346874,1,0,0:0:0:0:
52,226,347041,1,0,0:0:0:0:
0,49,347208,6,0,B|109:69|79:5|177:22,1,183.999994384766,2|0,0:0|0:0,0:0:0:0:
334,208,347708,1,8,0:0:0:0:
230,250,347874,1,0,0:0:0:0:
257,113,348041,1,0,0:0:0:0:
316,314,348208,2,0,L|503:326,1,183.999994384766,2|0,0:0|0:0,0:0:0:0:
426,97,348708,1,8,0:0:0:0:
408,222,348874,1,0,0:0:0:0:
503,155,349041,1,0,0:0:0:0:
339,47,349208,6,0,L|155:58,1,183.999994384766,2|0,0:0|0:0,0:0:0:0:
136,299,349708,1,8,0:0:0:0:
224,218,349874,1,0,0:0:0:0:
96,218,350041,1,0,0:0:0:0:
274,299,350208,2,0,P|323:225|293:142,1,183.999994384766,2|0,0:0|0:0,0:0:0:0:
21,88,350708,5,8,0:0:0:0:
264,49,350874,1,0,0:0:0:0:
475,184,351041,1,0,0:0:0:0:
154,338,351208,6,0,P|104:264|134:181,1,183.999994384766,2|0,0:0|0:0,0:0:0:0:
372,146,351708,1,8,0:0:0:0:
438,52,351874,1,0,0:0:0:0:
272,93,352041,1,0,0:0:0:0:
423,246,352208,2,0,L|235:258,1,183.999994384766,2|0,0:0|0:0,0:0:0:0:
35,80,352708,1,8,0:0:0:0:
231,79,352874,1,0,0:0:0:0:
64,203,353041,1,0,0:0:0:0:
133,60,353208,6,0,B|116:155|178:134|155:237,1,183.999994384766,2|0,0:0|0:0,0:0:0:0:
0,270,353708,1,8,0:0:0:0:
157,327,353874,1,0,0:0:0:0:
27,359,354041,1,0,0:0:0:0:
233,277,354208,2,0,B|296:269|296:269|339:281|339:281|414:274,1,183.999994384766,2|0,0:0|0:0,0:0:0:0:
279,59,354708,1,8,0:0:0:0:
249,186,354874,1,0,0:0:0:0:
365,126,355041,1,0,0:0:0:0:
171,131,355208,6,0,P|162:213|241:278,1,183.999994384766,2|0,0:0|0:0,0:0:0:0:
455,200,355708,1,8,0:0:0:0:
365,126,355874,1,0,0:0:0:0:
505,115,356041,1,0,0:0:0:0:
305,207,356208,2,0,B|276:146|276:146|293:19,1,183.999994384766,2|0,0:0|0:0,0:0:0:0:
401,271,356708,1,8,0:0:0:0:
237,277,356874,1,0,0:0:0:0:
393,183,357041,1,0,0:0:0:0:
299,343,357208,6,0,B|253:358|253:358|96:347,1,183.999994384766,2|0,0:0|0:0,0:0:0:0:
19,175,357708,1,8,0:0:0:0:
147,136,357874,1,0,0:0:0:0:
86,250,358041,1,0,0:0:0:0:
66,39,358208,2,0,L|263:51,1,183.999994384766,2|0,0:0|0:0,0:0:0:0:
48,344,358708,5,8,0:0:0:0:
301,309,358874,1,0,0:0:0:0:
456,81,359041,1,0,0:0:0:0:
190,174,359208,6,0,L|201:370,1,183.999994384766,2|0,0:0|0:0,0:0:0:0:
370,176,359708,1,8,0:0:0:0:
239,105,359874,1,0,0:0:0:0:
308,246,360041,1,0,0:0:0:0:
318,70,360208,2,0,L|501:80,1,183.999994384766,2|0,0:0|0:0,0:0:0:0:
234,18,360708,1,8,0:0:0:0:
130,139,360874,1,0,0:0:0:0:
245,123,361041,1,0,0:0:0:0:
42,54,361208,6,0,L|32:257,1,183.999994384766,2|0,0:0|0:0,0:0:0:0:
217,317,361708,1,8,0:0:0:0:
312,195,361874,1,0,0:0:0:0:
368,339,362041,1,0,0:0:0:0:
216,226,362208,2,0,L|-7:240,1,183.999994384766,2|0,0:0|0:0,0:0:0:0:
230,326,362708,1,8,0:0:0:0:
397,264,362874,1,0,0:0:0:0:
321,357,363041,1,0,0:0:0:0:
330,201,363208,6,0,L|321:17,1,183.999994384766,2|0,0:0|0:0,0:0:0:0:
150,216,363708,1,8,0:0:0:0:
249,298,363874,1,0,0:0:0:0:
247,135,364041,1,0,0:0:0:0:
94,279,364208,2,0,B|66:228|66:228|84:103,1,183.999994384766,2|0,0:0|0:0,0:0:0:0:
296,208,364708,1,8,0:0:0:0:
251,361,364874,1,0,0:0:0:0:
190,246,365041,1,0,0:0:0:0:
323,304,365208,6,0,L|505:278,1,183.999994384766,2|0,0:0|0:0,0:0:0:0:
381,75,365708,1,8,0:0:0:0:
336,206,365874,1,0,0:0:0:0:
467,137,366041,1,0,0:0:0:0:
232,91,366208,2,0,L|249:283,1,183.999994384766,2|0,0:0|0:0,0:0:0:0:
37,58,366708,5,8,0:0:0:0:
330,75,366874,1,0,0:0:0:0:
477,338,367041,1,0,0:0:0:0:
110,323,367208,6,0,L|126:139,1,183.999994384766,2|0,0:0|0:0,0:0:0:0:
255,21,367708,1,8,0:0:0:0:
314,158,367874,1,0,0:0:0:0:
160,59,368041,1,0,0:0:0:0:
327,73,368208,2,0,L|510:59,1,183.999994384766,2|0,0:0|0:0,0:0:0:0:
288,291,368708,1,8,0:0:0:0:
242,155,368874,1,0,0:0:0:0:
381,236,369041,1,0,0:0:0:0:
192,276,369208,6,0,L|8:264,1,183.999994384766,2|0,0:0|0:0,0:0:0:0:
88,58,369708,1,8,0:0:0:0:
160,187,369874,1,0,0:0:0:0:
38,161,370041,1,0,0:0:0:0:
229,123,370208,2,0,P|250:208|191:275,1,183.999994384766,2|0,0:0|0:0,0:0:0:0:
161,52,370708,1,8,0:0:0:0:
321,73,370874,1,0,0:0:0:0:
138,145,371041,1,0,0:0:0:0:
423,277,371208,6,0,L|410:47,1,230.000008773804,2|0,0:0|0:0,0:0:0:0:
246,215,371708,5,8,0:0:0:0:
217,298,371874,1,0,0:0:0:0:
307,281,372041,1,0,0:0:0:0:
130,262,372208,5,2,0:0:0:0:
46,305,372374,1,0,0:0:0:0:
123,351,372541,1,0,0:0:0:0:
79,186,372708,5,8,0:0:0:0:
99,94,372874,1,0,0:0:0:0:
11,124,373041,1,0,0:0:0:0:
255,264,373208,6,0,L|484:250,1,230.000008773804,2|0,0:0|0:0,0:0:0:0:
338,89,373708,5,8,0:0:0:0:
314,173,373874,1,0,0:0:0:0:
394,155,374041,1,0,0:0:0:0:
234,146,374208,5,2,0:0:0:0:
145,169,374374,1,0,0:0:0:0:
168,87,374541,1,0,0:0:0:0:
137,345,374708,5,8,0:0:0:0:
23,135,374874,1,0,0:0:0:0:
312,97,375041,1,0,0:0:0:0:
441,306,375208,6,0,L|173:265,1,230.000008773804,2|0,0:0|0:0,0:0:0:0:
9,247,375708,5,0,0:0:0:0:
31,334,375874,1,0,0:0:0:0:
89,268,376041,1,0,0:0:0:0:
73,88,376208,5,2,0:0:0:0:
109,171,376374,1,0,0:0:0:0:
21,158,376541,1,0,0:0:0:0:
194,146,376708,5,8,0:0:0:0:
288,171,376874,1,0,0:0:0:0:
225,233,377041,1,0,0:0:0:0:
361,109,377208,5,2,0:0:0:0:
375,199,377374,1,0,0:0:0:0:
272,71,377541,1,0,0:0:0:0:
445,140,377708,5,8,0:0:0:0:
430,50,377874,1,0,0:0:0:0:
288,171,378041,1,0,0:0:0:0:
463,230,378208,5,2,0:0:0:0:
354,111,378374,1,0,0:0:0:0:
296,257,378541,1,0,0:0:0:0:
271,87,378708,6,8,B|221:107|221:72|177:87,1,95.8333333333333
149,72,379208,6,0,B|141:175|141:175|147:205|147:205|138:300,1,230.000008773804,2|0,0:0|0:0,0:0:0:0:
62,55,379708,1,8,0:0:0:0:
225,23,379874,1,0,0:0:0:0:
268,173,380041,1,0,0:0:0:0:
511,104,380208,2,0,L|282:89,1,230.000008773804,2|0,0:0|0:0,0:0:0:0:
321,347,380708,1,8,0:0:0:0:
386,184,380874,1,0,0:0:0:0:
459,310,381041,1,0,0:0:0:0:
287,259,381208,6,0,L|57:274,1,230.000008773804,2|0,0:0|0:0,0:0:0:0:
287,62,381708,1,8,0:0:0:0:
360,201,381874,1,0,0:0:0:0:
181,128,382041,1,0,0:0:0:0:
416,126,382208,1,2,0:0:0:0:
260,343,382374,1,0,0:0:0:0:
504,354,382541,1,0,0:0:0:0:
337,48,382708,2,0,L|339:302,1,230.000008773804,8|0,0:0|0:0,0:0:0:0:
118,196,383208,6,0,P|96:90|190:38,1,230.000008773804,2|0,0:0|0:0,0:0:0:0:
153,296,383708,1,8,0:0:0:0:
182,129,383874,1,0,0:0:0:0:
34,235,384041,1,0,0:0:0:0:
254,273,384208,2,0,L|497:246,1,230.000008773804,2|0,0:0|0:0,0:0:0:0:
289,55,384708,1,8,0:0:0:0:
267,176,384874,1,0,0:0:0:0:
381,111,385041,1,0,0:0:0:0:
66,42,385208,5,2,0:0:0:0:
158,314,385374,1,0,0:0:0:0:
289,55,385541,1,0,0:0:0:0:
30,131,385708,5,8,0:0:0:0:
356,271,385874,1,0,0:0:0:0:
40,328,386041,1,0,0:0:0:0:
199,18,386208,5,2,0:0:0:0:
332,352,386374,1,0,0:0:0:0:
43,229,386541,1,0,0:0:0:0:
505,232,386708,5,8,0:0:0:0:
254,162,386874,1,0,0:0:0:0:
3,92,387041,1,0,0:0:0:0:
348,37,387208,6,0,L|354:151,1,115.000004386902,2|0,0:0|0:0,0:0:0:0:
346,165,387458,1,0,0:0:0:0:
338,179,387541,1,0,0:0:0:0:
197,362,387708,1,8,0:0:0:0:
189,348,387791,1,0,0:0:0:0:
180,334,387875,2,0,L|186:219,1,115.000004386902
64,62,388208,1,2,0:0:0:0:
64,62,388291,1,0,0:0:0:0:
64,62,388374,1,0,0:0:0:0:
256,153,388541,1,0,0:0:0:0:
54,167,388708,1,8,0:0:0:0:
233,45,388874,1,0,0:0:0:0:
277,257,389041,1,0,0:0:0:0:
512,172,389208,6,0,L|363:190,1,115.000004386902,2|0,0:0|0:0,0:0:0:0:
386,198,389458,1,0,0:0:0:0:
375,211,389541,1,0,0:0:0:0:
121,101,389708,1,8,0:0:0:0:
132,114,389791,1,0,0:0:0:0:
143,126,389875,2,0,L|257:139,1,115.000004386902
453,82,390208,1,2,0:0:0:0:
453,82,390291,1,0,0:0:0:0:
453,82,390374,1,0,0:0:0:0:
291,227,390541,1,0,0:0:0:0:
84,9,390708,5,8,0:0:0:0:
360,46,390874,1,0,0:0:0:0:
142,340,391041,1,0,0:0:0:0:
130,87,391208,6,0,L|284:75,1,115.000004386902,2|0,0:0|0:0,0:0:0:0:
261,88,391458,1,0,0:0:0:0:
278,98,391541,1,0,0:0:0:0:
487,287,391708,1,8,0:0:0:0:
470,297,391791,1,0,0:0:0:0:
453,306,391875,2,0,L|338:297,1,115.000004386902
92,185,392208,1,2,0:0:0:0:
92,185,392291,1,0,0:0:0:0:
92,185,392374,1,0,0:0:0:0:
198,28,392541,1,0,0:0:0:0:
204,286,392708,1,8,0:0:0:0:
71,91,392874,1,0,0:0:0:0:
285,169,393041,1,0,0:0:0:0:
3,270,393208,5,2,0:0:0:0:
281,75,393374,1,0,0:0:0:0:
456,342,393541,1,0,0:0:0:0:
119,40,393708,5,8,0:0:0:0:
283,343,393874,1,0,0:0:0:0:
498,29,394041,1,0,0:0:0:0:
134,286,394208,5,2,0:0:0:0:
492,237,394374,1,0,0:0:0:0:
20,72,394541,1,0,0:0:0:0:
472,134,394708,5,8,0:0:0:0:
251,181,394874,1,0,0:0:0:0:
30,228,395041,1,0,0:0:0:0:
334,315,395208,6,0,B|299:235|366:214|332:135,1,183.999994384766,2|0,0:0|0:0,0:0:0:0:
124,273,395708,1,8,0:0:0:0:
230,332,395874,1,0,0:0:0:0:
168,189,396041,1,0,0:0:0:0:
266,5,396208,2,0,L|255:189,1,183.999994384766,2|0,0:0|0:0,0:0:0:0:
19,184,396708,1,8,0:0:0:0:
123,264,396874,1,0,0:0:0:0:
103,127,397041,1,0,0:0:0:0:
0,334,397208,6,0,B|78:329|78:329|107:345|107:345|179:340,1,183.999994384766,2|0,0:0|0:0,0:0:0:0:
377,199,397708,1,8,0:0:0:0:
431,297,397874,1,0,0:0:0:0:
307,284,398041,1,0,0:0:0:0:
474,209,398208,2,0,L|481:17,1,183.999994384766,2|0,0:0|0:0,0:0:0:0:
167,94,398708,1,8,0:0:0:0:
213,199,398874,1,0,0:0:0:0:
281,91,399041,1,0,0:0:0:0:
110,175,399208,6,0,L|116:358,1,183.999994384766,2|0,0:0|0:0,0:0:0:0:
371,237,399708,1,8,0:0:0:0:
406,114,399874,1,0,0:0:0:0:
460,307,400041,1,0,0:0:0:0:
293,160,400208,2,0,L|97:175,1,183.999994384766,2|0,0:0|0:0,0:0:0:0:
322,60,400708,1,8,0:0:0:0:
388,188,400874,1,0,0:0:0:0:
216,76,401041,1,0,0:0:0:0:
468,56,401208,6,0,B|441:147|493:153|464:237,1,183.999994384766,2|0,0:0|0:0,0:0:0:0:
252,348,401708,1,8,0:0:0:0:
143,310,401874,1,0,0:0:0:0:
321,254,402041,1,0,0:0:0:0:
144,207,402208,2,0,L|137:18,1,183.999994384766,2|0,0:0|0:0,0:0:0:0:
405,42,402708,1,8,0:0:0:0:
391,204,402874,1,0,0:0:0:0:
377,366,403041,1,0,0:0:0:0:
221,64,403208,6,0,B|282:49|282:49|405:55,1,183.999994384766,2|0,0:0|0:0,0:0:0:0:
270,301,403708,1,8,0:0:0:0:
242,184,403874,1,0,0:0:0:0:
370,287,404041,1,0,0:0:0:0:
188,257,404208,2,0,L|4:275,1,183.999994384766,2|0,0:0|0:0,0:0:0:0:
183,65,404708,1,8,0:0:0:0:
152,169,404874,1,0,0:0:0:0:
92,62,405041,1,0,0:0:0:0:
258,126,405208,6,0,B|257:196|257:196|273:238|273:238|270:307,1,183.999994384766,2|0,0:0|0:0,0:0:0:0:
452,239,405708,1,8,0:0:0:0:
383,156,405874,1,0,0:0:0:0:
364,306,406041,1,0,0:0:0:0:
496,81,406208,2,0,L|283:60,1,183.999994384766,2|0,0:0|0:0,0:0:0:0:
61,235,406708,1,8,0:0:0:0:
192,186,406874,1,0,0:0:0:0:
61,118,407041,1,0,0:0:0:0:
148,294,407208,6,0,L|361:273,1,183.999994384766,2|0,0:0|0:0,0:0:0:0:
415,17,407708,1,8,0:0:0:0:
324,107,407874,1,0,0:0:0:0:
486,93,408041,1,0,0:0:0:0:
234,21,408208,2,0,L|247:235,1,183.999994384766,2|0,0:0|0:0,0:0:0:0:
29,322,408708,1,8,0:0:0:0:
123,222,408874,1,0,0:0:0:0:
131,348,409041,1,0,0:0:0:0:
32,221,409208,6,0,L|43:37,1,183.999994384766,2|0,0:0|0:0,0:0:0:0:
304,216,409708,1,8,0:0:0:0:
200,270,409874,1,0,0:0:0:0:
187,159,410041,1,0,0:0:0:0:
288,319,410208,2,0,L|471:330,1,183.999994384766,2|0,0:0|0:0,0:0:0:0:
358,46,410708,1,8,0:0:0:0:
349,171,410874,1,0,0:0:0:0:
481,100,411041,1,0,0:0:0:0:
281,100,411208,6,0,L|97:111,1,183.999994384766,2|0,0:0|0:0,0:0:0:0:
181,365,411708,1,8,0:0:0:0:
200,229,411874,1,0,0:0:0:0:
96,303,412041,1,0,0:0:0:0:
283,279,412208,2,0,B|311:180|253:192|280:99,1,183.999994384766,2|0,0:0|0:0,0:0:0:0:
428,272,412708,1,8,0:0:0:0:
368,145,412874,1,0,0:0:0:0:
485,186,413041,1,0,0:0:0:0:
347,345,413208,6,0,B|298:368|298:368|162:346,1,183.999994384766,2|0,0:0|0:0,0:0:0:0:
46,115,413708,1,8,0:0:0:0:
166,77,413874,1,0,0:0:0:0:
65,228,414041,1,0,0:0:0:0:
227,160,414208,2,0,L|417:179,1,183.999994384766,2|0,0:0|0:0,0:0:0:0:
253,244,414708,1,8,0:0:0:0:
197,86,414874,1,0,0:0:0:0:
344,64,415041,1,0,0:0:0:0:
132,149,415208,6,0,L|115:348,1,183.999994384766,2|0,0:0|0:0,0:0:0:0:
348,326,415708,1,8,0:0:0:0:
414,216,415874,1,0,0:0:0:0:
282,245,416041,1,0,0:0:0:0:
486,298,416208,2,0,B|507:223|507:223|487:118,1,183.999994384766,2|0,0:0|0:0,0:0:0:0:
313,54,416708,1,8,0:0:0:0:
345,171,416874,1,0,0:0:0:0:
432,49,417041,1,0,0:0:0:0:
246,125,417208,6,0,L|38:111,1,183.999994384766,2|0,0:0|0:0,0:0:0:0:
239,338,417708,1,8,0:0:0:0:
272,233,417874,1,0,0:0:0:0:
161,261,418041,1,0,0:0:0:0:
324,311,418208,2,0,L|508:299,1,183.999994384766,2|0,0:0|0:0,0:0:0:0:
367,75,418708,1,8,0:0:0:0:
359,218,418874,1,0,0:0:0:0:
471,132,419041,1,0,0:0:0:0:
278,157,419208,6,0,P|264:244|324:310,1,183.999994384766,2|0,0:0|0:0,0:0:0:0:
169,177,419708,1,8,0:0:0:0:
32,200,419874,1,0,0:0:0:0:
107,277,420041,1,0,0:0:0:0:
29,102,420208,2,0,B|127:135|114:70|208:98,1,183.999994384766,2|0,0:0|0:0,0:0:0:0:
434,51,420708,1,8,0:0:0:0:
377,202,420874,1,0,0:0:0:0:
334,73,421041,1,0,0:0:0:0:
472,160,421208,6,0,L|468:356,1,183.999994384766,2|0,0:0|0:0,0:0:0:0:
192,227,421708,1,8,0:0:0:0:
67,277,421874,1,0,0:0:0:0:
208,326,422041,1,0,0:0:0:0:
110,202,422208,2,0,L|106:18,1,183.999994384766,2|0,0:0|0:0,0:0:0:0:
285,210,422708,1,8,0:0:0:0:
463,243,422874,1,0,0:0:0:0:
424,96,423041,1,0,0:0:0:0:
352,348,423208,6,0,B|358:268|358:268|368:239|368:239|373:167,1,183.999994384766,2|0,0:0|0:0,0:0:0:0:
103,45,423708,1,8,0:0:0:0:
194,138,423874,1,0,0:0:0:0:
209,20,424041,1,0,0:0:0:0:
106,223,424208,2,0,B|188:239|188:239|299:221,1,183.999994384766,2|0,0:0|0:0,0:0:0:0:
124,340,424708,1,8,0:0:0:0:
8,205,424874,1,0,0:0:0:0:
28,337,425041,1,0,0:0:0:0:
72,141,425208,6,0,B|147:104|147:104|258:92,1,183.999994384766,2|0,0:0|0:0,0:0:0:0:
321,316,425708,1,8,0:0:0:0:
284,182,425874,1,0,0:0:0:0:
418,272,426041,1,0,0:0:0:0:
215,247,426208,2,0,P|189:188|259:89,1,183.999994384766,2|0,0:0|0:0,0:0:0:0:
0,278,426708,1,8,0:0:0:0:
393,138,426874,1,0,0:0:0:0:
393,138,426958,1,0,0:0:0:0:
87,51,427124,1,0,0:0:0:0:
87,51,427208,6,0,L|92:165,1,115.000004386902,2|0,0:0|0:0,0:0:0:0:
98,176,427458,1,0,0:0:0:0:
104,187,427541,1,0,0:0:0:0:
296,143,427708,5,8,0:0:0:0:
218,114,427874,1,0,0:0:0:0:
212,141,427957,1,0,0:0:0:0:
216,170,428040,1,0,0:0:0:0:
371,87,428208,5,2,0:0:0:0:
449,58,428374,1,0,0:0:0:0:
455,86,428457,1,0,0:0:0:0:
450,115,428540,1,0,0:0:0:0:
234,36,428708,5,8,0:0:0:0:
134,93,428874,1,0,0:0:0:0:
155,10,429041,1,0,0:0:0:0:
335,256,429208,6,0,L|220:268,1,115.000004386902,2|0,0:0|0:0,0:0:0:0:
209,264,429458,1,0,0:0:0:0:
198,260,429541,1,0,0:0:0:0:
69,149,429708,5,8,0:0:0:0:
156,131,429874,1,0,0:0:0:0:
156,131,429958,1,0,0:0:0:0:
156,131,430041,1,0,0:0:0:0:
393,192,430208,5,2,0:0:0:0:
306,174,430374,1,0,0:0:0:0:
306,174,430458,1,0,0:0:0:0:
306,174,430541,1,0,0:0:0:0:
451,32,430708,6,0,B|458:135|458:135|473:157|473:157|479:256,1,230.000008773804,8|0,0:0|0:0,0:0:0:0:
230,127,431208,6,0,P|279:90|335:96,1,115.000004386902,2|0,0:0|0:0,0:0:0:0:
343,106,431458,1,0,0:0:0:0:
356,117,431541,1,0,0:0:0:0:
206,224,431708,6,0,L|138:220,1,57.500002193451,8|0,0:0|0:0,0:0:0:0:
133,219,431958,1,0,0:0:0:0:
119,218,432041,1,0,0:0:0:0:
22,86,432208,6,0,L|90:82,1,57.500002193451,2|0,0:0|0:0,0:0:0:0:
94,81,432458,1,0,0:0:0:0:
108,80,432541,1,0,0:0:0:0:
277,98,432708,5,8,0:0:0:0:
197,43,432874,1,0,0:0:0:0:
363,56,433041,1,0,0:0:0:0:
267,267,433208,5,2,0:0:0:0:
294,192,433374,1,0,0:0:0:0:
275,186,433457,1,0,0:0:0:0:
255,186,433540,1,0,0:0:0:0:
381,148,433708,5,8,0:0:0:0:
366,247,433874,1,0,0:0:0:0:
391,247,433957,1,0,0:0:0:0:
414,241,434040,1,0,0:0:0:0:
185,237,434208,5,2,0:0:0:0:
203,113,434374,1,0,0:0:0:0:
172,113,434457,1,0,0:0:0:0:
143,120,434540,1,0,0:0:0:0:
255,186,434708,6,0,B|314:194|295:161|346:169,1,95.8333333333333,8|0,0:0|0:0,0:0:0:0:
368,150,435208,6,0,L|385:379,1,230.000008773804,2|0,0:0|0:0,0:0:0:0:
83,318,435708,1,8,0:0:0:0:
201,254,435874,1,0,0:0:0:0:
170,378,436041,1,0,0:0:0:0:
116,238,436208,2,0,L|133:8,1,230.000008773804,2|0,0:0|0:0,0:0:0:0:
317,156,436708,1,8,0:0:0:0:
224,94,436874,1,0,0:0:0:0:
395,86,437041,1,0,0:0:0:0:
345,257,437208,6,0,L|109:237,1,230.000008773804,2|0,0:0|0:0,0:0:0:0:
459,312,437708,1,8,0:0:0:0:
369,157,437874,1,0,0:0:0:0:
365,354,438041,1,0,0:0:0:0:
419,54,438208,1,2,0:0:0:0:
494,239,438374,1,0,0:0:0:0:
280,212,438541,1,0,0:0:0:0:
180,52,438708,2,0,L|427:41,1,230.000008773804,8|0,0:0|0:0,0:0:0:0:
109,295,439208,6,0,P|61:191|114:75,1,230.000008773804,2|0,0:0|0:0,0:0:0:0:
373,207,439708,1,8,0:0:0:0:
455,340,439874,1,0,0:0:0:0:
480,193,440041,1,0,0:0:0:0:
338,309,440208,2,0,L|101:294,1,230.000008773804,2|0,0:0|0:0,0:0:0:0:
295,66,440708,1,8,0:0:0:0:
341,203,440874,1,0,0:0:0:0:
216,137,441041,1,0,0:0:0:0:
502,166,441208,5,2,0:0:0:0:
88,313,441374,1,0,0:0:0:0:
175,18,441541,1,0,0:0:0:0:
401,338,441708,5,8,0:0:0:0:
23,201,441874,1,0,0:0:0:0:
468,40,442041,1,0,0:0:0:0:
83,49,442208,5,2,0:0:0:0:
228,352,442374,1,0,0:0:0:0:
467,129,442541,1,0,0:0:0:0:
16,309,442708,5,8,0:0:0:0:
198,167,442874,1,0,0:0:0:0:
380,25,443041,1,0,0:0:0:0:
353,257,443208,6,0,B|246:216|251:304|130:246,1,230.000008773804,2|0,0:0|0:0,0:0:0:0:
283,22,443708,1,8,0:0:0:0:
284,156,443874,1,0,0:0:0:0:
175,82,444041,1,0,0:0:0:0:
423,111,444208,2,0,B|441:191|441:191|429:346,1,230.000008773804,2|0,0:0|0:0,0:0:0:0:
182,302,444708,1,8,0:0:0:0:
328,244,444875,1,0,0:0:0:0:
266,377,445041,1,0,0:0:0:0:
54,175,445208,6,0,L|284:156,1,230.000008773804,2|0,0:0|0:0,0:0:0:0:
505,137,445708,1,8,0:0:0:0:
330,83,445874,1,0,0:0:0:0:
484,29,446041,1,0,0:0:0:0:
207,275,446208,1,2,0:0:0:0:
368,309,446374,1,0,0:0:0:0:
316,178,446541,1,0,0:0:0:0:
279,362,446708,2,0,B|208:371|208:371|33:341,1,230.000008773804,8|0,0:0|0:0,0:0:0:0:
203,47,447208,6,0,B|210:151|210:151|200:180|200:180|206:274,1,230.000008773804,2|0,0:0|0:0,0:0:0:0:
35,76,447708,1,8,0:0:0:0:
125,134,447874,1,0,0:0:0:0:
12,164,448041,1,0,0:0:0:0:
284,191,448208,2,0,L|530:219,1,230.000008773804,2|0,0:0|0:0,0:0:0:0:
321,16,448708,1,8,0:0:0:0:
237,103,448874,1,0,0:0:0:0:
403,75,449041,1,0,0:0:0:0:
140,57,449208,5,2,0:0:0:0:
218,224,449374,1,0,0:0:0:0:
229,0,449541,1,0,0:0:0:0:
113,180,449708,5,8,0:0:0:0:
311,179,449874,1,0,0:0:0:0:
39,78,450041,1,0,0:0:0:0:
102,302,450208,5,2,0:0:0:0:
237,103,450374,1,0,0:0:0:0:
412,282,450541,1,0,0:0:0:0:
23,202,450708,5,8,0:0:0:0:
221,9,450874,1,0,0:0:0:0:
491,104,451041,1,0,0:0:0:0:
161,246,451208,6,0,B|188:154|127:160|151:66,1,183.999994384766,2|0,0:0|0:0,0:0:0:0:
274,251,451708,1,8,0:0:0:0:
57,229,451874,1,0,0:0:0:0:
230,116,452041,1,0,0:0:0:0:
203,330,452208,2,0,P|134:334|105:317,1,91.9999971923829,2|0,0:0|0:0,0:0:0:0:
308,163,452541,1,0,0:0:0:0:
385,350,452708,2,0,L|395:176,1,153.333333333333,8|0,0:0|0:0,0:0:0:0:
218,143,453208,6,0,P|234:218|310:252,1,153.333333333333,2|0,0:0|0:0,0:0:0:0:
110,107,453708,2,0,L|27:112,1,76.6666666666667,8|0,0:0|0:0,0:0:0:0:
186,52,454041,1,0,0:0:0:0:
384,218,454208,2,0,L|467:223,1,76.6666666666667,2|0,0:0|0:0,0:0:0:0:
308,163,454541,1,0,0:0:0:0:
130,362,454708,5,8,0:0:0:0:
158,207,454874,1,0,0:0:0:0:
186,52,455041,1,0,0:0:0:0:
408,321,455208,6,0,L|219:326,1,183.999994384766,2|0,0:0|0:0,0:0:0:0:
407,116,455708,1,8,0:0:0:0:
488,221,455874,1,0,0:0:0:0:
330,214,456041,1,0,0:0:0:0:
503,131,456208,2,0,L|493:38,1,91.9999971923829,2|0,0:0|0:0,0:0:0:0:
306,121,456541,1,0,0:0:0:0:
199,0,456708,2,0,L|211:218,1,191.666666666667,8|0,0:0|0:0,0:0:0:0:
201,205,457208,5,2,0:0:0:0:
201,205,457708,5,8,0:0:0:0:
101,180,457874,1,0,0:0:0:0:
214,104,458041,1,0,0:0:0:0:
134,269,458208,5,2,0:0:0:0:
57,89,458374,1,0,0:0:0:0:
288,164,458541,1,0,0:0:0:0:
14,215,458708,5,8,0:0:0:0:
228,307,458874,1,0,0:0:0:0:
141,29,459041,1,0,0:0:0:0:
314,260,459208,6,0,L|517:273,1,183.999994384766,2|0,0:0|0:0,0:0:0:0:
317,85,459708,1,8,0:0:0:0:
237,195,459874,1,0,0:0:0:0:
396,159,460041,1,0,0:0:0:0:
162,145,460208,2,0,P|146:188|156:235,1,91.9999971923829,2|0,0:0|0:0,0:0:0:0:
206,67,460541,1,0,0:0:0:0:
317,85,460708,2,0,L|474:92,1,153.333333333333,8|0,0:0|0:0,0:0:0:0:
290,293,461208,6,0,P|250:202|267:131,1,153.333333333333,2|0,0:0|0:0,0:0:0:0:
118,252,461708,2,0,P|63:269|26:260,1,76.6666666666667,8|0,0:0|0:0,0:0:0:0:
186,306,462041,1,0,0:0:0:0:
201,79,462208,2,0,P|256:62|293:71,1,76.6666666666667,2|0,0:0|0:0,0:0:0:0:
133,25,462541,1,0,0:0:0:0:
344,360,462708,5,8,0:0:0:0:
360,187,462875,1,0,0:0:0:0:
376,14,463041,1,0,0:0:0:0:
227,202,463208,6,0,L|34:217,1,183.999994384766,2|0,0:0|0:0,0:0:0:0:
305,300,463708,1,8,0:0:0:0:
450,244,463874,1,0,0:0:0:0:
329,180,464041,1,0,0:0:0:0:
414,335,464208,2,0,P|484:339|517:322,1,91.9999971923829,2|0,0:0|0:0,0:0:0:0:
419,147,464541,1,0,0:0:0:0:
247,224,464708,2,0,B|156:265|149:197|60:233,1,191.666666666667,8|0,0:0|0:0,0:0:0:0:
54,244,465208,5,2,0:0:0:0:
45,263,465541,5,0,0:0:0:0:
160,323,465708,1,8,0:0:0:0:
197,154,465874,1,0,0:0:0:0:
197,154,465958,1,0,0:0:0:0:
197,154,466041,1,0,0:0:0:0:
386,335,466208,5,2,0:0:0:0:
447,74,466374,1,0,0:0:0:0:
447,74,466458,1,0,0:0:0:0:
447,74,466541,1,0,0:0:0:0:
236,234,466708,5,8,0:0:0:0:
503,237,466874,1,0,0:0:0:0:
347,28,467041,1,0,0:0:0:0:
298,332,467208,6,0,B|220:320|220:320|194:330|194:330|117:316,1,183.999994384766,2|0,0:0|0:0,0:0:0:0:
301,130,467708,1,8,0:0:0:0:
384,252,467874,1,0,0:0:0:0:
231,216,468041,1,0,0:0:0:0:
467,189,468208,2,0,L|457:5,1,183.999994384766,2|0,0:0|0:0,0:0:0:0:
140,103,468708,1,8,0:0:0:0:
301,130,468874,1,0,0:0:0:0:
224,14,469041,1,0,0:0:0:0:
209,234,469208,6,0,L|427:221,1,183.999994384766,2|0,0:0|0:0,0:0:0:0:
121,337,469708,1,8,0:0:0:0:
133,166,469874,1,0,0:0:0:0:
234,320,470041,1,0,0:0:0:0:
49,211,470208,2,0,B|24:110|86:130|63:31,1,183.999994384766,2|0,0:0|0:0,0:0:0:0:
217,107,470708,1,8,0:0:0:0:
348,87,470874,1,0,0:0:0:0:
257,6,471041,1,0,0:0:0:0:
288,176,471208,6,0,B|285:262|285:262|289:283|289:283|286:362,1,183.999994384766,2|0,0:0|0:0,0:0:0:0:
79,239,471708,1,8,0:0:0:0:
189,166,471874,1,0,0:0:0:0:
157,306,472041,1,0,0:0:0:0:
111,93,472208,2,0,B|176:69|176:69|326:92,1,183.999994384766,2|0,0:0|0:0,0:0:0:0:
468,225,472708,1,8,0:0:0:0:
331,315,472874,1,0,0:0:0:0:
451,365,473041,1,0,0:0:0:0:
375,240,473208,6,0,L|386:44,1,183.999994384766,2|0,0:0|0:0,0:0:0:0:
268,251,473708,1,8,0:0:0:0:
171,168,473874,1,0,0:0:0:0:
291,159,474041,1,0,0:0:0:0:
191,314,474208,2,0,L|-5:303,1,183.999994384766,2|0,0:0|0:0,0:0:0:0:
154,48,474708,1,8,0:0:0:0:
163,201,474874,1,0,0:0:0:0:
55,111,475041,1,0,0:0:0:0:
220,107,475208,6,0,B|308:85|309:131|402:107,1,183.999994384766,2|0,0:0|0:0,0:0:0:0:
251,318,475708,1,8,0:0:0:0:
212,196,475874,1,0,0:0:0:0:
359,268,476041,1,0,0:0:0:0:
129,280,476208,2,0,B|120:195|120:195|131:70,1,183.999994384766,2|0,0:0|0:0,0:0:0:0:
51,354,476708,1,8,0:0:0:0:
218,252,476874,1,0,0:0:0:0:
32,228,477041,1,0,0:0:0:0:
202,345,477208,6,0,L|385:330,1,183.999994384766,2|0,0:0|0:0,0:0:0:0:
394,77,477708,1,8,0:0:0:0:
324,206,477874,1,0,0:0:0:0:
479,154,478041,1,0,0:0:0:0:
281,114,478208,2,0,B|205:110|205:110|185:118|185:118|95:114,1,183.999994384766,2|0,0:0|0:0,0:0:0:0:
244,343,478708,1,8,0:0:0:0:
226,224,478874,1,0,0:0:0:0:
121,324,479041,1,0,0:0:0:0:
322,285,479208,6,0,B|409:264|421:308|503:290,1,183.999994384766,2|0,0:0|0:0,0:0:0:0:
316,53,479708,1,8,0:0:0:0:
406,146,479874,1,0,0:0:0:0:
413,20,480041,1,0,0:0:0:0:
214,26,480208,2,0,L|206:241,1,183.999994384766,2|0,0:0|0:0,0:0:0:0:
54,378,480708,1,8,0:0:0:0:
99,232,480874,1,0,0:0:0:0:
0,305,481041,1,0,0:0:0:0:
185,346,481208,6,0,P|222:335|248:308,1,76.6666666666667,2|0,0:0|0:0,0:0:0:0:
248,296,481458,1,0,0:0:0:0:
246,284,481541,1,0,0:0:0:0:
199,75,481708,6,0,P|168:103|156:144,1,84.3333359069825,8|0,0:0|0:0,0:0:0:0:
163,154,481958,1,0,0:0:0:0:
171,164,482041,1,0,0:0:0:0:
424,107,482208,5,2,0:0:0:0:
252,154,482374,1,0,0:0:0:0:
312,47,482541,1,0,0:0:0:0:
236,370,482708,5,8,0:0:0:0:
277,244,482874,1,0,0:0:0:0:
106,326,483041,1,0,0:0:0:0:
343,329,483202,6,0,B|364:250|364:250|343:130,1,183.999994384766,2|0,0:0|0:0,0:0:0:0:
106,326,483702,1,8,0:0:0:0:
194,213,483868,1,0,0:0:0:0:
218,361,484035,1,0,0:0:0:0:
101,229,484202,2,0,B|110:46,1,183.999994384766,2|0,0:0|0:0,0:0:0:0:
369,46,484702,1,8,0:0:0:0:
322,200,484868,1,0,0:0:0:0:
219,62,485035,1,0,0:0:0:0:
432,128,485202,6,0,L|421:338,1,183.999994384766,2|0,0:0|0:0,0:0:0:0:
154,266,485702,1,8,0:0:0:0:
46,217,485868,1,0,0:0:0:0:
115,354,486035,1,0,0:0:0:0:
250,226,486202,2,0,L|246:36,1,183.999994384766,2|0,0:0|0:0,0:0:0:0:
317,307,486702,1,8,0:0:0:0:
159,249,486868,1,0,0:0:0:0:
356,202,487035,1,0,0:0:0:0:
98,106,487202,6,0,B|121:214|58:188|83:284,1,183.999994384766,2|0,0:0|0:0,0:0:0:0:
37,9,487702,1,8,0:0:0:0:
190,123,487868,1,0,0:0:0:0:
14,138,488035,1,0,0:0:0:0:
185,30,488202,2,0,L|408:51,1,183.999994384766,2|0,0:0|0:0,0:0:0:0:
388,281,488702,1,8,0:0:0:0:
301,176,488868,1,0,0:0:0:0:
466,197,489035,1,0,0:0:0:0:
290,291,489202,6,0,L|106:273,1,183.999994384766,2|0,0:0|0:0,0:0:0:0:
182,62,489702,1,8,0:0:0:0:
190,201,489868,1,0,0:0:0:0:
59,86,490035,1,0,0:0:0:0:
280,189,490202,2,0,L|288:5,1,183.999994384766,2|0,0:0|0:0,0:0:0:0:
422,252,490702,1,8,0:0:0:0:
173,289,490868,1,0,0:0:0:0:
59,86,491035,1,0,0:0:0:0:
91,360,491202,6,0,B|176:374|176:374|274:355,1,183.999994384766,2|0,0:0|0:0,0:0:0:0:
115,152,491702,1,8,0:0:0:0:
62,276,491868,1,0,0:0:0:0:
191,207,492035,1,0,0:0:0:0:
22,0,492202,2,0,L|26:205,1,183.999994384766,2|0,0:0|0:0,0:0:0:0:
208,109,492702,1,8,0:0:0:0:
335,225,492868,1,0,0:0:0:0:
191,207,493035,1,0,0:0:0:0:
421,98,493202,6,0,L|417:303,1,183.999994384766,2|0,0:0|0:0,0:0:0:0:
330,16,493702,1,8,0:0:0:0:
501,51,493868,1,0,0:0:0:0:
302,109,494035,1,0,0:0:0:0:
53,57,494202,2,0,L|246:41,1,183.999994384766,2|0,0:0|0:0,0:0:0:0:
351,289,494702,1,8,0:0:0:0:
208,288,494868,1,0,0:0:0:0:
286,195,495035,1,0,0:0:0:0:
124,334,495202,6,0,B|97:246|157:243|131:154,1,183.999994384766,2|0,0:0|0:0,0:0:0:0:
309,11,495702,1,8,0:0:0:0:
382,141,495868,1,0,0:0:0:0:
204,103,496035,1,0,0:0:0:0:
455,61,496202,2,0,B|476:127|476:127|463:261,1,183.999994384766,2|0,0:0|0:0,0:0:0:0:
222,198,496702,1,8,0:0:0:0:
382,141,496868,1,0,0:0:0:0:
303,290,497035,1,0,0:0:0:0:
287,77,497202,6,0,L|80:66,1,183.999994384766,2|0,0:0|0:0,0:0:0:0:
123,267,497702,1,8,0:0:0:0:
241,175,497868,1,0,0:0:0:0:
63,155,498035,1,0,0:0:0:0:
237,274,498202,2,0,L|444:263,1,183.999994384766,2|0,0:0|0:0,0:0:0:0:
387,26,498702,1,8,0:0:0:0:
138,101,498868,1,0,0:0:0:0:
78,345,499035,1,0,0:0:0:0:
68,34,499202,6,0,B|123:17|123:17|264:36,1,183.999994384766,2|0,0:0|0:0,0:0:0:0:
229,249,499702,1,8,0:0:0:0:
363,148,499868,1,0,0:0:0:0:
196,142,500035,1,0,0:0:0:0:
329,271,500202,2,0,L|512:261,1,183.999994384766,2|0,0:0|0:0,0:0:0:0:
377,73,500702,1,8,0:0:0:0:
291,187,500868,1,0,0:0:0:0:
455,130,501035,1,0,0:0:0:0:
289,76,501202,6,0,B|205:72|205:72|190:62|190:62|108:58,1,183.999994384766,2|0,0:0|0:0,0:0:0:0:
248,257,501702,1,8,0:0:0:0:
330,152,501868,1,0,0:0:0:0:
176,164,502035,1,0,0:0:0:0:
413,199,502202,2,0,L|402:382,1,183.999994384766,2|0,0:0|0:0,0:0:0:0:
267,91,502702,1,8,0:0:0:0:
414,12,502868,1,0,0:0:0:0:
502,153,503035,1,0,0:0:0:0:
311,175,503202,6,0,B|208:207|239:143|131:175,1,183.999994384766,2|0,0:0|0:0,0:0:0:0:
151,384,503702,1,8,0:0:0:0:
186,249,503868,1,0,0:0:0:0:
56,285,504035,1,0,0:0:0:0:
263,321,504202,2,0,L|463:311,1,183.999994384766,2|0,0:0|0:0,0:0:0:0:
337,63,504702,1,8,0:0:0:0:
270,196,504868,1,0,0:0:0:0:
426,141,505035,1,0,0:0:0:0:
184,67,505202,6,0,B|188:144|188:144|179:167|179:167|185:248,1,183.999994384766,2|0,0:0|0:0,0:0:0:0:
0,298,505702,1,8,0:0:0:0:
105,214,505868,1,0,0:0:0:0:
80,367,506035,1,0,0:0:0:0:
16,206,506202,2,0,L|25:22,1,183.999994384766,2|0,0:0|0:0,0:0:0:0:
168,345,506702,1,8,0:0:0:0:
396,276,506868,1,0,0:0:0:0:
484,51,507035,1,0,0:0:0:0:
232,121,507202,6,0,L|248:325,1,183.999994384766,2|0,0:0|0:0,0:0:0:0:
483,167,507702,1,8,0:0:0:0:
349,115,507868,1,0,0:0:0:0:
453,268,508035,1,0,0:0:0:0:
441,60,508202,2,0,B|362:28|362:28|235:41,1,183.999994384766,2|0,0:0|0:0,0:0:0:0:
99,217,508702,1,8,0:0:0:0:
239,134,508868,1,0,0:0:0:0:
35,87,509035,1,0,0:0:0:0:
30,288,509202,6,0,B|92:311|92:311|209:297,1,183.999994384766,2|0,0:0|0:0,0:0:0:0:
439,244,509702,1,8,0:0:0:0:
250,180,509868,1,0,0:0:0:0:
295,352,510035,1,0,0:0:0:0:
368,186,510202,2,0,L|362:-1,1,183.999994384766,2|0,0:0|0:0,0:0:0:0:
156,166,510702,1,8,0:0:0:0:
326,257,510868,1,0,0:0:0:0:
316,258,510951,1,0,0:0:0:0:
307,260,511034,1,0,0:0:0:0:
298,262,511117,1,0,0:0:0:0:
289,265,511202,6,0,L|55:246,1,230.000008773804,2|0,0:0|0:0,0:0:0:0:
150,77,511702,5,8,0:0:0:0:
156,166,511868,1,0,0:0:0:0:
79,128,512035,1,0,0:0:0:0:
241,146,512202,5,2,0:0:0:0:
326,169,512368,1,0,0:0:0:0:
302,86,512535,1,0,0:0:0:0:
303,257,512702,5,8,0:0:0:0:
240,322,512868,1,0,0:0:0:0:
216,235,513035,1,0,0:0:0:0:
427,326,513202,6,0,L|419:72,1,230.000008773804,2|0,0:0|0:0,0:0:0:0:
224,114,513702,5,8,0:0:0:0:
133,79,513868,1,0,0:0:0:0:
206,18,514035,1,0,0:0:0:0:
184,209,514202,5,2,0:0:0:0:
212,306,514368,1,0,0:0:0:0:
282,231,514535,1,0,0:0:0:0:
59,180,514702,5,8,0:0:0:0:
320,42,514868,1,0,0:0:0:0:
303,342,515035,1,0,0:0:0:0:
18,87,515202,6,0,L|258:102,1,230.000008773804,2|0,0:0|0:0,0:0:0:0:
414,217,515702,5,8,0:0:0:0:
495,168,515868,1,0,0:0:0:0:
412,128,516035,1,0,0:0:0:0:
361,290,516202,5,2,0:0:0:0:
268,267,516368,1,0,0:0:0:0:
328,197,516535,1,0,0:0:0:0:
175,238,516702,5,8,0:0:0:0:
94,310,516868,1,0,0:0:0:0:
196,340,517035,1,0,0:0:0:0:
107,156,517202,5,2,0:0:0:0:
247,170,517368,1,0,0:0:0:0:
27,224,517535,1,0,0:0:0:0:
85,27,517702,5,8,0:0:0:0:
173,74,517868,1,0,0:0:0:0:
0,71,518035,1,0,0:0:0:0:
270,32,518202,5,2,0:0:0:0:
176,174,518368,1,0,0:0:0:0:
348,88,518535,1,0,0:0:0:0:
272,212,518702,6,0,B|293:271|257:265|274:305,1,95.8333333333333,8|0,0:0|0:0,0:0:0:0:
286,318,519202,6,0,L|56:306,1,230.000008773804,2|0,0:0|0:0,0:0:0:0:
192,91,519702,1,8,0:0:0:0:
245,193,519868,1,0,0:0:0:0:
90,130,520035,1,0,0:0:0:0:
279,112,520202,2,0,L|508:123,1,230.000008773804,2|0,0:0|0:0,0:0:0:0:
281,325,520702,1,8,0:0:0:0:
371,213,520868,1,0,0:0:0:0:
400,324,521035,1,0,0:0:0:0:
206,264,521202,6,0,L|187:26,1,230.000008773804,2|0,0:0|0:0,0:0:0:0:
95,328,521702,1,8,0:0:0:0:
287,224,521868,1,0,0:0:0:0:
97,213,522035,1,0,0:0:0:0:
285,329,522202,1,2,0:0:0:0:
359,82,522368,1,0,0:0:0:0:
197,254,522535,1,0,0:0:0:0:
424,155,522702,2,0,B|338:161|338:161|306:143|306:143|179:153,1,230.000008773804,8|0,0:0|0:0,0:0:0:0:
30,23,523202,6,0,P|100:71|76:216,1,230.000008773804,2|0,0:0|0:0,0:0:0:0:
199,82,523702,1,8,0:0:0:0:
330,156,523868,1,0,0:0:0:0:
184,204,524035,1,0,0:0:0:0:
280,36,524202,2,0,L|509:49,1,230.000008773804,2|0,0:0|0:0,0:0:0:0:
405,298,524702,1,8,0:0:0:0:
356,158,524868,1,0,0:0:0:0:
492,251,525035,1,0,0:0:0:0:
293,273,525202,5,2,0:0:0:0:
163,35,525368,1,0,0:0:0:0:
455,124,525535,1,0,0:0:0:0:
53,213,525702,5,8,0:0:0:0:
329,43,525868,1,0,0:0:0:0:
205,367,526035,1,0,0:0:0:0:
12,60,526202,5,2,0:0:0:0:
458,313,526368,1,0,0:0:0:0:
50,320,526535,1,0,0:0:0:0:
503,74,526702,5,8,0:0:0:0:
259,134,526868,1,0,0:0:0:0:
15,194,527035,1,0,0:0:0:0:
336,81,527202,6,0,B|383:168|288:195|329:302,1,230.000008773804,2|0,0:0|0:0,0:0:0:0:
494,131,527702,1,8,0:0:0:0:
409,248,527868,1,0,0:0:0:0:
492,364,528035,1,0,0:0:0:0:
259,350,528202,2,0,L|12:368,1,230.000008773804,2|0,0:0|0:0,0:0:0:0:
171,112,528702,1,8,0:0:0:0:
205,258,528868,1,0,0:0:0:0:
48,184,529035,1,0,0:0:0:0:
261,172,529202,6,0,L|508:190,1,230.000008773804,2|0,0:0|0:0,0:0:0:0:
130,29,529702,1,8,0:0:0:0:
118,263,529868,1,0,0:0:0:0:
237,70,530035,1,0,0:0:0:0:
254,315,530202,1,2,0:0:0:0:
29,186,530368,1,0,0:0:0:0:
337,113,530535,1,0,0:0:0:0:
130,349,530702,2,0,B|118:262|118:262|138:102,1,230.000008773804,8|0,0:0|0:0,0:0:0:0:
442,241,531202,6,0,L|213:262,1,230.000008773804,2|0,0:0|0:0,0:0:0:0:
365,37,531702,1,8,0:0:0:0:
320,162,531868,1,0,0:0:0:0:
465,82,532035,1,0,0:0:0:0:
268,76,532202,2,0,L|39:97,1,230.000008773804,2|0,0:0|0:0,0:0:0:0:
218,246,532702,1,8,0:0:0:0:
320,162,532868,1,0,0:0:0:0:
369,279,533035,1,0,0:0:0:0:
70,200,533202,5,6,0:0:0:0:
473,112,533368,1,4,0:0:0:0:
8,26,533535,1,4,0:0:0:0:
168,333,533702,5,12,0:0:0:0:
412,24,533868,1,4,0:0:0:0:
506,373,534035,1,4,0:0:0:0:
39,112,534202,5,6,0:0:0:0:
473,112,534368,1,4,0:0:0:0:
6,373,534535,1,4,0:0:0:0:
190,22,534702,5,12,0:0:0:0:
399,383,534868,1,4,0:0:0:0:
1,266,535035,1,4,0:0:0:0:
511,266,535202,5,6,0:0:0:0:
1,98,535368,1,4,0:0:0:0:
511,98,535535,1,4,0:0:0:0:
198,361,535702,5,12,0:0:0:0:
45,18,535868,1,4,0:0:0:0:
449,358,536035,1,4,0:0:0:0:
256,0,536202,5,6,0:0:0:0:
0,288,536368,1,4,0:0:0:0:
512,192,536535,1,4,0:0:0:0:
0,96,536702,5,12,0:0:0:0:
479,15,536868,1,4,0:0:0:0:
179,371,537035,1,4,0:0:0:0:
122,1,537202,5,6,0:0:0:0:
333,371,537368,1,4,0:0:0:0:
390,1,537535,1,4,0:0:0:0:
1,301,537702,5,12,0:0:0:0:
512,192,537868,1,4,0:0:0:0:
1,83,538035,1,4,0:0:0:0:
419,355,538202,5,6,0:0:0:0:
158,13,538368,1,4,0:0:0:0:
93,355,538535,1,4,0:0:0:0:
354,13,538702,5,12,0:0:0:0:
256,384,538868,1,4,0:0:0:0:
0,192,539035,1,4,0:0:0:0:
512,32,539202,5,14,0:0:0:0:
256,192,539368,12,0,559368,0:0:0:0:
