osu file format v14

[General]
AudioFilename: audio.mp3
AudioLeadIn: 0
PreviewTime: 7728
Countdown: 1
SampleSet: Normal
StackLeniency: 0.7
Mode: 0
LetterboxInBreaks: 0
WidescreenStoryboard: 1

[Editor]
Bookmarks: 7728,20434,22787,37846,44434,44904,45375,51963,52434,52904,60434,67963,71728,86787,94316,109375,124434,131912,139493,143257,158316,180904,195963,199728
DistanceSpacing: 1
BeatDivisor: 4
GridSize: 32
TimelineZoom: 1

[Metadata]
Title:Pompeii (Kat Krazy Remix)
TitleUnicode:Pompeii (Kat Krazy Remix)
Artist:Bastille
ArtistUnicode:Bastille
Creator:Lumario
Version:Insane
Source:
Tags:
BeatmapID:1268288
BeatmapSetID:593188

[Difficulty]
HPDrainRate:5
CircleSize:4
OverallDifficulty:5
ApproachRate:9
SliderMultiplier:2.2
SliderTickRate:1

[Events]
//Background and Video events
0,0,"Zebjpbx.jpg",0,0
//Break Periods
2,87020,91327
2,112119,129194
2,158502,196698
//Storyboard Layer 0 (Background)
//Storyboard Layer 1 (Fail)
//Storyboard Layer 2 (Pass)
//Storyboard Layer 3 (Foreground)
//Storyboard Sound Samples

[TimingPoints]
199,470.403763230106,4,1,0,25,1,0
15257,-90.9090909090909,4,1,0,25,0,0
22787,-76.9230769230769,4,1,0,25,0,0
37846,-90.9090909090909,4,1,0,25,0,0
45375,-83.3333333333333,4,1,0,25,0,0
52904,-76.9230769230769,4,1,0,25,0,0
60434,-71.4285714285714,4,1,0,25,0,0
67963,-100,4,1,0,25,0,0
71728,-66.6666666666667,4,1,0,25,0,0
86787,-100,4,1,0,25,0,0
94985,-83.3333333333333,4,1,0,25,0,0
109332,-76.9230769230769,4,1,0,25,0,0
143201,-62.5,4,1,0,25,0,0
199650,-58.8235294117647,4,1,0,25,0,0

[Colours]
Combo1 : 153,83,60
Combo2 : 255,151,47
Combo3 : 15,145,172
Combo4 : 149,138,117

[HitObjects]
110,126,199,6,0,B|181:85|181:85|240:190|341:93,1,275
268,138,904,2,0,B|260:230|260:230|332:213|418:311,1,275
354,252,1610,2,0,B|308:275|302:325|302:325|220:335,1,165
182,266,2080,6,0,B|127:226|127:226|178:149|69:33,1,275
124,109,2786,2,0,B|177:44|177:44|251:93|237:243,1,275
233,133,3491,2,0,B|277:91|325:118|325:118|403:100,1,165
374,186,3962,6,0,B|386:254|372:324|372:324|467:315,1,220
372,324,4667,2,0,B|340:272|340:272|258:305|246:217|246:217|177:284,1,275
246,218,5373,2,0,B|260:144|183:167|183:167|173:107,1,165
91,112,5843,6,0,B|98:11|222:29|222:29|291:103,1,275
231,36,6549,2,0,B|328:-6|373:79|373:79|361:216,1,275
371,103,7255,1,0,0:0:0:0:
465,158,7490,1,0,0:0:0:0:
369,292,7725,5,0,0:0:0:0:
275,237,7960,1,0,0:0:0:0:
267,127,8195,1,0,0:0:0:0:
177,191,8431,2,0,B|150:242|182:311|182:311|315:382,1,275
240,346,9136,2,0,P|272:309|349:305,1,110
177,191,9607,5,0,0:0:0:0:
286,193,9842,1,0,0:0:0:0:
233,96,10077,1,0,0:0:0:0:
177,191,10312,2,0,B|220:274|220:274|330:303|356:246|356:246|404:238,1,275
313,281,11018,1,0,0:0:0:0:
283,175,11253,1,0,0:0:0:0:
111,24,11488,6,0,P|79:60|65:100,1,55
272,159,12194,2,0,P|279:112|256:48,1,110
172,115,12664,1,0,0:0:0:0:
182,222,12899,2,0,P|224:255|265:267,1,55
237,372,13370,2,0,P|155:334|90:265,1,165
75,163,14075,1,0,0:0:0:0:
399,165,14781,1,0,0:0:0:0:
306,221,15016,1,0,0:0:0:0:
306,113,15251,6,0,P|272:67|220:40,1,99.0000030212403,8|0,0:0|0:0,0:0:0:0:
194,156,15722,1,8,0:0:0:0:
100,41,15957,1,0,0:0:0:0:
73,157,16192,2,0,P|84:214|112:251,1,99.0000030212403,8|0,0:0|0:0,0:0:0:0:
228,245,16663,2,0,P|220:196|193:155,1,99.0000030212403,8|0,0:0|0:0,0:0:0:0:
165,301,17133,5,8,0:0:0:0:
282,314,17368,1,0,0:0:0:0:
309,200,17603,1,8,0:0:0:0:
424,293,17839,1,0,0:0:0:0:
428,172,18074,2,0,P|413:126|380:89,1,99.0000030212403,8|0,0:0|0:0,0:0:0:0:
260,116,18544,2,0,P|275:162|308:199,1,99.0000030212403,8|0,0:0|0:0,0:0:0:0:
308,50,19015,6,0,P|255:34|199:57,1,99.0000030212403,8|0,0:0|0:0,0:0:0:0:
184,161,19485,1,8,0:0:0:0:
61,77,19720,1,0,0:0:0:0:
70,195,19955,2,0,P|96:246|144:275,1,99.0000030212403,8|0,0:0|0:0,0:0:0:0:
243,235,20426,2,0,P|217:184|169:155,1,99.0000030212403,8|0,0:0|0:0,0:0:0:0:
202,307,20896,6,0,P|254:317|298:297,1,99.0000030212403,8|0,0:0|0:0,0:0:0:0:
311,181,21367,1,8,0:0:0:0:
347,374,21602,1,0,0:0:0:0:
387,229,21837,1,8,0:0:0:0:
431,370,22072,1,0,0:0:0:0:
492,182,22307,1,8,0:0:0:0:
328,294,22543,1,0,0:0:0:0:
318,84,22778,6,0,P|262:60|191:69,1,116.999994644165
6,184,23248,2,0,P|40:134|105:104,1,116.999994644165
247,185,23719,1,0,0:0:0:0:
108,292,23954,1,0,0:0:0:0:
127,322,24071,1,0,0:0:0:0:
166,350,24189,1,0,0:0:0:0:
341,357,24424,6,0,P|394:340|434:289,2,116.999994644165
202,248,25130,1,0,0:0:0:0:
337,137,25365,1,0,0:0:0:0:
237,348,25600,1,0,0:0:0:0:
414,194,25836,1,0,0:0:0:0:
341,357,26071,1,0,0:0:0:0:
486,258,26306,1,0,0:0:0:0:
312,236,26541,6,0,P|261:188|247:127,1,116.999994644165
441,12,27012,2,0,P|485:49|505:103,1,116.999994644165
272,74,27482,2,0,P|309:29|363:9,1,116.999994644165
395,240,27952,6,0,P|449:219|486:175,1,116.999994644165
348,145,28423,1,0,0:0:0:0:
348,145,28658,2,0,P|307:186|292:242,1,116.999994644165
430,272,29128,2,0,P|470:230|485:174,1,116.999994644165
399,63,29599,1,0,0:0:0:0:
341,290,29834,2,0,P|283:289|232:260,1,116.999994644165
117,57,30304,6,0,P|117:114|146:165,1,116.999994644165
376,122,30775,2,0,P|318:122|267:151,1,116.999994644165
133,263,31245,1,0,0:0:0:0:
273,368,31480,1,0,0:0:0:0:
308,376,31598,1,0,0:0:0:0:
351,365,31716,1,0,0:0:0:0:
432,209,31951,6,0,P|415:156|364:116,2,116.999994644165
261,166,32656,1,0,0:0:0:0:
244,339,32892,1,0,0:0:0:0:
165,120,33127,1,0,0:0:0:0:
146,353,33362,1,0,0:0:0:0:
146,315,33480,1,0,0:0:0:0:
171,273,33597,1,0,0:0:0:0:
335,213,33832,1,0,0:0:0:0:
355,175,33950,1,0,0:0:0:0:
350,133,34068,6,0,P|302:82|241:68,1,116.999994644165
131,265,34538,2,0,P|168:309|222:329,1,116.999994644165
188,96,35008,2,0,P|143:133|123:187,1,116.999994644165
357,211,35479,2,0,P|337:265|292:302,1,116.999994644165
317,70,35949,5,0,0:0:0:0:
191,268,36184,1,0,0:0:0:0:
349,192,36420,1,0,0:0:0:0:
201,97,36655,1,0,0:0:0:0:
309,304,36890,2,0,P|366:308|419:284,1,116.999994644165
431,108,37360,1,0,0:0:0:0:
263,160,37596,1,0,0:0:0:0:
492,207,37831,6,0,P|515:253|510:327,1,116.999994644165
404,203,38301,1,0,0:0:0:0:
436,347,38536,1,0,0:0:0:0:
295,296,38772,1,0,0:0:0:0:
490,263,39007,1,0,0:0:0:0:
454,118,39242,1,0,0:0:0:0:
403,310,39477,6,0,P|443:350|492:365,1,99.0000030212403
311,263,39948,2,0,P|341:226|414:206,1,99.0000030212403
220,314,40418,2,0,P|260:354|309:369,1,99.0000030212403
127,270,40888,2,0,P|157:233|230:213,1,99.0000030212403
35,320,41359,6,0,P|75:360|124:375,2,99.0000030212403
35,121,42064,2,0,P|75:81|124:66,1,99.0000030212403
219,234,42535,2,0,P|179:194|130:179,1,99.0000030212403
186,321,43005,1,0,0:0:0:0:
311,241,43240,6,0,P|351:201|366:152,1,99.0000030212403
221,120,43711,1,0,0:0:0:0:
242,266,43946,1,0,0:0:0:0:
364,161,44181,1,0,0:0:0:0:
176,224,44416,2,0,P|167:280|197:332,1,99.0000030212403
315,248,44887,1,0,0:0:0:0:
183,317,45122,6,0,P|127:326|75:296,1,99.0000030212403
124,151,45592,2,0,P|169:133|225:147,1,107.999996704102
277,357,46063,1,0,0:0:0:0:
177,228,46298,1,0,0:0:0:0:
388,188,46533,1,0,0:0:0:0:
280,67,46768,1,0,0:0:0:0:
280,282,47004,6,0,P|288:335|318:377,1,107.999996704102
438,197,47474,2,0,P|429:249|398:293,1,107.999996704102
286,108,47944,2,0,P|294:161|324:203,1,107.999996704102
444,23,48415,2,0,P|435:75|404:119,1,107.999996704102
188,119,48885,6,0,P|156:75|148:22,2,107.999996704102
404,119,49591,2,0,P|395:171|364:215,1,107.999996704102
147,215,50061,2,0,P|155:267|186:311,1,107.999996704102
265,168,50532,1,0,0:0:0:0:
107,118,50767,6,0,P|115:170|146:214,1,107.999996704102
174,54,51237,1,0,0:0:0:0:
21,107,51473,1,0,0:0:0:0:
146,214,51708,1,0,0:0:0:0:
266,106,51943,2,0,P|278:53|255:-9,1,107.999996704102
172,137,52413,1,0,0:0:0:0:
331,163,52649,1,0,0:0:0:0:
215,295,52884,6,0,P|163:309|111:297,1,107.999996704102
249,167,53354,1,0,0:0:0:0:
336,318,53589,1,0,0:0:0:0:
430,169,53825,1,0,0:0:0:0:
215,295,54060,1,0,0:0:0:0:
337,169,54295,1,0,0:0:0:0:
130,277,54530,6,0,P|138:330|185:381,1,116.999994644165
4,219,55001,2,0,P|12:272|59:323,1,116.999994644165
283,276,55471,2,0,P|275:329|228:380,1,116.999994644165
409,218,55941,2,0,P|401:271|354:322,1,116.999994644165
254,111,56412,6,0,P|298:79|362:72,2,116.999994644165
474,192,57117,2,0,P|465:244|434:288,1,107.999996704102
195,204,57588,2,0,P|203:256|234:300,1,107.999996704102
254,111,58058,1,0,0:0:0:0:
90,173,58293,6,0,P|98:225|134:280,1,116.999994644165
262,134,58764,1,0,0:0:0:0:
90,173,58999,1,0,0:0:0:0:
209,301,59234,1,0,0:0:0:0:
172,129,59469,2,0,P|134:91|69:78,1,116.999994644165
20,245,59940,1,0,0:0:0:0:
238,330,60175,6,0,P|182:339|130:309,1,116.999994644165
378,261,60645,2,0,P|396:306|376:383,1,125.999996154785
293,209,61116,1,0,0:0:0:0:
477,253,61351,1,0,0:0:0:0:
238,330,61586,1,0,0:0:0:0:
387,215,61821,1,0,0:0:0:0:
142,262,62057,6,0,P|171:306|238:330,1,125.999996154785
479,258,62527,2,0,P|450:302|383:326,1,125.999996154785
465,86,62997,2,0,P|428:135|369:154,1,125.999996154785
127,90,63468,2,0,P|163:139|222:158,1,125.999996154785
469,212,63938,6,0,P|458:273|422:325,2,125.999996154785
284,39,64644,2,0,P|345:49|397:85,1,125.999996154785
190,231,65114,2,0,P|241:266|303:277,1,125.999996154785
199,118,65585,1,0,0:0:0:0:
89,271,65820,6,0,P|136:322|197:334,1,125.999996154785
96,169,66290,1,0,0:0:0:0:
3,333,66525,1,0,0:0:0:0:
189,334,66761,1,0,0:0:0:0:
96,169,66996,2,0,P|47:194|7:263,1,125.999996154785
196,222,67466,1,0,0:0:0:0:
107,55,67701,1,0,0:0:0:0:
327,96,67937,1,0,0:0:0:0:
328,243,69348,6,0,P|367:207|370:152,1,90
371,127,69701,1,0,0:0:0:0:
344,90,69818,1,0,0:0:0:0:
303,71,69936,1,0,0:0:0:0:
258,74,70053,1,0,0:0:0:0:
222,101,70171,1,0,0:0:0:0:
193,135,70289,2,0,P|170:180|178:238,1,90
185,261,70641,1,0,0:0:0:0:
219,289,70759,2,0,P|254:316|299:335,1,90
340,328,71112,1,0,0:0:0:0:
380,308,71229,2,0,L|423:272,1,45
439,241,71465,2,0,L|459:186,1,45
195,184,71700,6,0,B|160:186|160:186|137:181|137:181|123:190|123:190|104:189|104:189|68:209,1,135.000005149842
375,90,72170,2,0,B|397:67|397:67|428:68|428:68|449:59|449:59|467:71|467:71|494:65,1,135.000005149842
245,326,72641,2,0,B|224:290|224:290|225:271|225:271|216:257|216:257|221:234|221:234|219:199,1,135.000005149842
422,192,73111,2,0,B|431:182|431:182|449:177|449:177|475:152,1,67.5000025749208
468,51,73346,2,0,B|450:70|450:70|434:77|434:77|419:96,1,67.5000025749208
329,142,73581,6,0,B|331:177|331:177|322:193|322:193|333:222|333:222|345:226|345:226|354:268,1,135.000005149842
165,340,74052,2,0,B|130:342|130:342|117:323|117:323|101:312|101:312|77:305|77:305|66:272,1,135.000005149842
233,160,74522,2,0,B|258:188|258:188|257:213|257:213|287:218|287:218|284:247|284:247|315:262,1,135.000005149842
93,230,74993,2,0,B|61:257|61:257|49:259|49:259|40:269,1,67.5000025749208
72,365,75228,2,0,B|87:346|87:346|103:339|103:339|128:311,1,67.5000025749208
206,265,75463,6,0,B|249:275|249:275|253:298|253:298|274:298|274:298|302:308|302:308|330:297,1,135.000005149842
423,129,75934,2,0,B|417:117|417:117|386:113|386:113|361:116|361:116|350:90|350:90|310:101,1,135.000005149842
150,219,76404,2,0,B|175:247|175:247|179:270|179:270|192:287|192:287|201:306|201:306|191:336,1,135.000005149842
52,41,76874,2,0,B|34:63|34:63|7:64|7:64|6:102,1,67.5000025749208
50,167,77110,2,0,B|67:173|67:173|92:164|92:164|119:135,1,67.5000025749208
165,62,77345,6,0,B|200:65|200:65|226:81|226:81|238:99|238:99|241:129|241:129|227:168,1,135.000005149842
55,241,77815,2,0,B|45:265|45:265|50:291|50:291|65:316,1,67.5000025749208
149,348,78050,2,0,B|166:354|166:354|191:345|191:345|218:316,1,67.5000025749208
298,283,78286,6,0,B|329:309|329:309|348:312|348:312|379:307|379:307|406:287|406:287|414:247,1,135.000005149842
360,80,78756,2,0,B|335:86|335:86|317:106|317:106|314:141,1,67.5000025749208
397,180,78991,2,0,B|414:186|414:186|439:177|439:177|454:160,1,67.5000025749208
266,220,79226,6,0,B|273:241|273:241|307:246|307:246|302:274|302:274|336:273|336:273|327:314|327:314|358:363,1,202.500007724762
249,368,79697,2,0,B|246:348|246:348|228:328|228:328|222:304|222:304|198:292|198:292|183:245,1,135.000005149842
310,96,80167,2,0,B|338:81|338:81|357:93|357:93|380:89|380:89|399:106|399:106|400:145,1,135.000005149842
259,284,80638,2,0,B|257:298|257:298|232:304|232:304|214:324,1,67.5000025749208
180,229,80873,2,0,B|192:225|192:225|218:198|218:198|237:209,1,67.5000025749208
335,198,81108,6,0,B|329:228|329:228|342:252|342:252|345:278|345:278|363:289|363:289|376:315,1,135.000005149842
475,51,81578,2,0,B|440:53|440:53|426:36|426:36|408:25|408:25|384:30|384:30|349:20,1,135.000005149842
159,78,82049,2,0,B|184:106|184:106|183:131|183:131|213:136|213:136|210:165|210:165|241:180,1,135.000005149842
412,239,82519,2,0,B|440:251|440:251|450:273|450:273|465:278,1,67.5000025749208
393,351,82754,2,0,B|382:332|382:332|362:325|362:325|337:297,1,67.5000025749208
247,280,82990,6,0,B|249:245|249:245|240:229|240:229|251:200|251:200|263:196|263:196|270:158,1,135.000005149842
103,44,83460,2,0,B|89:58|89:58|89:79|89:79|67:96|67:96|62:127|62:127|64:162,1,135.000005149842
221,290,83930,2,0,B|234:320|234:320|251:334|251:334|281:340|281:340|294:358|294:358|321:354,1,135.000005149842
424,179,84401,2,0,B|433:169|433:169|445:167|445:167|477:140,1,67.5000025749208
357,102,84636,2,0,B|339:121|339:121|323:128|323:128|308:147,1,67.5000025749208
340,243,84871,6,0,B|359:270|359:270|379:285|379:285|402:286|402:286|414:313|414:313|402:349,1,135.000005149842
203,345,85342,2,0,B|195:332|195:332|206:311|206:311|200:282,1,67.5000025749208
278,216,85577,2,0,B|299:217|299:217|318:190|318:190|335:196,1,67.5000025749208
330,298,85812,6,0,B|368:317|368:317|388:297|388:297|413:294|413:294|410:266|410:266|410:230,1,135.000005149842
302,83,86282,2,0,B|304:115|304:115|296:141|296:141|318:169,1,67.5000025749208
374,216,86518,2,0,B|394:208|394:208|416:213|416:213|431:196,1,67.5000025749208
56,120,91927,5,0,0:0:0:0:
325,97,92398,1,0,0:0:0:0:
325,97,93103,1,0,0:0:0:0:
358,227,93338,1,0,0:0:0:0:
227,192,93574,1,0,0:0:0:0:
262,322,93809,1,0,0:0:0:0:
392,357,94044,1,0,0:0:0:0:
487,262,94279,5,0,0:0:0:0:
452,133,94514,1,0,0:0:0:0:
325,97,94750,1,0,0:0:0:0:
227,192,94985,1,0,0:0:0:0:
263,34,95220,2,0,P|326:12|378:26,1,107.999996704102
496,193,95690,2,0,P|443:231|399:232,1,107.999996704102
263,147,96161,5,0,0:0:0:0:
424,150,96396,1,0,0:0:0:0:
350,294,96631,1,0,0:0:0:0:
346,132,96866,1,0,0:0:0:0:
265,272,97102,2,0,P|270:324|304:366,1,107.999996704102
348,210,97572,1,0,0:0:0:0:
186,210,97807,1,0,0:0:0:0:
387,115,98042,6,0,P|381:167|347:209,1,107.999996704102
224,102,98513,1,0,0:0:0:0:
91,195,98748,2,0,P|96:247|130:289,1,107.999996704102
265,199,99218,1,0,0:0:0:0:
127,112,99454,1,0,0:0:0:0:
203,254,99689,1,0,0:0:0:0:
174,40,99924,6,0,P|207:81|213:134,1,107.999996704102
56,89,100395,1,0,0:0:0:0:
162,211,100630,1,0,0:0:0:0:
0,211,100865,2,0,P|6:264|37:307,1,107.999996704102
135,123,101335,1,0,0:0:0:0:
240,246,101571,1,0,0:0:0:0:
24,246,101806,5,0,0:0:0:0:
138,360,102041,1,0,0:0:0:0:
138,198,102276,1,0,0:0:0:0:
221,336,102511,1,0,0:0:0:0:
358,249,102747,2,0,P|353:197|319:155,1,107.999996704102
456,70,103217,2,0,P|489:111|495:164,1,107.999996704102
221,290,103687,5,0,0:0:0:0:
303,150,103923,1,0,0:0:0:0:
141,149,104158,1,0,0:0:0:0:
221,290,104393,1,0,0:0:0:0:
377,249,104628,2,0,P|429:244|471:210,1,107.999996704102
41,76,105099,2,0,P|82:42|135:36,1,107.999996704102
27,223,105569,6,0,P|79:218|121:184,1,107.999996704102
279,215,106039,1,0,0:0:0:0:
158,154,106275,1,0,0:0:0:0:
343,65,106510,2,0,P|291:70|249:104,1,107.999996704102
43,354,106980,2,0,P|95:348|137:314,1,107.999996704102
154,98,107451,5,0,0:0:0:0:
314,119,107686,1,0,0:0:0:0:
209,242,107921,1,0,0:0:0:0:
65,167,108156,2,0,P|70:219|104:261,1,107.999996704102
227,155,108627,1,0,0:0:0:0:
257,313,108862,1,0,0:0:0:0:
149,191,109097,1,0,0:0:0:0:
309,172,109332,5,0,0:0:0:0:
309,172,109567,1,0,0:0:0:0:
454,72,109803,1,0,0:0:0:0:
292,2,110038,2,0,P|231:13|184:53,1,116.999994644165
309,172,110508,2,0,P|370:183|417:223,1,116.999994644165
302,354,110979,6,0,P|241:343|194:303,1,116.999994644165
147,141,111449,1,0,0:0:0:0:
285,248,111684,1,0,0:0:0:0:
110,265,111919,1,0,0:0:0:0:
90,173,129794,6,0,P|98:225|134:280,1,116.999994644165
262,134,130265,1,0,0:0:0:0:
90,173,130500,1,0,0:0:0:0:
209,301,130735,1,0,0:0:0:0:
172,129,130970,2,0,P|134:91|69:78,1,116.999994644165
20,245,131441,1,0,0:0:0:0:
238,330,131676,6,0,P|182:339|130:309,1,116.999994644165
378,261,132146,2,0,P|396:306|376:383,1,125.999996154785
293,209,132617,1,0,0:0:0:0:
477,253,132852,1,0,0:0:0:0:
238,330,133087,1,0,0:0:0:0:
387,215,133322,1,0,0:0:0:0:
142,262,133558,6,0,P|171:306|238:330,1,125.999996154785
479,258,134028,2,0,P|450:302|383:326,1,125.999996154785
465,86,134498,2,0,P|428:135|369:154,1,125.999996154785
127,90,134969,2,0,P|163:139|222:158,1,125.999996154785
469,212,135439,6,0,P|458:273|422:325,2,125.999996154785
284,39,136145,2,0,P|345:49|397:85,1,125.999996154785
190,231,136615,2,0,P|241:266|303:277,1,125.999996154785
199,118,137086,1,0,0:0:0:0:
89,271,137321,6,0,P|136:322|197:334,1,125.999996154785
96,169,137791,1,0,0:0:0:0:
3,333,138026,1,0,0:0:0:0:
189,334,138262,1,0,0:0:0:0:
96,169,138497,2,0,P|47:194|7:263,1,125.999996154785
196,222,138967,1,0,0:0:0:0:
107,55,139202,1,0,0:0:0:0:
327,96,139438,1,0,0:0:0:0:
328,243,140849,6,0,P|367:207|370:152,1,90
371,127,141202,1,0,0:0:0:0:
344,90,141319,1,0,0:0:0:0:
303,71,141437,1,0,0:0:0:0:
258,74,141554,1,0,0:0:0:0:
222,101,141672,1,0,0:0:0:0:
193,135,141790,2,0,P|170:180|178:238,1,90
185,261,142142,1,0,0:0:0:0:
219,289,142260,2,0,P|254:316|299:335,1,90
340,328,142613,1,0,0:0:0:0:
380,308,142730,2,0,L|423:272,1,45
439,241,142966,2,0,L|459:186,1,45
195,184,143201,6,0,B|160:186|160:186|137:181|137:181|123:190|123:190|104:189|104:189|68:209,1,135.000005149842
375,90,143671,2,0,B|397:67|397:67|428:68|428:68|449:59|449:59|467:71|467:71|494:65,1,135.000005149842
245,326,144142,2,0,B|224:290|224:290|225:271|225:271|216:257|216:257|221:234|221:234|219:199,1,135.000005149842
422,192,144612,2,0,B|431:182|431:182|449:177|449:177|475:152,1,67.5000025749208
468,51,144847,2,0,B|450:70|450:70|434:77|434:77|419:96,1,67.5000025749208
329,142,145082,6,0,B|331:177|331:177|322:193|322:193|333:222|333:222|345:226|345:226|354:268,1,135.000005149842
165,340,145553,2,0,B|130:342|130:342|117:323|117:323|101:312|101:312|77:305|77:305|66:272,1,135.000005149842
233,160,146023,2,0,B|258:188|258:188|257:213|257:213|287:218|287:218|284:247|284:247|315:262,1,135.000005149842
93,230,146494,2,0,B|61:257|61:257|49:259|49:259|40:269,1,67.5000025749208
72,365,146729,2,0,B|87:346|87:346|103:339|103:339|128:311,1,67.5000025749208
206,265,146964,6,0,B|249:275|249:275|253:298|253:298|274:298|274:298|302:308|302:308|330:297,1,135.000005149842
423,129,147435,2,0,B|417:117|417:117|386:113|386:113|361:116|361:116|350:90|350:90|310:101,1,135.000005149842
150,219,147905,2,0,B|175:247|175:247|179:270|179:270|192:287|192:287|201:306|201:306|191:336,1,135.000005149842
52,41,148375,2,0,B|34:63|34:63|7:64|7:64|6:102,1,67.5000025749208
50,167,148611,2,0,B|67:173|67:173|92:164|92:164|119:135,1,67.5000025749208
165,62,148846,6,0,B|200:65|200:65|226:81|226:81|238:99|238:99|241:129|241:129|227:168,1,135.000005149842
55,241,149316,2,0,B|45:265|45:265|50:291|50:291|65:316,1,67.5000025749208
149,348,149551,2,0,B|166:354|166:354|191:345|191:345|218:316,1,67.5000025749208
298,283,149787,6,0,B|329:309|329:309|348:312|348:312|379:307|379:307|406:287|406:287|414:247,1,135.000005149842
360,80,150257,2,0,B|335:86|335:86|317:106|317:106|314:141,1,67.5000025749208
397,180,150492,2,0,B|414:186|414:186|439:177|439:177|454:160,1,67.5000025749208
266,220,150727,6,0,B|273:241|273:241|307:246|307:246|302:274|302:274|336:273|336:273|327:314|327:314|358:363,1,202.500007724762
249,368,151198,2,0,B|246:348|246:348|228:328|228:328|222:304|222:304|198:292|198:292|183:245,1,135.000005149842
310,96,151668,2,0,B|338:81|338:81|357:93|357:93|380:89|380:89|399:106|399:106|400:145,1,135.000005149842
259,284,152139,2,0,B|257:298|257:298|232:304|232:304|214:324,1,67.5000025749208
180,229,152374,2,0,B|192:225|192:225|218:198|218:198|237:209,1,67.5000025749208
335,198,152609,6,0,B|329:228|329:228|342:252|342:252|345:278|345:278|363:289|363:289|376:315,1,135.000005149842
475,51,153079,2,0,B|440:53|440:53|426:36|426:36|408:25|408:25|384:30|384:30|349:20,1,135.000005149842
159,78,153550,2,0,B|184:106|184:106|183:131|183:131|213:136|213:136|210:165|210:165|241:180,1,135.000005149842
412,239,154020,2,0,B|440:251|440:251|450:273|450:273|465:278,1,67.5000025749208
393,351,154255,2,0,B|382:332|382:332|362:325|362:325|337:297,1,67.5000025749208
247,280,154491,6,0,B|249:245|249:245|240:229|240:229|251:200|251:200|263:196|263:196|270:158,1,135.000005149842
103,44,154961,2,0,B|89:58|89:58|89:79|89:79|67:96|67:96|62:127|62:127|64:162,1,135.000005149842
221,290,155431,2,0,B|234:320|234:320|251:334|251:334|281:340|281:340|294:358|294:358|321:354,1,135.000005149842
424,179,155902,2,0,B|433:169|433:169|445:167|445:167|477:140,1,67.5000025749208
357,102,156137,2,0,B|339:121|339:121|323:128|323:128|308:147,1,67.5000025749208
340,243,156372,6,0,B|359:270|359:270|379:285|379:285|402:286|402:286|414:313|414:313|402:349,1,135.000005149842
203,345,156843,2,0,B|195:332|195:332|206:311|206:311|200:282,1,67.5000025749208
278,216,157078,2,0,B|299:217|299:217|318:190|318:190|335:196,1,67.5000025749208
330,298,157313,6,0,B|368:317|368:317|388:297|388:297|413:294|413:294|410:266|410:266|410:230,1,135.000005149842
302,83,157783,2,0,B|304:115|304:115|296:141|296:141|318:169,1,67.5000025749208
374,216,158019,2,0,B|394:208|394:208|416:213|416:213|431:196,1,67.5000025749208
328,243,197298,6,0,P|367:207|370:152,1,90
371,127,197651,1,0,0:0:0:0:
344,90,197768,1,0,0:0:0:0:
303,71,197886,1,0,0:0:0:0:
258,74,198003,1,0,0:0:0:0:
222,101,198121,1,0,0:0:0:0:
193,135,198239,2,0,P|170:180|178:238,1,90
185,261,198591,1,0,0:0:0:0:
219,289,198709,2,0,P|254:316|299:335,1,90
340,328,199062,1,0,0:0:0:0:
380,308,199179,2,0,L|423:272,1,45
439,241,199415,2,0,L|459:186,1,45
195,184,199650,6,0,B|160:186|160:186|137:181|137:181|123:190|123:190|104:189|104:189|68:209,1,135.000005149842
375,90,200120,2,0,B|397:67|397:67|428:68|428:68|449:59|449:59|467:71|467:71|494:65,1,135.000005149842
245,326,200591,2,0,B|224:290|224:290|225:271|225:271|216:257|216:257|221:234|221:234|219:199,1,135.000005149842
422,192,201061,2,0,B|431:182|431:182|449:177|449:177|475:152,1,67.5000025749208
468,51,201296,2,0,B|450:70|450:70|434:77|434:77|419:96,1,67.5000025749208
329,142,201531,6,0,B|331:177|331:177|322:193|322:193|333:222|333:222|345:226|345:226|354:268,1,135.000005149842
165,340,202002,2,0,B|130:342|130:342|117:323|117:323|101:312|101:312|77:305|77:305|66:272,1,135.000005149842
233,160,202472,2,0,B|258:188|258:188|257:213|257:213|287:218|287:218|284:247|284:247|315:262,1,135.000005149842
93,230,202943,2,0,B|61:257|61:257|49:259|49:259|40:269,1,67.5000025749208
72,365,203178,2,0,B|87:346|87:346|103:339|103:339|128:311,1,67.5000025749208
206,265,203413,6,0,B|249:275|249:275|253:298|253:298|274:298|274:298|302:308|302:308|330:297,1,135.000005149842
423,129,203884,2,0,B|417:117|417:117|386:113|386:113|361:116|361:116|350:90|350:90|310:101,1,135.000005149842
150,219,204354,2,0,B|175:247|175:247|179:270|179:270|192:287|192:287|201:306|201:306|191:336,1,135.000005149842
52,41,204824,2,0,B|34:63|34:63|7:64|7:64|6:102,1,67.5000025749208
50,167,205060,2,0,B|67:173|67:173|92:164|92:164|119:135,1,67.5000025749208
165,62,205295,6,0,B|200:65|200:65|226:81|226:81|238:99|238:99|241:129|241:129|227:168,1,135.000005149842
55,241,205765,2,0,B|45:265|45:265|50:291|50:291|65:316,1,67.5000025749208
149,348,206000,2,0,B|166:354|166:354|191:345|191:345|218:316,1,67.5000025749208
298,283,206236,6,0,B|329:309|329:309|348:312|348:312|379:307|379:307|406:287|406:287|414:247,1,135.000005149842
360,80,206706,2,0,B|335:86|335:86|317:106|317:106|314:141,1,67.5000025749208
397,180,206941,2,0,B|414:186|414:186|439:177|439:177|454:160,1,67.5000025749208
266,220,207176,6,0,B|273:241|273:241|307:246|307:246|302:274|302:274|336:273|336:273|327:314|327:314|358:363,1,202.500007724762
249,368,207647,2,0,B|246:348|246:348|228:328|228:328|222:304|222:304|198:292|198:292|183:245,1,135.000005149842
310,96,208117,2,0,B|338:81|338:81|357:93|357:93|380:89|380:89|399:106|399:106|400:145,1,135.000005149842
259,284,208588,2,0,B|257:298|257:298|232:304|232:304|214:324,1,67.5000025749208
180,229,208823,2,0,B|192:225|192:225|218:198|218:198|237:209,1,67.5000025749208
335,198,209058,6,0,B|329:228|329:228|342:252|342:252|345:278|345:278|363:289|363:289|376:315,1,135.000005149842
475,51,209528,2,0,B|440:53|440:53|426:36|426:36|408:25|408:25|384:30|384:30|349:20,1,135.000005149842
159,78,209999,2,0,B|184:106|184:106|183:131|183:131|213:136|213:136|210:165|210:165|241:180,1,135.000005149842
412,239,210469,2,0,B|440:251|440:251|450:273|450:273|465:278,1,67.5000025749208
393,351,210704,2,0,B|382:332|382:332|362:325|362:325|337:297,1,67.5000025749208
247,280,210940,6,0,B|249:245|249:245|240:229|240:229|251:200|251:200|263:196|263:196|270:158,1,135.000005149842
103,44,211410,2,0,B|89:58|89:58|89:79|89:79|67:96|67:96|62:127|62:127|64:162,1,135.000005149842
221,290,211880,2,0,B|234:320|234:320|251:334|251:334|281:340|281:340|294:358|294:358|321:354,1,135.000005149842
424,179,212351,2,0,B|433:169|433:169|445:167|445:167|477:140,1,67.5000025749208
357,102,212586,2,0,B|339:121|339:121|323:128|323:128|308:147,1,67.5000025749208
340,243,212821,6,0,B|359:270|359:270|379:285|379:285|402:286|402:286|414:313|414:313|402:349,1,135.000005149842
203,345,213292,2,0,B|195:332|195:332|206:311|206:311|200:282,1,67.5000025749208
278,216,213527,2,0,B|299:217|299:217|318:190|318:190|335:196,1,67.5000025749208
330,298,213762,6,0,B|368:317|368:317|388:297|388:297|413:294|413:294|410:266|410:266|410:230,1,135.000005149842
302,83,214232,2,0,B|304:115|304:115|296:141|296:141|318:169,1,67.5000025749208
374,216,214468,2,0,B|394:208|394:208|416:213|416:213|431:196,1,67.5000025749208
