osu file format v14

[General]
AudioFilename: Bassnectar feat. Mighty High Coup - The 808 Track (Gens) [Music].mp3
AudioLeadIn: 0
PreviewTime: 41632
Countdown: 0
SampleSet: None
StackLeniency: 1
Mode: 0
LetterboxInBreaks: 0
WidescreenStoryboard: 0

[Editor]
Bookmarks: 22396,33690,44984,67573,90161,112749,124043,135337,146632,157926,180514,203102,225690,236984,248279
DistanceSpacing: 0.94
BeatDivisor: 4
GridSize: 4
TimelineZoom: 1

[Metadata]
Title:The 808 Track
TitleUnicode:The 808 Track
Artist:Bassnectar feat. Mighty High Coup
ArtistUnicode:Bassnectar feat. Mighty High Coup
Creator:Gens
Version:Insane
Source:
Tags:
BeatmapID:1746039
BeatmapSetID:833561

[Difficulty]
HPDrainRate:6
CircleSize:4
OverallDifficulty:6
ApproachRate:8
SliderMultiplier:2.7
SliderTickRate:1

[Events]
//Background and Video events
0,0,"Bassnectar feat. Mighty High Coup - The 808 Track (Gens) [Background].png",0,0
//Break Periods
//Storyboard Layer 0 (Background)
//Storyboard Layer 1 (Fail)
//Storyboard Layer 2 (Pass)
//Storyboard Layer 3 (Foreground)
//Storyboard Sound Samples

[TimingPoints]
-15,705.882352941176,4,1,0,60,1,0
33867,-80,4,1,0,50,0,0
45161,-133.333333333333,4,1,0,100,0,1
45162,-133.333333333333,4,1,0,100,0,0
112926,-100,4,1,0,40,0,0
124220,-80,4,1,0,50,0,0
135514,-100,4,1,0,60,0,0
145396,-200,4,1,0,60,0,0
146808,-80,4,1,0,50,0,0
157396,-200,4,1,0,30,0,0
158102,-50,4,1,0,100,0,1
158103,-50,4,1,0,100,0,0
180690,-133.333333333333,4,1,0,100,0,0
186337,-100,4,1,0,100,0,0
191984,-133.333333333333,4,1,0,100,0,0
197632,-50,4,1,0,100,0,0
203279,-133.333333333333,4,1,0,100,0,0
208926,-50,4,1,0,100,0,0
214573,-133.333333333333,4,1,0,100,0,0
220220,-50,4,1,0,100,0,0
225867,-100,4,1,0,40,0,0
235749,-133.333333333333,4,1,0,30,0,0
237161,-80,4,1,0,50,0,0
248455,-80,4,1,0,60,0,0

[HitObjects]
92,160,22573,5,4,0:0:0:0:
132,96,22749,1,0,0:0:0:0:
172,160,22926,1,0,0:0:0:0:
164,308,23279,2,0,P|228:327|292:308,1,135,2|0,0:0|0:0,0:0:0:0:
284,160,23984,1,0,0:0:0:0:
324,96,24160,1,0,0:0:0:0:
364,160,24337,1,0,0:0:0:0:
424,24,24690,1,8,0:0:0:0:
420,224,25396,5,4,0:0:0:0:
380,288,25572,1,0,0:0:0:0:
340,224,25749,1,0,0:0:0:0:
348,76,26102,2,0,P|284:57|220:76,1,135,2|0,0:0|0:0,0:0:0:0:
228,224,26807,1,0,0:0:0:0:
188,288,26983,1,0,0:0:0:0:
148,224,27160,1,0,0:0:0:0:
88,360,27513,1,8,0:0:0:0:
48,140,27867,1,0,0:0:0:0:
48,140,28043,1,0,0:0:0:0:
104,88,28220,5,4,0:0:0:0:
160,36,28396,1,0,0:0:0:0:
236,36,28573,1,0,0:0:0:0:
388,36,28926,2,0,P|450:58|482:115,1,135,2|0,0:0|0:0,0:0:0:0:
484,192,29455,1,0,0:0:0:0:
408,192,29632,1,0,0:0:0:0:
352,140,29808,1,0,0:0:0:0:
276,140,29985,1,0,0:0:0:0:
140,76,30337,1,8,0:0:0:0:
48,284,30691,1,0,0:0:0:0:
48,284,30867,1,0,0:0:0:0:
112,324,31043,6,0,L|184:324,2,67.5,4|0|0,0:0|0:0|0:0,0:0:0:0:
192,208,31749,2,0,B|236:172|276:212|320:176,1,135,2|0,0:0|0:0,0:0:0:0:
376,128,32279,1,0,0:0:0:0:
400,56,32455,2,0,L|328:56,2,67.5,0|0|0,0:0|0:0|0:0,0:0:0:0:
512,0,33161,1,8,0:0:0:0:
348,284,33867,5,4,0:0:0:0:
292,328,34043,1,0,0:0:0:0:
220,328,34220,1,0,0:0:0:0:
164,284,34396,1,0,0:0:0:0:
348,100,34573,5,10,0:0:0:0:
392,156,34749,1,0,0:0:0:0:
392,228,34926,1,0,0:0:0:0:
348,284,35102,1,0,0:0:0:0:
164,100,35279,5,4,0:0:0:0:
220,56,35455,1,0,0:0:0:0:
292,56,35632,1,0,0:0:0:0:
348,100,35808,1,0,0:0:0:0:
120,192,35984,5,10,0:0:0:0:
120,192,36337,1,8,0:0:0:0:
120,192,36514,1,0,0:0:0:0:
176,100,36690,6,0,P|256:77|336:100,1,168.75,6|0,0:0|0:0,0:0:0:0:
392,148,37220,1,10,0:0:0:0:
292,296,37573,1,0,0:0:0:0:
220,296,37749,1,10,0:0:0:0:
256,360,37926,1,2,0:0:0:0:
392,148,38279,1,10,0:0:0:0:
256,100,38455,6,0,P|188:58|120:100,1,168.75,4|8,0:0|0:0,0:0:0:0:
120,100,39161,1,8,0:0:0:0:
120,100,39337,1,0,0:0:0:0:
52,256,39514,5,4,0:0:0:0:
176,356,39867,1,0,0:0:0:0:
336,356,40220,1,8,0:0:0:0:
460,256,40573,1,0,0:0:0:0:
388,124,40926,1,4,0:0:0:0:
328,76,41102,1,0,0:0:0:0:
256,52,41279,1,0,0:0:0:0:
184,76,41455,1,0,0:0:0:0:
124,124,41632,1,8,0:0:0:0:
92,192,41808,1,0,0:0:0:0:
420,192,42690,5,4,0:0:0:0:
344,200,42867,1,0,0:0:0:0:
268,208,43043,1,8,0:0:0:0:
92,192,43396,2,0,L|176:200,1,84.375,0|8,0:0|0:0,0:0:0:0:
176,200,44102,1,2,0:0:0:0:
176,200,44279,1,0,0:0:0:0:
256,88,44455,2,0,L|256:0,2,84.375,4|0|0,0:0|0:0|0:0,0:0:0:0:
455,39,45161,6,0,P|406:29|359:48,1,101.250003862381,4|0,0:0|0:0,0:0:0:0:
360,48,45690,1,0,0:0:0:0:
360,48,45867,1,8,0:0:0:0:
360,48,46043,1,0,0:0:0:0:
360,48,46220,1,0,0:0:0:0:
360,48,46396,1,0,0:0:0:0:
56,120,46573,6,0,P|104:110|152:128,1,101.250003862381,4|0,0:0|0:0,0:0:0:0:
152,128,47102,1,0,0:0:0:0:
152,128,47279,1,8,0:0:0:0:
152,128,47455,1,0,0:0:0:0:
152,128,47632,1,0,0:0:0:0:
152,128,47808,1,0,0:0:0:0:
456,200,47984,6,0,P|407:190|360:208,1,101.250003862381,4|0,0:0|0:0,0:0:0:0:
360,208,48513,1,0,0:0:0:0:
360,208,48690,1,8,0:0:0:0:
360,208,48866,1,0,0:0:0:0:
360,208,49043,1,0,0:0:0:0:
360,208,49219,1,0,0:0:0:0:
40,192,49396,6,0,P|60:240|96:272,1,101.250003862381,4|0,0:0|0:0,0:0:0:0:
96,272,49926,1,0,0:0:0:0:
416,272,50102,1,12,0:0:0:0:
416,272,50279,1,0,0:0:0:0:
416,272,50455,1,0,0:0:0:0:
416,272,50632,1,0,0:0:0:0:
104,40,50808,6,0,L|8:8,1,101.250003862381,4|0,0:0|0:0,0:0:0:0:
8,8,51337,1,0,0:0:0:0:
8,8,51514,1,10,0:0:0:0:
8,8,51690,1,0,0:0:0:0:
8,8,51867,1,0,0:0:0:0:
8,8,52043,1,0,0:0:0:0:
408,80,52220,6,0,L|504:48,1,101.250003862381,4|0,0:0|0:0,0:0:0:0:
504,48,52749,1,0,0:0:0:0:
504,48,52926,1,10,0:0:0:0:
504,48,53102,1,0,0:0:0:0:
504,48,53279,1,0,0:0:0:0:
504,48,53455,1,0,0:0:0:0:
104,120,53632,6,0,L|8:88,1,101.250003862381,4|0,0:0|0:0,0:0:0:0:
8,88,54161,1,0,0:0:0:0:
8,88,54338,1,10,0:0:0:0:
8,88,54514,1,0,0:0:0:0:
8,88,54691,1,0,0:0:0:0:
8,88,54867,1,0,0:0:0:0:
376,191,55043,6,0,P|407:153|404:104,1,101.250003862381,4|0,0:0|0:0,0:0:0:0:
404,104,55573,1,0,0:0:0:0:
107,104,55749,2,0,P|104:153|135:191,1,101.250003862381,14|0,0:0|0:0,0:0:0:0:
136,192,56279,1,0,0:0:0:0:
476,356,56455,6,0,L|372:356,1,101.250003862381,4|0,0:0|0:0,0:0:0:0:
328,356,56984,1,0,0:0:0:0:
280,356,57161,1,8,0:0:0:0:
232,356,57337,1,0,0:0:0:0:
184,356,57514,1,0,0:0:0:0:
136,356,57690,1,0,0:0:0:0:
36,28,57867,6,0,L|140:28,1,101.250003862381,4|0,0:0|0:0,0:0:0:0:
184,28,58396,1,0,0:0:0:0:
232,28,58573,1,8,0:0:0:0:
280,28,58749,1,0,0:0:0:0:
328,28,58926,1,0,0:0:0:0:
376,28,59102,1,0,0:0:0:0:
476,356,59279,6,0,L|372:356,1,101.250003862381,4|0,0:0|0:0,0:0:0:0:
328,356,59808,1,0,0:0:0:0:
280,356,59985,1,8,0:0:0:0:
232,356,60161,1,0,0:0:0:0:
184,356,60338,1,0,0:0:0:0:
136,356,60514,1,0,0:0:0:0:
32,135,60690,6,0,L|108:68,1,101.250003862381,4|0,0:0|0:0,0:0:0:0:
108,68,61220,1,0,0:0:0:0:
404,68,61396,1,12,0:0:0:0:
404,68,61573,1,0,0:0:0:0:
480,136,61749,1,0,0:0:0:0:
480,136,61926,1,0,0:0:0:0:
183,347,62102,6,0,L|156:246,1,101.250003862381,4|0,0:0|0:0,0:0:0:0:
145,207,62631,1,0,0:0:0:0:
133,161,62808,1,10,0:0:0:0:
119,115,62984,1,0,0:0:0:0:
108,68,63161,1,0,0:0:0:0:
96,22,63337,1,0,0:0:0:0:
415,21,63514,6,0,L|388:122,1,101.250003862381,4|0,0:0|0:0,0:0:0:0:
378,160,64043,1,0,0:0:0:0:
366,206,64220,1,10,0:0:0:0:
352,252,64396,1,0,0:0:0:0:
341,299,64573,1,0,0:0:0:0:
329,345,64749,1,0,0:0:0:0:
183,347,64926,6,0,L|156:246,1,101.250003862381,4|0,0:0|0:0,0:0:0:0:
145,207,65455,1,0,0:0:0:0:
133,161,65632,1,10,0:0:0:0:
119,115,65808,1,0,0:0:0:0:
108,68,65985,1,0,0:0:0:0:
96,22,66161,1,0,0:0:0:0:
472,141,66337,6,0,L|472:242,1,101.250003862381,4|0,0:0|0:0,0:0:0:0:
472,243,66867,1,0,0:0:0:0:
48,304,67043,1,8,0:0:0:0:
48,80,67396,1,0,0:0:0:0:
256,192,67749,6,0,L|296:232,1,50.6250019311906,4|0,0:0|0:0,0:0:0:0:
325,261,68102,1,0,0:0:0:0:
358,294,68279,1,0,0:0:0:0:
391,327,68455,1,8,0:0:0:0:
424,360,68632,1,0,0:0:0:0:
384,384,68808,1,0,0:0:0:0:
336,384,68984,1,0,0:0:0:0:
256,192,69161,6,0,L|216:152,1,50.6250019311906,4|0,0:0|0:0,0:0:0:0:
187,123,69514,1,0,0:0:0:0:
154,90,69691,1,0,0:0:0:0:
121,57,69867,1,8,0:0:0:0:
88,24,70044,1,0,0:0:0:0:
128,0,70220,1,0,0:0:0:0:
176,0,70396,1,0,0:0:0:0:
256,192,70573,6,0,L|296:232,1,50.6250019311906,4|0,0:0|0:0,0:0:0:0:
325,261,70926,1,0,0:0:0:0:
358,294,71103,1,0,0:0:0:0:
391,327,71279,1,8,0:0:0:0:
424,360,71456,1,0,0:0:0:0:
384,384,71632,1,0,0:0:0:0:
336,384,71808,1,0,0:0:0:0:
120,192,71984,6,0,L|102:144,1,50.6250019311906,4|0,0:0|0:0,0:0:0:0:
86,99,72337,1,0,0:0:0:0:
69,54,72514,1,0,0:0:0:0:
442,55,72690,2,0,L|424:102,1,50.6250019311906,12|0,0:0|0:0,0:0:0:0:
409,147,73043,1,0,0:0:0:0:
392,192,73220,1,0,0:0:0:0:
90,110,73396,6,0,L|126:146,1,50.6250019311906,4|0,0:0|0:0,0:0:0:0:
160,180,73749,1,0,0:0:0:0:
192,144,73926,1,0,0:0:0:0:
224,108,74102,1,8,0:0:0:0:
256,72,74279,1,0,0:0:0:0:
288,36,74455,1,0,0:0:0:0:
320,0,74632,1,0,0:0:0:0:
421,230,74808,6,0,L|385:265,1,50.6250019311906,4|0,0:0|0:0,0:0:0:0:
352,300,75161,1,0,0:0:0:0:
320,264,75338,1,0,0:0:0:0:
288,228,75514,1,8,0:0:0:0:
256,192,75691,1,0,0:0:0:0:
224,156,75867,1,0,0:0:0:0:
192,120,76044,1,0,0:0:0:0:
90,314,76220,6,0,L|125:349,1,50.6250019311906,4|0,0:0|0:0,0:0:0:0:
160,384,76573,1,0,0:0:0:0:
192,348,76750,1,0,0:0:0:0:
224,312,76926,1,8,0:0:0:0:
256,276,77103,1,0,0:0:0:0:
288,240,77279,1,0,0:0:0:0:
320,204,77456,1,0,0:0:0:0:
512,152,77632,6,0,L|476:116,1,50.6250019311906,4|0,0:0|0:0,0:0:0:0:
442,82,77984,1,0,0:0:0:0:
408,48,78161,1,0,0:0:0:0:
104,48,78337,2,0,L|68:83,1,50.6250019311906,12|0,0:0|0:0,0:0:0:0:
34,118,78689,1,0,0:0:0:0:
0,152,78866,1,0,0:0:0:0:
388,349,79043,6,0,L|388:247,1,101.250003862381,4|0,0:0|0:0,0:0:0:0:
428,220,79573,1,0,0:0:0:0:
388,192,79749,1,8,0:0:0:0:
428,164,79926,1,0,0:0:0:0:
388,136,80102,1,0,0:0:0:0:
428,108,80279,1,0,0:0:0:0:
124,35,80455,6,0,L|124:136,1,101.250003862381,4|0,0:0|0:0,0:0:0:0:
84,164,80985,1,0,0:0:0:0:
124,192,81161,1,8,0:0:0:0:
84,220,81338,1,0,0:0:0:0:
124,248,81514,1,0,0:0:0:0:
84,276,81691,1,0,0:0:0:0:
388,349,81867,6,0,L|388:247,1,101.250003862381,4|0,0:0|0:0,0:0:0:0:
428,220,82397,1,0,0:0:0:0:
388,192,82573,1,8,0:0:0:0:
428,164,82750,1,0,0:0:0:0:
388,136,82926,1,0,0:0:0:0:
428,108,83103,1,0,0:0:0:0:
48,152,83279,6,0,P|22:192|48:232,1,101.250003862381,4|0,0:0|0:0,0:0:0:0:
48,232,83808,1,0,0:0:0:0:
456,244,83984,1,12,0:0:0:0:
496,216,84161,1,0,0:0:0:0:
496,168,84337,1,0,0:0:0:0:
456,140,84514,1,0,0:0:0:0:
122,37,84690,6,0,P|89:74|70:121,1,101.250003862381,4|0,0:0|0:0,0:0:0:0:
58,168,85219,1,0,0:0:0:0:
59,216,85395,1,10,0:0:0:0:
69,262,85572,1,0,0:0:0:0:
90,306,85748,1,0,0:0:0:0:
119,344,85925,1,0,0:0:0:0:
389,346,86102,6,0,P|422:309|442:263,1,101.250003862381,4|0,0:0|0:0,0:0:0:0:
453,215,86631,1,0,0:0:0:0:
452,167,86807,1,10,0:0:0:0:
442,121,86984,1,0,0:0:0:0:
421,77,87160,1,0,0:0:0:0:
392,39,87337,1,0,0:0:0:0:
122,37,87514,6,0,P|89:74|70:121,1,101.250003862381,4|0,0:0|0:0,0:0:0:0:
58,168,88043,1,0,0:0:0:0:
59,216,88219,1,10,0:0:0:0:
69,262,88396,1,0,0:0:0:0:
90,306,88572,1,0,0:0:0:0:
119,344,88749,1,0,0:0:0:0:
432,240,88926,6,0,P|446:192|432:144,1,101.250003862381,4|0,0:0|0:0,0:0:0:0:
432,144,89455,1,0,0:0:0:0:
80,240,89632,1,8,0:0:0:0:
80,240,89984,1,0,0:0:0:0:
40,40,90337,5,4,0:0:0:0:
88,40,90514,1,0,0:0:0:0:
136,40,90690,1,0,0:0:0:0:
184,40,90867,1,0,0:0:0:0:
232,40,91043,1,8,0:0:0:0:
280,40,91220,1,0,0:0:0:0:
328,40,91396,1,0,0:0:0:0:
376,40,91573,1,0,0:0:0:0:
472,192,91749,5,4,0:0:0:0:
424,192,91926,1,0,0:0:0:0:
376,192,92102,1,0,0:0:0:0:
328,192,92279,1,0,0:0:0:0:
280,192,92455,1,8,0:0:0:0:
232,192,92632,1,0,0:0:0:0:
184,192,92808,1,0,0:0:0:0:
136,192,92985,1,0,0:0:0:0:
40,344,93161,5,4,0:0:0:0:
88,344,93338,1,0,0:0:0:0:
136,344,93514,1,0,0:0:0:0:
184,344,93691,1,0,0:0:0:0:
232,344,93867,1,8,0:0:0:0:
280,344,94044,1,0,0:0:0:0:
328,344,94220,1,0,0:0:0:0:
376,344,94397,1,0,0:0:0:0:
475,124,94573,5,4,0:0:0:0:
441,158,94749,1,0,0:0:0:0:
408,192,94926,1,0,0:0:0:0:
374,225,95102,1,0,0:0:0:0:
171,124,95279,1,12,0:0:0:0:
137,158,95455,1,0,0:0:0:0:
104,192,95632,1,0,0:0:0:0:
70,225,95808,1,0,0:0:0:0:
32,343,95984,5,4,0:0:0:0:
76,319,96160,1,0,0:0:0:0:
115,286,96336,1,0,0:0:0:0:
147,248,96513,1,0,0:0:0:0:
173,204,96689,1,10,0:0:0:0:
191,157,96866,1,0,0:0:0:0:
200,107,97042,1,0,0:0:0:0:
200,57,97219,1,0,0:0:0:0:
479,343,97396,5,4,0:0:0:0:
435,319,97572,1,0,0:0:0:0:
396,286,97748,1,0,0:0:0:0:
364,248,97925,1,0,0:0:0:0:
338,204,98101,1,10,0:0:0:0:
320,157,98278,1,0,0:0:0:0:
311,107,98454,1,0,0:0:0:0:
311,57,98631,1,0,0:0:0:0:
256,376,98808,5,4,0:0:0:0:
256,328,98985,1,0,0:0:0:0:
256,280,99161,1,0,0:0:0:0:
256,232,99338,1,0,0:0:0:0:
256,184,99514,1,10,0:0:0:0:
256,136,99690,1,0,0:0:0:0:
256,136,99867,2,0,L|256:32,2,101.250003862381,0|4|2,0:0|0:0|0:0,0:0:0:0:
256,136,100749,1,0,0:0:0:0:
208,24,100926,2,0,P|256:10|304:24,1,101.250003862381,8|0,0:0|0:0,0:0:0:0:
304,24,101455,1,0,0:0:0:0:
344,272,101632,5,4,0:0:0:0:
312,288,101808,1,0,0:0:0:0:
280,304,101984,1,0,0:0:0:0:
248,320,102161,1,0,0:0:0:0:
216,336,102337,1,8,0:0:0:0:
184,352,102514,1,0,0:0:0:0:
152,368,102690,1,0,0:0:0:0:
120,384,102867,1,0,0:0:0:0:
168,112,103043,5,4,0:0:0:0:
200,96,103220,1,0,0:0:0:0:
232,80,103396,1,0,0:0:0:0:
264,64,103573,1,0,0:0:0:0:
296,48,103749,1,8,0:0:0:0:
328,32,103926,1,0,0:0:0:0:
360,16,104102,1,0,0:0:0:0:
392,0,104279,1,0,0:0:0:0:
344,272,104455,5,4,0:0:0:0:
312,288,104632,1,0,0:0:0:0:
280,304,104808,1,0,0:0:0:0:
248,320,104985,1,0,0:0:0:0:
216,336,105161,1,8,0:0:0:0:
184,352,105338,1,0,0:0:0:0:
152,368,105514,1,0,0:0:0:0:
120,384,105691,1,0,0:0:0:0:
76,192,105867,5,4,0:0:0:0:
112,192,106043,1,0,0:0:0:0:
148,192,106220,1,0,0:0:0:0:
184,192,106396,1,0,0:0:0:0:
436,192,106573,1,12,0:0:0:0:
400,192,106749,1,0,0:0:0:0:
364,192,106926,1,0,0:0:0:0:
328,192,107102,1,0,0:0:0:0:
298,71,107279,6,0,P|253:34|212:22,1,101.250003862381,4|0,0:0|0:0,0:0:0:0:
162,24,107808,1,0,0:0:0:0:
116,45,107984,1,10,0:0:0:0:
81,82,108161,1,0,0:0:0:0:
63,129,108337,1,0,0:0:0:0:
63,179,108515,1,0,0:0:0:0:
214,313,108690,6,0,P|259:350|300:362,1,101.250003862381,4|0,0:0|0:0,0:0:0:0:
349,359,109219,1,0,0:0:0:0:
395,338,109395,1,10,0:0:0:0:
430,301,109572,1,0,0:0:0:0:
448,254,109748,1,0,0:0:0:0:
448,204,109926,1,0,0:0:0:0:
298,71,110102,6,0,P|253:34|212:22,1,101.250003862381,4|0,0:0|0:0,0:0:0:0:
162,24,110631,1,0,0:0:0:0:
116,45,110807,1,10,0:0:0:0:
81,82,110984,1,0,0:0:0:0:
63,129,111160,1,0,0:0:0:0:
63,179,111338,1,0,0:0:0:0:
256,192,111514,12,0,112573,0:0:0:0:
256,136,112926,5,4,0:0:0:0:
288,80,113102,1,0,0:0:0:0:
320,136,113279,1,0,0:0:0:0:
320,135,113632,2,0,P|382:131|400:192,1,135,2|0,0:0|0:0,0:0:0:0:
400,192,114337,1,0,0:0:0:0:
368,248,114513,1,0,0:0:0:0:
336,192,114690,1,0,0:0:0:0:
256,248,115043,1,8,0:0:0:0:
256,248,115749,5,0,0:0:0:0:
224,304,115925,1,0,0:0:0:0:
192,248,116102,1,0,0:0:0:0:
191,248,116455,2,0,P|129:252|112:192,1,135,2|0,0:0|0:0,0:0:0:0:
112,192,117160,1,0,0:0:0:0:
144,136,117336,1,0,0:0:0:0:
176,192,117513,1,0,0:0:0:0:
256,136,117866,1,8,0:0:0:0:
256,136,118220,1,0,0:0:0:0:
300,88,118396,1,0,0:0:0:0:
360,64,118573,5,0,0:0:0:0:
420,88,118749,1,0,0:0:0:0:
464,136,118926,1,0,0:0:0:0:
463,136,119279,2,0,P|440:198|388:239,1,135,2|0,0:0|0:0,0:0:0:0:
388,240,119808,1,0,0:0:0:0:
328,216,119984,1,0,0:0:0:0:
268,240,120161,1,0,0:0:0:0:
224,288,120337,1,0,0:0:0:0:
120,212,120690,1,8,0:0:0:0:
200,112,121043,1,0,0:0:0:0:
200,112,121220,1,0,0:0:0:0:
200,112,121396,5,0,0:0:0:0:
256,80,121573,1,0,0:0:0:0:
312,112,121749,1,0,0:0:0:0:
312,112,122102,2,0,P|363:172|344:216,1,135,2|0,0:0|0:0,0:0:0:0:
344,216,122632,1,0,0:0:0:0:
312,272,122808,1,0,0:0:0:0:
256,304,122985,1,0,0:0:0:0:
200,272,123161,1,0,0:0:0:0:
168,168,123514,1,8,0:0:0:0:
456,40,124220,5,4,0:0:0:0:
392,76,124396,1,0,0:0:0:0:
320,76,124573,1,0,0:0:0:0:
256,40,124749,1,0,0:0:0:0:
392,156,124926,5,10,0:0:0:0:
328,192,125102,1,0,0:0:0:0:
256,192,125279,1,0,0:0:0:0:
192,156,125455,1,0,0:0:0:0:
320,308,125632,5,4,0:0:0:0:
256,344,125808,1,0,0:0:0:0:
184,344,125985,1,0,0:0:0:0:
120,308,126161,1,0,0:0:0:0:
384,344,126337,5,10,0:0:0:0:
384,344,126690,1,8,0:0:0:0:
384,344,126866,1,0,0:0:0:0:
328,192,127043,6,0,P|256:155|184:192,1,168.75,6|0,0:0|0:0,0:0:0:0:
136,248,127573,1,10,0:0:0:0:
396,164,127926,1,0,0:0:0:0:
356,104,128102,1,10,0:0:0:0:
288,80,128279,1,2,0:0:0:0:
156,104,128632,1,10,0:0:0:0:
184,300,128808,6,0,P|256:337|328:300,1,168.75,4|8,0:0|0:0,0:0:0:0:
424,192,129514,1,8,0:0:0:0:
424,192,129690,1,0,0:0:0:0:
352,48,129867,5,4,0:0:0:0:
352,48,130220,1,0,0:0:0:0:
160,48,130573,1,8,0:0:0:0:
160,48,130926,1,0,0:0:0:0:
15,192,131279,1,4,0:0:0:0:
58,263,131455,1,0,0:0:0:0:
136,291,131631,1,0,0:0:0:0:
213,263,131808,1,0,0:0:0:0:
256,192,131984,1,8,0:0:0:0:
299,121,132161,2,0,P|376:92|454:121,1,168.75,0|0,0:0|0:0,0:0:0:0:
497,192,132690,6,0,P|504:232|488:272,2,84.375,4|0|0,0:0|0:0|0:0,0:0:0:0:
227,280,133396,2,0,P|149:295|101:231,1,168.75,2|0,0:0|0:0,0:0:0:0:
84,160,133926,1,0,0:0:0:0:
15,192,134102,2,0,P|8:152|24:112,2,84.375,4|0|0,0:0|0:0|0:0,0:0:0:0:
172,136,134808,2,2,B|156:128|156:128|156:116|156:116|140:108|140:108|140:96|140:96|124:88|124:88|124:76|124:76|108:68|108:68|108:56|108:56|92:48|92:48|92:36|92:36|76:28|76:28|76:16|76:16|60:8|60:8|60:-4,1,168.75,2|2,0:0|0:0,0:0:0:0:
464,112,135514,5,4,0:0:0:0:
424,48,135690,1,0,0:0:0:0:
384,112,135867,1,0,0:0:0:0:
256,191,136220,2,0,P|228:252|169:281,1,135,2|0,0:0|0:0,0:0:0:0:
112,191,136926,2,0,P|84:252|25:281,1,135,2|0,0:0|0:0,0:0:0:0:
48,152,137632,1,8,0:0:0:0:
48,152,138337,5,4,0:0:0:0:
88,88,138513,1,0,0:0:0:0:
128,152,138690,1,0,0:0:0:0:
255,231,139043,2,0,P|282:292|341:321,1,135,2|0,0:0|0:0,0:0:0:0:
399,231,139749,2,0,P|426:292|485:321,1,135,2|0,0:0|0:0,0:0:0:0:
464,192,140455,1,8,0:0:0:0:
464,192,140808,1,8,0:0:0:0:
388,192,140984,1,0,0:0:0:0:
312,192,141161,5,4,0:0:0:0:
236,192,141337,1,0,0:0:0:0:
160,192,141514,1,0,0:0:0:0:
296,288,141867,2,0,P|269:348|210:377,1,135,2|0,0:0|0:0,0:0:0:0:
152,328,142396,1,0,0:0:0:0:
216,288,142573,2,0,P|242:348|301:377,1,135,2|0,0:0|0:0,0:0:0:0:
360,328,143102,1,0,0:0:0:0:
400,264,143279,1,8,0:0:0:0:
112,264,143632,1,0,0:0:0:0:
112,264,143808,1,0,0:0:0:0:
223,247,143984,6,0,L|290:247,2,67.5,4|0|0,0:0|0:0|0:0,0:0:0:0:
200,136,144690,2,0,P|256:104|312:136,1,135,2|0,0:0|0:0,0:0:0:0:
376,100,145220,1,0,0:0:0:0:
320,48,145396,2,4,P|256:30|192:48,1,135,4|4,0:0|0:0,0:0:0:0:
456,40,146808,5,4,0:0:0:0:
392,76,146984,1,0,0:0:0:0:
320,76,147161,1,0,0:0:0:0:
256,40,147337,1,0,0:0:0:0:
56,192,147514,5,10,0:0:0:0:
120,228,147690,1,0,0:0:0:0:
192,228,147867,1,0,0:0:0:0:
256,192,148043,1,0,0:0:0:0:
456,344,148220,5,4,0:0:0:0:
392,380,148396,1,0,0:0:0:0:
320,380,148573,1,0,0:0:0:0:
256,344,148749,1,0,0:0:0:0:
152,144,148926,5,10,0:0:0:0:
360,144,149279,1,8,0:0:0:0:
360,144,149455,1,0,0:0:0:0:
488,303,149632,6,0,P|407:311|363:243,1,168.75,6|0,0:0|0:0,0:0:0:0:
364,244,150161,1,10,0:0:0:0:
200,92,150514,1,0,0:0:0:0:
256,44,150690,1,10,0:0:0:0:
312,92,150867,1,2,0:0:0:0:
312,92,151220,1,10,0:0:0:0:
148,243,151396,6,0,P|104:311|23:303,1,168.75,4|8,0:0|0:0,0:0:0:0:
24,304,152102,1,8,0:0:0:0:
24,304,152278,1,0,0:0:0:0:
392,304,152455,5,4,0:0:0:0:
136,264,152808,1,0,0:0:0:0:
360,240,153161,1,8,0:0:0:0:
168,200,153514,1,0,0:0:0:0:
296,136,153867,1,4,0:0:0:0:
208,104,154043,1,0,0:0:0:0:
280,72,154220,1,0,0:0:0:0:
224,40,154396,1,0,0:0:0:0:
272,24,154573,1,8,0:0:0:0:
244,0,154749,1,0,0:0:0:0:
96,40,155632,5,4,0:0:0:0:
64,112,155808,1,0,0:0:0:0:
32,184,155984,1,8,0:0:0:0:
448,105,156337,2,0,L|480:184,1,84.375,0|8,0:0|0:0,0:0:0:0:
256,40,157043,1,2,0:0:0:0:
256,40,157220,1,0,0:0:0:0:
256,336,157396,2,0,L|256:376,2,33.75,4|0|0,0:0|0:0|0:0,0:0:0:0:
256,40,158102,6,0,P|488:110|419:344,1,540,4|8,0:0|0:0,0:0:0:0:
419,344,158984,1,0,0:0:0:0:
419,344,159161,1,0,0:0:0:0:
419,344,159337,1,0,0:0:0:0:
256,344,159514,6,0,P|23:273|92:39,1,540,6|8,0:0|0:0,0:0:0:0:
93,40,160396,1,0,0:0:0:0:
93,40,160573,1,0,0:0:0:0:
93,40,160749,1,0,0:0:0:0:
256,40,160926,6,0,P|488:110|419:344,1,540,4|8,0:0|0:0,0:0:0:0:
419,344,161808,1,0,0:0:0:0:
419,344,161985,1,0,0:0:0:0:
419,344,162161,1,0,0:0:0:0:
0,279,162337,6,0,P|121:231|159:107,1,270,6|0,0:0|0:0,0:0:0:0:
160,107,162867,1,2,0:0:0:0:
352,108,163043,1,8,0:0:0:0:
352,108,163220,1,0,0:0:0:0:
512,280,163396,1,0,0:0:0:0:
512,280,163573,1,0,0:0:0:0:
512,64,163749,6,0,B|408:64|300:108|344:188|408:224|472:260|516:340|408:384|304:384,1,540,4|8,0:0|0:0,0:0:0:0:
304,384,164632,1,0,0:0:0:0:
304,384,164808,1,0,0:0:0:0:
304,384,164984,1,0,0:0:0:0:
0,320,165161,6,0,B|104:320|212:276|168:196|104:160|40:124|-4:44|104:0|208:0,1,540,6|8,0:0|0:0,0:0:0:0:
208,0,166044,1,0,0:0:0:0:
208,0,166220,1,0,0:0:0:0:
208,0,166396,1,0,0:0:0:0:
512,64,166573,6,0,B|408:64|300:108|344:188|408:224|472:260|516:340|408:384|304:384,1,540,4|8,0:0|0:0,0:0:0:0:
304,384,167456,1,0,0:0:0:0:
304,384,167632,1,0,0:0:0:0:
304,384,167808,1,0,0:0:0:0:
31,191,167984,6,0,P|33:64|151:15,1,270,6|0,0:0|0:0,0:0:0:0:
152,16,168514,1,2,0:0:0:0:
360,15,168690,2,0,P|478:64|480:191,1,270,12|0,0:0|0:0,0:0:0:0:
480,191,169220,1,0,0:0:0:0:
92,48,169396,6,0,B|40:116|0:300|128:351|256:300|216:116|164:48,1,540,4|8,0:0|0:0,0:0:0:0:
164,48,170279,1,0,0:0:0:0:
164,48,170455,1,0,0:0:0:0:
164,48,170632,1,0,0:0:0:0:
420,336,170808,6,0,B|472:268|512:84|384:33|256:84|296:268|348:336,1,540,6|8,0:0|0:0,0:0:0:0:
348,336,171691,1,0,0:0:0:0:
348,336,171867,1,0,0:0:0:0:
348,336,172044,1,0,0:0:0:0:
92,48,172220,6,0,B|40:116|0:300|128:351|256:300|216:116|164:48,1,540,4|8,0:0|0:0,0:0:0:0:
164,48,173103,1,0,0:0:0:0:
164,48,173279,1,0,0:0:0:0:
164,48,173456,1,0,0:0:0:0:
480,80,173632,6,0,P|368:16|256:80,1,270,6|0,0:0|0:0,0:0:0:0:
256,80,174161,1,2,0:0:0:0:
32,80,174337,1,12,0:0:0:0:
32,80,174514,1,0,0:0:0:0:
32,80,174690,1,0,0:0:0:0:
32,80,174867,1,0,0:0:0:0:
76,332,175043,6,0,B|88:240|124:144|220:156|256:192|292:228|388:240|424:144|436:52,1,540,4|8,0:0|0:0,0:0:0:0:
436,52,175926,1,0,0:0:0:0:
436,52,176102,1,0,0:0:0:0:
436,52,176279,1,0,0:0:0:0:
76,52,176455,6,0,B|88:144|124:240|220:228|256:192|292:156|388:144|424:240|436:332,1,540,6|8,0:0|0:0,0:0:0:0:
436,332,177338,1,0,0:0:0:0:
436,332,177514,1,0,0:0:0:0:
436,332,177691,1,0,0:0:0:0:
76,332,177867,6,0,B|88:240|124:144|220:156|256:192|292:228|388:240|424:144|436:52,1,540,4|8,0:0|0:0,0:0:0:0:
440,56,178750,1,0,0:0:0:0:
444,60,178926,2,0,P|490:184|444:308,2,270,0|6|0,0:0|0:0|0:0,0:0:0:0:
448,64,179808,1,2,0:0:0:0:
76,52,179984,2,0,P|30:176|76:300,1,270,12|0,0:0|0:0,0:0:0:0:
76,300,180514,1,0,0:0:0:0:
424,344,180690,6,0,L|424:141,1,202.500007724762,4|8,0:0|0:0,0:0:0:0:
424,101,181573,1,0,0:0:0:0:
424,61,181749,1,0,0:0:0:0:
424,21,181926,1,0,0:0:0:0:
256,344,182102,6,0,L|256:141,1,202.500007724762,4|8,0:0|0:0,0:0:0:0:
256,101,182985,1,0,0:0:0:0:
256,61,183161,1,0,0:0:0:0:
256,21,183338,1,0,0:0:0:0:
88,344,183514,6,0,L|88:141,1,202.500007724762,4|8,0:0|0:0,0:0:0:0:
88,101,184397,1,0,0:0:0:0:
88,61,184573,1,0,0:0:0:0:
88,21,184750,1,0,0:0:0:0:
344,64,184926,5,4,0:0:0:0:
344,64,185102,1,0,0:0:0:0:
344,64,185279,1,0,0:0:0:0:
344,64,185455,1,0,0:0:0:0:
440,320,185632,1,8,0:0:0:0:
440,320,185808,1,0,0:0:0:0:
440,320,185985,1,0,0:0:0:0:
440,320,186161,1,0,0:0:0:0:
295,124,186337,6,0,L|48:16,1,270,4|10,0:0|0:0,0:0:0:0:
48,16,187220,1,0,0:0:0:0:
48,16,187396,1,0,0:0:0:0:
48,16,187573,1,0,0:0:0:0:
376,244,187749,6,0,L|129:136,1,270,4|10,0:0|0:0,0:0:0:0:
129,136,188632,1,0,0:0:0:0:
129,136,188808,1,0,0:0:0:0:
129,136,188985,1,0,0:0:0:0:
464,368,189161,6,0,L|217:260,1,270,4|10,0:0|0:0,0:0:0:0:
217,260,190044,1,0,0:0:0:0:
217,260,190220,1,0,0:0:0:0:
217,260,190397,1,0,0:0:0:0:
460,192,190573,5,4,0:0:0:0:
460,192,190749,1,0,0:0:0:0:
460,192,190926,1,0,0:0:0:0:
460,192,191102,1,0,0:0:0:0:
56,32,191279,1,8,0:0:0:0:
56,352,191632,1,0,0:0:0:0:
412,384,191984,6,0,B|404:288|468:288|460:192,1,202.500007724762,4|8,0:0|0:0,0:0:0:0:
458,152,192868,1,0,0:0:0:0:
445,113,193044,1,0,0:0:0:0:
426,78,193221,1,0,0:0:0:0:
100,0,193396,6,0,B|108:96|44:96|52:192,1,202.500007724762,4|8,0:0|0:0,0:0:0:0:
53,231,194280,1,0,0:0:0:0:
66,270,194456,1,0,0:0:0:0:
85,305,194633,1,0,0:0:0:0:
412,384,194808,6,0,B|404:288|468:288|460:192,1,202.500007724762,4|8,0:0|0:0,0:0:0:0:
458,152,195690,1,0,0:0:0:0:
445,113,195868,1,0,0:0:0:0:
426,78,196043,1,0,0:0:0:0:
144,192,196220,5,4,0:0:0:0:
144,192,196396,1,0,0:0:0:0:
144,192,196573,1,0,0:0:0:0:
144,192,196749,1,0,0:0:0:0:
368,192,196926,1,8,0:0:0:0:
368,192,197102,1,0,0:0:0:0:
368,192,197279,1,0,0:0:0:0:
368,192,197455,1,0,0:0:0:0:
504,112,197632,6,0,B|320:112|308:-40|204:-40|192:112|8:112,1,540,4|10,0:0|0:0,0:0:0:0:
8,112,198514,1,0,0:0:0:0:
8,112,198690,1,0,0:0:0:0:
8,112,198867,1,0,0:0:0:0:
8,272,199043,6,0,B|192:272|204:424|308:424|320:272|504:272,1,540,4|10,0:0|0:0,0:0:0:0:
504,272,199925,1,0,0:0:0:0:
504,272,200101,1,0,0:0:0:0:
504,272,200278,1,0,0:0:0:0:
504,112,200455,6,0,B|320:112|308:-40|204:-40|192:112|8:112,1,540,4|10,0:0|0:0,0:0:0:0:
8,112,201337,1,0,0:0:0:0:
8,112,201513,1,0,0:0:0:0:
8,112,201690,1,0,0:0:0:0:
112,296,201867,5,4,0:0:0:0:
112,296,202043,1,0,0:0:0:0:
112,296,202220,1,0,0:0:0:0:
112,296,202396,1,0,0:0:0:0:
400,296,202573,1,8,0:0:0:0:
256,48,202926,1,0,0:0:0:0:
256,48,203279,5,4,0:0:0:0:
208,65,203455,1,0,0:0:0:0:
170,98,203631,1,0,0:0:0:0:
145,142,203808,1,0,0:0:0:0:
137,191,203984,1,8,0:0:0:0:
145,241,204161,1,0,0:0:0:0:
170,285,204337,2,0,P|208:318|256:336,1,101.250003862381,0|4,0:0|0:0,0:0:0:0:
303,65,204867,5,0,0:0:0:0:
341,98,205043,1,0,0:0:0:0:
366,142,205220,1,0,0:0:0:0:
374,191,205396,1,8,0:0:0:0:
366,241,205573,1,0,0:0:0:0:
341,285,205749,2,0,P|303:318|256:336,1,101.250003862381,0|4,0:0|0:0,0:0:0:0:
208,65,206278,5,0,0:0:0:0:
170,98,206454,1,0,0:0:0:0:
145,142,206631,1,0,0:0:0:0:
137,191,206807,1,8,0:0:0:0:
145,241,206984,1,0,0:0:0:0:
170,285,207160,1,0,0:0:0:0:
208,318,207337,1,0,0:0:0:0:
256,336,207513,1,4,0:0:0:0:
256,336,207690,1,0,0:0:0:0:
312,344,207867,1,0,0:0:0:0:
312,344,208043,1,0,0:0:0:0:
368,352,208220,1,8,0:0:0:0:
368,352,208396,1,0,0:0:0:0:
424,360,208573,1,0,0:0:0:0:
88,64,208926,5,4,0:0:0:0:
256,24,209102,1,0,0:0:0:0:
424,64,209279,2,0,B|432:104|412:188|356:184|324:128|356:72|412:68|432:152|415:303|256:272,1,405,10|0,0:0|0:0,0:0:0:0:
256,112,209984,1,8,0:0:0:0:
172,216,210161,1,0,0:0:0:0:
88,320,210337,5,4,0:0:0:0:
88,320,210514,1,0,0:0:0:0:
88,320,210690,2,0,B|80:280|100:196|156:200|188:256|156:312|100:316|80:232|97:81|256:112,1,405,10|0,0:0|0:0,0:0:0:0:
208,276,211396,1,8,0:0:0:0:
304,172,211573,1,0,0:0:0:0:
208,172,211749,5,4,0:0:0:0:
304,276,211926,1,0,0:0:0:0:
256,80,212102,1,8,0:0:0:0:
159,248,212279,1,0,0:0:0:0:
352,248,212455,1,0,0:0:0:0:
208,96,212632,1,0,0:0:0:0:
28,208,212808,2,0,P|135:284|267:272,1,270,10|0,0:0|0:0,0:0:0:0:
304,96,213337,1,0,0:0:0:0:
428,247,213514,2,0,P|340:348|211:383,1,270,10|4,0:0|0:0,0:0:0:0:
192,192,214043,1,2,0:0:0:0:
20,298,214220,2,0,L|104:192,1,135,0|8,0:0|0:0,0:0:0:0:
256,64,214573,5,4,0:0:0:0:
256,64,214749,1,0,0:0:0:0:
256,64,214926,1,0,0:0:0:0:
256,64,215102,1,0,0:0:0:0:
360,128,215279,1,8,0:0:0:0:
360,128,215455,1,0,0:0:0:0:
360,128,215632,2,0,L|456:176,1,101.250003862381,0|4,0:0|0:0,0:0:0:0:
256,192,216160,5,0,0:0:0:0:
256,192,216337,1,0,0:0:0:0:
256,192,216513,1,0,0:0:0:0:
152,256,216690,1,8,0:0:0:0:
152,256,216866,1,0,0:0:0:0:
152,256,217043,2,0,L|56:304,1,101.250003862381,0|4,0:0|0:0,0:0:0:0:
256,320,217572,5,0,0:0:0:0:
256,320,217749,1,0,0:0:0:0:
256,320,217925,1,0,0:0:0:0:
360,256,218102,1,8,0:0:0:0:
360,256,218278,1,0,0:0:0:0:
360,256,218455,1,0,0:0:0:0:
360,256,218632,1,0,0:0:0:0:
384,132,218808,5,4,0:0:0:0:
350,94,218984,1,0,0:0:0:0:
305,70,219160,1,0,0:0:0:0:
256,62,219337,1,0,0:0:0:0:
206,70,219513,1,8,0:0:0:0:
162,94,219690,1,0,0:0:0:0:
128,131,219866,1,0,0:0:0:0:
12,320,220220,5,4,0:0:0:0:
172,344,220396,1,0,0:0:0:0:
332,320,220573,2,0,B|363:234|303:178|239:198|179:242|239:286|303:306|363:250|419:174|287:158|327:98|347:92,1,405,10|0,0:0|0:0,0:0:0:0:
500,64,221279,1,8,0:0:0:0:
340,56,221455,6,0,P|354:121|395:174,2,135,0|4|0,0:0|0:0|0:0,0:0:0:0:
180,64,221984,2,0,B|148:149|208:205|272:185|332:141|272:97|208:77|148:133|92:209|224:225|184:285|164:291,1,405,10|0,0:0|0:0,0:0:0:0:
12,320,222690,1,8,0:0:0:0:
172,328,222867,6,0,P|157:262|116:209,1,135,0|4,0:0|0:0,0:0:0:0:
216,76,223220,1,0,0:0:0:0:
296,308,223396,1,8,0:0:0:0:
340,56,223573,1,0,0:0:0:0:
172,328,223749,1,0,0:0:0:0:
328,132,223926,1,0,0:0:0:0:
104,23,224102,2,0,P|84:152|181:239,1,270,10|0,0:0|0:0,0:0:0:0:
180,64,224632,1,0,0:0:0:0:
331,144,224808,2,0,P|427:231|408:360,1,270,10|4,0:0|0:0,0:0:0:0:
256,192,225337,12,4,225867,0:0:0:0:
152,56,226573,5,2,0:0:0:0:
360,56,227279,1,2,0:0:0:0:
488,192,227984,1,8,0:0:0:0:
488,192,228690,5,4,0:0:0:0:
360,328,229396,1,2,0:0:0:0:
152,328,230102,1,2,0:0:0:0:
24,192,230807,1,8,0:0:0:0:
24,192,231161,1,0,0:0:0:0:
176,40,231514,6,0,L|446:40,1,270,4|2,0:0|0:0,0:0:0:0:
446,40,232926,1,2,0:0:0:0:
66,344,233632,1,8,0:0:0:0:
152,272,233984,1,0,0:0:0:0:
152,272,234337,6,0,P|256:344|360:272,1,270,4|2,0:0|0:0,0:0:0:0:
256,192,235396,1,0,0:0:0:0:
360,112,235749,2,4,P|256:51|152:112,1,253.125009655953,4|4,0:0|0:0,0:0:0:0:
360,64,237161,5,4,0:0:0:0:
308,112,237337,1,0,0:0:0:0:
256,64,237514,1,0,0:0:0:0:
204,16,237690,1,0,0:0:0:0:
152,192,237867,5,10,0:0:0:0:
204,240,238043,1,0,0:0:0:0:
256,192,238220,1,0,0:0:0:0:
308,144,238396,1,0,0:0:0:0:
360,320,238573,5,4,0:0:0:0:
308,368,238749,1,0,0:0:0:0:
256,320,238926,1,0,0:0:0:0:
204,272,239102,1,0,0:0:0:0:
400,192,239279,5,10,0:0:0:0:
112,152,239632,1,8,0:0:0:0:
112,232,239808,1,0,0:0:0:0:
184,256,239984,6,0,P|256:293|328:256,1,168.75,6|0,0:0|0:0,0:0:0:0:
223,23,240514,2,0,P|141:25|79:80,1,168.75,10|0,0:0|0:0,0:0:0:0:
96,192,241043,1,2,0:0:0:0:
196,160,241220,2,0,B|240:144|256:105|256:105|272:144|316:160,1,168.75,10|10,0:0|0:0,0:0:0:0:
432,303,241749,6,0,P|370:358|288:360,1,168.75,4|8,0:0|0:0,0:0:0:0:
80,328,242455,1,8,0:0:0:0:
80,328,242632,1,0,0:0:0:0:
80,328,242808,5,4,0:0:0:0:
432,328,243161,1,0,0:0:0:0:
432,56,243514,1,8,0:0:0:0:
80,56,243867,1,0,0:0:0:0:
456,192,244220,5,4,0:0:0:0:
380,304,244396,1,0,0:0:0:0:
256,360,244573,1,0,0:0:0:0:
132,304,244749,1,0,0:0:0:0:
56,192,244926,1,8,0:0:0:0:
132,80,245102,1,0,0:0:0:0:
256,192,245632,12,4,248455,0:0:0:0:
