osu file format v14

[General]
AudioFilename: Jingle Bells.mp3
AudioLeadIn: 0
PreviewTime: 115268
Countdown: 0
SampleSet: Soft
StackLeniency: 0.7
Mode: 0
LetterboxInBreaks: 0
EpilepsyWarning: 1
WidescreenStoryboard: 1

[Editor]
Bookmarks: 20982,38125,99840,142268
DistanceSpacing: 1.1
BeatDivisor: 4
GridSize: 8
TimelineZoom: 1

[Metadata]
Title:Jingle Bells
TitleUnicode:Jingle Bells
Artist:Basshunter
ArtistUnicode:Basshunter
Creator:Slayed
Version:Extreme
Source:
Tags:christmas dnb winter drum bass new year fcl zlodeuka-
BeatmapID:825985
BeatmapSetID:370956

[Difficulty]
HPDrainRate:5
CircleSize:4
OverallDifficulty:6
ApproachRate:8
SliderMultiplier:1.6
SliderTickRate:1

[Events]
//Background and Video events
0,0,"bckgrnd.jpg",0,0
//Break Periods
2,16897,20232
2,35111,37375
2,65754,68232
2,96611,99090
2,129182,131661
//Storyboard Layer 0 (Background)
//Storyboard Layer 1 (Fail)
//Storyboard Layer 2 (Pass)
//Storyboard Layer 3 (Foreground)
//Storyboard Sound Samples

[TimingPoints]
3840,428.571428571429,4,2,2,50,1,0
3840,-133.333333333333,4,2,2,50,0,0
20982,-80,4,2,1,50,0,0
51840,-80,4,2,1,50,0,1
65125,-80,4,2,1,50,0,0
115268,-80,4,2,1,50,0,1
128982,-80,4,2,1,50,0,0
158125,-66.6666666666667,4,2,1,50,0,0
161554,-66.6666666666667,4,2,1,5,0,0

[Colours]
Combo1 : 255,32,32
Combo2 : 9,204,72
Combo3 : 235,211,141

[HitObjects]
111,120,3840,6,0,L|246:97,1,120.000004577637,4|0,0:0|0:0,0:0:0:0:
342,189,4697,2,0,P|350:266|331:322,1,120.000004577637,0|0,0:0|0:0,0:0:0:0:
200,347,5554,2,0,B|132:350|132:350|78:326,1,120.000004577637,4|0,0:0|0:0,0:0:0:0:
30,281,6197,2,0,P|21:205|51:105,1,180.000006866455,0|0,0:0|0:0,0:0:0:0:
193,96,7268,6,0,L|330:107,1,120.000004577637,4|0,0:0|0:0,0:0:0:0:
207,204,8125,2,0,L|80:220,1,120.000004577637,0|0,0:0|0:0,0:0:0:0:
20,193,8768,1,0,0:0:0:0:
62,134,8982,2,0,P|74:78|39:-2,1,120.000004577637,0|0,0:0|0:0,0:0:0:0:
164,114,9840,6,0,P|146:170|158:228,1,120.000004577637,0|0,0:0|0:0,0:0:0:0:
295,270,10697,2,4,B|354:249|354:249|420:272,1,120.000004577637,4|0,0:0|0:0,0:0:0:0:
467,309,11340,1,0,0:0:0:0:
503,246,11554,2,0,P|510:193|483:130,1,120.000004577637,0|0,0:0|0:0,0:0:0:0:
420,100,12197,1,0,0:0:0:0:
353,126,12411,6,0,P|300:139|224:121,1,120.000004577637,4|0,0:0|0:0,0:0:0:0:
170,98,13054,1,0,0:0:0:0:
173,169,13268,2,0,L|180:306,1,120.000004577637,0|0,0:0|0:0,0:0:0:0:
234,335,13911,1,0,0:0:0:0:
289,289,14125,6,0,P|341:281|406:330,1,120.000004577637,4|0,0:0|0:0,0:0:0:0:
461,185,14982,2,0,L|446:52,1,120.000004577637,0|0,0:0|0:0,0:0:0:0:
342,164,15840,2,0,B|297:174|244:148|244:148|212:177|161:142|147:99|205:72,1,240.000009155274,4|0,0:0|0:0,0:0:0:0:
137,313,20982,6,0,L|108:178,1,100,2|0,1:2|0:0,0:0:0:0:
160,125,21411,1,8,0:0:0:0:
237,62,21625,1,0,0:0:0:0:
237,62,21732,1,0,0:0:0:0:
237,62,21840,2,0,P|291:50|363:74,1,100,2|0,1:2|0:0,0:0:0:0:
406,126,22268,1,8,0:0:0:0:
442,218,22482,5,0,0:0:0:0:
442,218,22590,1,0,0:0:0:0:
442,218,22697,2,0,L|422:342,1,100,2|0,1:2|0:0,0:0:0:0:
338,364,23125,1,8,0:0:0:0:
248,318,23340,2,0,L|201:339,2,50,0|0|2,0:0|0:0|1:2,0:0:0:0:
290,227,23768,1,0,0:0:0:0:
250,135,23982,1,8,0:0:0:0:
239,117,24090,1,0,0:0:0:0:
223,104,24197,1,0,0:0:0:0:
204,97,24304,1,0,0:0:0:0:
184,95,24411,6,0,P|128:97|73:153,1,100,2|0,1:2|0:0,0:0:0:0:
58,215,24840,1,8,0:0:0:0:
131,282,25054,1,0,0:0:0:0:
146,295,25161,1,0,0:0:0:0:
162,306,25268,2,0,P|204:322|276:302,1,100,2|0,1:2|0:0,0:0:0:0:
341,259,25697,1,8,0:0:0:0:
414,327,25911,1,0,0:0:0:0:
414,327,26018,1,0,0:0:0:0:
414,327,26125,5,2,1:2:0:0:
448,232,26340,1,0,0:0:0:0:
401,143,26554,1,8,0:0:0:0:
472,73,26768,2,0,L|523:35,2,50,0|0|2,0:0|0:0|1:2,0:0:0:0:
401,143,27197,1,0,0:0:0:0:
254,110,27411,1,8,0:0:0:0:
221,256,27625,1,0,0:0:0:0:
367,292,27840,5,6,1:2:0:0:
427,212,28054,1,0,0:0:0:0:
360,137,28268,1,8,0:0:0:0:
417,55,28482,1,0,0:0:0:0:
417,55,28590,1,0,0:0:0:0:
417,55,28697,2,0,P|357:37|282:65,1,100,2|0,1:2|0:0,0:0:0:0:
236,95,29125,2,0,P|175:105|110:83,1,100,8|0,0:0|0:0,0:0:0:0:
91,78,29447,1,0,0:0:0:0:
79,126,29554,6,0,P|69:176|89:245,1,100,2|0,1:2|0:0,0:0:0:0:
154,287,29982,2,0,P|217:271|290:294,1,100,8|0,0:0|0:0,0:0:0:0:
295,299,30304,1,0,0:0:0:0:
342,312,30411,2,0,P|389:327|438:323,1,100,2|0,1:2|0:0,0:0:0:0:
512,250,30840,5,8,0:0:0:0:
508,230,30947,1,0,0:0:0:0:
503,210,31054,1,0,0:0:0:0:
498,190,31161,1,0,0:0:0:0:
494,170,31268,6,0,L|474:48,1,100,2|0,1:2|0:0,0:0:0:0:
367,78,31697,2,0,P|315:84|235:52,1,100,8|0,0:0|0:0,0:0:0:0:
220,61,32018,1,0,0:0:0:0:
203,108,32125,2,0,P|183:172|188:219,1,100,2|0,1:2|0:0,0:0:0:0:
251,279,32554,2,0,P|308:260|385:277,1,100,8|0,0:0|0:0,0:0:0:0:
392,282,32875,1,0,0:0:0:0:
424,319,32982,2,0,L|460:185,1,100,6|0,1:2|0:0,0:0:0:0:
293,96,33625,5,0,0:0:0:0:
293,96,33732,1,0,0:0:0:0:
293,96,33840,2,0,L|175:77,1,100,2|0,1:2|0:0,0:0:0:0:
131,157,34268,2,0,L|148:269,1,100,8|0,0:0|0:0,0:0:0:0:
181,292,34590,1,0,0:0:0:0:
224,316,34697,6,0,P|280:332|347:305,1,100,6|0,1:2|0:0,0:0:0:0:
172,67,38125,6,0,P|162:149|173:190,1,100,2|0,1:2|0:0,0:0:0:0:
190,262,38554,1,0,0:0:0:0:
274,209,38768,1,0,0:0:0:0:
339,284,38982,2,0,P|391:298|454:282,2,100,2|0|0,1:2|0:0|0:0,0:0:0:0:
274,209,39625,1,0,0:0:0:0:
246,166,39732,1,0,0:0:0:0:
215,125,39840,6,0,P|155:115|101:142,1,100,2|0,1:2|0:0,0:0:0:0:
110,227,40268,2,0,L|130:333,1,100,0|0,0:0|0:0,0:0:0:0:
226,344,40697,2,0,B|281:334|321:357|321:357|343:324|384:319|459:327,1,200,2|0,1:2|0:0,0:0:0:0:
457,128,41554,6,0,P|387:137|335:108,1,100,2|0,1:2|0:0,0:0:0:0:
264,101,41982,2,0,P|190:89|137:107,1,100,0|0,0:0|0:0,0:0:0:0:
48,149,42411,2,0,B|56:240|48:285|48:285|61:322|62:371,1,200,2|0,1:2|0:0,0:0:0:0:
299,235,43268,6,0,P|360:247|401:305,1,100,2|0,1:2|0:0,0:0:0:0:
442,354,43697,2,0,L|457:213,1,100,0|0,0:0|0:0,0:0:0:0:
457,204,44018,1,0,0:0:0:0:
464,155,44125,2,0,P|461:119|316:43,1,200,2|0,1:2|0:0,0:0:0:0:
141,85,44982,6,0,L|29:78,1,100,2|0,1:2|0:0,0:0:0:0:
0,172,45411,1,8,0:0:0:0:
99,166,45625,1,0,0:0:0:0:
169,236,45840,2,0,P|211:293|112:311,1,200,2|8,1:2|0:0,0:0:0:0:
242,163,46697,6,0,P|307:155|377:184,1,100,2|0,1:2|0:0,0:0:0:0:
417,226,47125,1,8,0:0:0:0:
473,142,47340,1,0,0:0:0:0:
392,83,47554,2,0,P|324:52|196:86,1,200,2|8,1:2|0:0,0:0:0:0:
137,152,48197,1,0,0:0:0:0:
143,251,48411,6,0,L|154:368,1,100,2|0,1:2|0:0,0:0:0:0:
238,301,48840,2,0,L|251:189,1,100,8|0,0:0|0:0,0:0:0:0:
341,162,49268,2,0,P|391:147|471:185,1,100,2|0,1:2|0:0,0:0:0:0:
388,245,49697,2,0,P|335:255|288:239,1,100,8|0,0:0|0:0,0:0:0:0:
199,204,50125,6,0,B|134:185|134:185|65:195,1,100,2|0,1:2|0:0,0:0:0:0:
10,230,50554,2,0,P|4:174|42:103,1,100,8|0,0:0|0:0,0:0:0:0:
106,87,50982,2,8,P|147:109|250:19,1,200,2|8,1:2|0:0,0:0:0:0:
442,82,51840,6,0,P|434:166|458:206,1,100,2|0,1:2|0:0,0:0:0:0:
463,275,52268,1,8,0:0:0:0:
388,341,52482,1,0,0:0:0:0:
302,287,52697,2,0,P|239:273|175:296,1,100,2|0,1:2|0:0,0:0:0:0:
107,298,53125,2,0,B|101:228|101:228|117:169,1,100,10|0,0:0|0:0,0:0:0:0:
180,128,53554,6,0,P|233:112|284:124,1,100,2|0,1:2|0:0,0:0:0:0:
328,205,53982,2,0,P|386:214|446:172,1,100,8|0,0:0|0:0,0:0:0:0:
462,167,54304,1,0,0:0:0:0:
496,130,54411,2,0,B|509:179|492:243|492:243|492:305|450:331,1,200,2|8,1:2|0:0,0:0:0:0:
362,325,55054,1,0,0:0:0:0:
264,297,55268,6,0,P|208:286|152:302,1,100,2|0,1:2|0:0,0:0:0:0:
80,346,55697,1,8,0:0:0:0:
32,257,55911,1,0,0:0:0:0:
117,204,56125,2,0,P|133:144|120:79,1,100,2|0,1:2|0:0,0:0:0:0:
198,33,56554,2,0,B|236:25|236:25|326:44,1,100,8|0,0:0|0:0,0:0:0:0:
331,72,56875,1,0,0:0:0:0:
349,118,56982,6,0,P|359:182|331:257,1,100,2|0,1:2|0:0,0:0:0:0:
262,261,57411,2,0,L|151:244,1,100,8|0,0:0|0:0,0:0:0:0:
63,237,57840,2,0,B|16:241|0:278|0:278|51:120,1,200,2|8,1:2|0:0,0:0:0:0:
82,74,58482,1,0,0:0:0:0:
181,88,58697,6,0,P|238:97|310:74,1,100,2|0,1:2|0:0,0:0:0:0:
377,72,59125,2,0,P|439:66|491:79,1,100,8|0,0:0|0:0,0:0:0:0:
505,168,59554,2,0,B|511:236|511:236|505:275,1,100,2|2,1:2|0:0,0:0:0:0:
419,317,59982,2,0,B|379:340|379:340|291:329,1,100,8|0,0:0|0:0,0:0:0:0:
227,314,60411,6,0,P|160:302|103:319,1,100,2|0,1:2|0:0,0:0:0:0:
33,336,60840,2,0,L|48:225,1,100,8|0,0:0|0:0,0:0:0:0:
57,188,61161,1,0,0:0:0:0:
70,140,61268,2,0,B|80:95|39:3|39:3|101:42,1,200,2|8,1:2|0:0,0:0:0:0:
169,92,61911,1,0,0:0:0:0:
257,45,62125,6,0,P|317:36|368:47,1,100,2|0,1:2|0:0,0:0:0:0:
441,93,62554,1,8,0:0:0:0:
379,171,62768,1,0,0:0:0:0:
451,239,62982,2,0,P|459:291|445:351,1,100,2|0,1:2|0:0,0:0:0:0:
350,337,63411,2,0,L|233:318,1,100,8|0,0:0|0:0,0:0:0:0:
203,305,63732,1,0,0:0:0:0:
153,296,63840,6,0,P|101:290|49:313,1,100,2|0,1:2|0:0,0:0:0:0:
28,211,64268,2,0,L|44:99,1,100,8|0,0:0|0:0,0:0:0:0:
123,52,64697,2,0,P|193:40|267:161,1,200,2|8,1:2|0:0,0:0:0:0:
281,259,65340,1,0,0:0:0:0:
414,162,65554,5,6,1:2:0:0:
122,58,68982,6,0,P|110:147|129:193,1,100,2|0,1:2|0:0,0:0:0:0:
118,174,69304,1,0,0:0:0:0:
125,192,69411,1,8,0:0:0:0:
128,211,69518,1,0,0:0:0:0:
128,230,69625,1,0,0:0:0:0:
126,249,69732,1,0,0:0:0:0:
118,267,69840,6,0,P|184:263|256:283,1,100,2|0,1:2|0:0,0:0:0:0:
236,274,70161,1,0,0:0:0:0:
255,274,70268,1,8,0:0:0:0:
274,271,70375,1,0,0:0:0:0:
292,264,70482,1,0,0:0:0:0:
308,252,70590,1,0,0:0:0:0:
322,238,70697,6,0,L|316:355,1,100,2|0,1:2|0:0,0:0:0:0:
211,204,71125,2,0,L|214:56,1,100,8|0,0:0|0:0,0:0:0:0:
216,84,71447,1,0,0:0:0:0:
224,65,71554,2,0,P|279:49|351:75,1,100,2|0,1:2|0:0,0:0:0:0:
211,204,71982,2,0,P|163:219|114:212,1,100,8|0,0:0|0:0,0:0:0:0:
48,46,72411,6,0,L|40:177,1,100,2|0,1:2|0:0,0:0:0:0:
40,165,72732,1,0,0:0:0:0:
38,185,72840,1,8,0:0:0:0:
38,204,72947,1,0,0:0:0:0:
38,223,73054,1,0,0:0:0:0:
38,242,73161,1,0,0:0:0:0:
44,260,73268,6,0,P|95:274|170:240,1,100,2|0,1:2|0:0,0:0:0:0:
159,261,73590,1,0,0:0:0:0:
178,259,73697,1,8,0:0:0:0:
197,260,73804,1,0,0:0:0:0:
216,265,73911,1,0,0:0:0:0:
232,275,74018,1,0,0:0:0:0:
247,288,74125,6,0,L|236:152,1,100,2|0,1:2|0:0,0:0:0:0:
232,169,74447,1,0,0:0:0:0:
225,150,74554,2,0,P|165:129|94:160,1,100,8|0,0:0|0:0,0:0:0:0:
117,150,74875,1,0,0:0:0:0:
99,159,74982,2,0,B|69:175|69:175|-13:166,1,100,2|0,1:2|0:0,0:0:0:0:
169,54,75411,6,0,B|234:46|234:46|264:62,1,100,8|0,0:0|0:0,0:0:0:0:
278,77,75732,1,0,0:0:0:0:
290,93,75840,2,0,P|297:153|278:212,1,100,0|0,1:2|0:0,0:0:0:0:
284,210,76161,1,0,0:0:0:0:
277,228,76268,1,8,0:0:0:0:
273,247,76375,1,0,0:0:0:0:
272,266,76482,1,0,0:0:0:0:
274,285,76590,1,0,0:0:0:0:
278,304,76697,6,0,P|228:294|165:314,1,100,2|0,1:2|0:0,0:0:0:0:
163,314,77018,1,0,0:0:0:0:
145,323,77125,1,8,0:0:0:0:
129,335,77232,1,0,0:0:0:0:
113,347,77340,1,0,0:0:0:0:
99,361,77447,1,0,0:0:0:0:
83,372,77554,6,0,L|66:253,1,100,2|0,1:2|0:0,0:0:0:0:
64,253,77875,1,0,0:0:0:0:
59,233,77982,2,0,P|115:208|172:229,1,100,8|0,0:0|0:0,0:0:0:0:
170,222,78304,1,0,0:0:0:0:
189,227,78411,2,0,P|256:237|308:205,1,100,2|0,1:2|0:0,0:0:0:0:
386,100,78840,2,0,P|338:86|290:98,1,100,8|0,0:0|0:0,0:0:0:0:
284,225,79268,6,0,L|292:334,1,100,2|0,1:2|0:0,0:0:0:0:
309,334,79590,1,0,0:0:0:0:
328,330,79697,1,8,0:0:0:0:
347,329,79804,1,0,0:0:0:0:
366,333,79911,1,0,0:0:0:0:
385,336,80018,1,0,0:0:0:0:
404,341,80125,6,0,B|398:265|398:265|404:222,1,100,2|0,1:2|0:0,0:0:0:0:
413,225,80447,1,0,0:0:0:0:
421,206,80554,1,8,0:0:0:0:
422,186,80661,1,0,0:0:0:0:
415,166,80768,1,0,0:0:0:0:
406,148,80875,1,0,0:0:0:0:
388,137,80982,6,0,L|322:130,2,50,2|0|0,1:2|0:0|0:0,0:0:0:0:
441,66,81304,2,0,L|501:57,2,50,0|8|0,0:0|0:0|0:0,0:0:0:0:
363,34,81625,1,0,0:0:0:0:
363,34,81732,1,0,0:0:0:0:
363,34,81840,6,0,L|240:29,1,100,2|0,1:2|0:0,0:0:0:0:
247,42,82161,1,0,0:0:0:0:
239,60,82268,1,8,0:0:0:0:
234,79,82375,1,0,0:0:0:0:
239,98,82482,2,0,L|271:119,4,25,0|0|0|0|2,0:0|0:0|0:0|0:0|1:2,0:0:0:0:
95,49,82911,5,0,0:0:0:0:
90,68,83018,1,0,0:0:0:0:
88,88,83125,1,8,0:0:0:0:
89,108,83232,1,0,0:0:0:0:
91,128,83339,1,0,0:0:0:0:
92,148,83446,1,0,0:0:0:0:
97,167,83554,6,0,P|104:235|89:275,1,100,2|0,1:2|0:0,0:0:0:0:
84,281,83875,1,0,0:0:0:0:
73,298,83982,1,8,0:0:0:0:
64,316,84089,1,0,0:0:0:0:
63,335,84196,1,0,0:0:0:0:
72,352,84303,1,0,0:0:0:0:
90,361,84411,6,0,P|150:368|213:350,1,100,2|0,1:2|0:0,0:0:0:0:
206,352,84732,1,0,0:0:0:0:
225,345,84840,2,0,P|295:330|359:359,1,100,8|0,0:0|0:0,0:0:0:0:
340,340,85161,1,0,0:0:0:0:
356,351,85268,2,0,L|348:205,1,100,2|0,1:2|0:0,0:0:0:0:
246,89,85697,2,0,L|239:209,1,100,8|0,0:0|0:0,0:0:0:0:
154,322,86125,6,0,P|100:335|51:316,1,100,0|0,1:2|0:0,0:0:0:0:
41,311,86447,1,0,0:0:0:0:
28,295,86554,1,8,0:0:0:0:
22,275,86661,1,0,0:0:0:0:
18,255,86768,1,0,0:0:0:0:
18,235,86875,1,0,0:0:0:0:
21,215,86982,6,0,B|32:142|32:142|25:71,1,100,2|0,1:2|0:0,0:0:0:0:
22,97,87304,1,0,0:0:0:0:
18,77,87411,1,8,0:0:0:0:
22,57,87518,1,0,0:0:0:0:
36,43,87625,1,0,0:0:0:0:
54,35,87732,1,0,0:0:0:0:
73,31,87840,6,0,L|194:24,1,100,0|0,1:2|0:0,0:0:0:0:
341,120,88268,2,0,L|218:117,1,100,8|0,0:0|0:0,0:0:0:0:
223,127,88590,1,0,0:0:0:0:
210,142,88697,2,0,P|195:212|221:278,1,100,2|0,1:2|0:0,0:0:0:0:
334,313,89125,2,0,L|473:321,1,100,8|0,0:0|0:0,0:0:0:0:
452,311,89447,1,0,0:0:0:0:
463,294,89554,6,0,P|473:235|452:155,1,100,0|0,1:2|0:0,0:0:0:0:
458,177,89875,1,0,0:0:0:0:
452,157,89982,1,8,0:0:0:0:
451,136,90090,1,0,0:0:0:0:
452,116,90197,1,0,0:0:0:0:
455,96,90304,1,0,0:0:0:0:
458,76,90411,6,0,L|317:52,1,100,2|0,1:2|0:0,0:0:0:0:
339,58,90732,1,0,0:0:0:0:
321,67,90840,1,8,0:0:0:0:
310,83,90947,1,0,0:0:0:0:
304,102,91054,1,0,0:0:0:0:
302,121,91161,1,0,0:0:0:0:
302,140,91268,6,0,L|308:268,1,100,2|0,1:2|0:0,0:0:0:0:
301,259,91590,1,0,0:0:0:0:
291,276,91697,2,0,P|242:288|155:270,1,100,8|0,0:0|0:0,0:0:0:0:
173,279,92018,1,0,0:0:0:0:
153,273,92125,2,0,L|140:372,1,100,2|0,1:2|0:0,0:0:0:0:
63,217,92554,2,0,L|81:96,1,100,8|0,0:0|0:0,0:0:0:0:
201,37,92982,5,4,1:2:0:0:
305,104,93197,1,0,0:0:0:0:
324,106,93304,1,0,0:0:0:0:
343,103,93411,1,8,0:0:0:0:
362,99,93518,1,0,0:0:0:0:
381,95,93625,1,0,0:0:0:0:
399,87,93732,1,0,0:0:0:0:
417,79,93840,6,0,L|409:222,1,100,4|0,1:2|0:0,0:0:0:0:
410,198,94161,1,0,0:0:0:0:
403,216,94268,1,8,0:0:0:0:
392,233,94375,1,0,0:0:0:0:
376,245,94482,1,0,0:0:0:0:
357,252,94590,1,0,0:0:0:0:
337,254,94697,6,0,L|263:257,3,50,2|0|0|0,1:2|0:0|0:0|0:0,0:0:0:0:
348,171,95125,2,0,L|413:170,3,50,8|0|0|0,0:0|0:0|0:0|0:0,0:0:0:0:
325,151,95554,2,0,L|214:153,1,100,2|0,1:2|0:0,0:0:0:0:
211,138,95875,2,0,L|177:138,4,25,0|0|8|0|0,0:0|0:0|0:0|0:0|0:0,0:0:0:0:
95,257,96197,1,0,0:0:0:0:
62,117,96411,5,6,1:2:0:0:
113,57,99840,6,0,P|101:117|113:194,1,100,2|0,1:2|0:0,0:0:0:0:
176,223,100268,2,0,L|298:201,1,100,0|0,0:0|0:0,0:0:0:0:
358,259,100697,2,0,P|380:269|428:145,1,200,2|0,1:2|0:0,0:0:0:0:
358,99,101340,1,0,0:0:0:0:
312,77,101447,1,0,0:0:0:0:
267,57,101554,6,0,P|200:45|144:69,1,100,2|0,1:2|0:0,0:0:0:0:
128,143,101982,2,0,B|120:180|120:180|132:260,1,100,0|0,0:0|0:0,0:0:0:0:
216,291,102411,2,0,B|278:294|306:323|306:323|348:311|404:340,1,200,2|0,1:2|0:0,0:0:0:0:
499,370,103054,1,0,0:0:0:0:
454,280,103268,6,0,P|444:226|463:140,1,100,2|0,1:2|0:0,0:0:0:0:
394,96,103697,2,0,B|359:78|359:78|266:83,1,100,0|0,0:0|0:0,0:0:0:0:
206,125,104125,2,0,P|150:163|70:71,1,200,2|0,1:2|0:0,0:0:0:0:
146,22,104768,1,0,0:0:0:0:
146,22,104982,6,0,L|137:136,1,100,2|0,1:2|0:0,0:0:0:0:
144,221,105411,2,0,L|166:337,1,100,0|0,0:0|0:0,0:0:0:0:
206,344,105732,1,0,0:0:0:0:
253,361,105840,2,0,B|319:337|356:363|356:363|388:324|446:343,1,200,2|0,1:2|0:0,0:0:0:0:
495,257,106482,1,0,0:0:0:0:
440,172,106697,6,0,P|418:118|430:52,1,100,2|0,1:2|0:0,0:0:0:0:
329,35,107125,2,0,P|261:19|194:29,1,100,8|0,0:0|0:0,0:0:0:0:
137,56,107554,2,0,B|93:40|74:16|74:16|87:169,1,200,2|8,1:2|0:0,0:0:0:0:
94,238,108197,1,0,0:0:0:0:
174,297,108411,6,0,P|221:307|304:279,1,100,2|0,1:2|0:0,0:0:0:0:
368,272,108840,2,0,P|424:263|487:276,1,100,8|0,0:0|0:0,0:0:0:0:
483,316,109161,1,0,0:0:0:0:
497,363,109268,2,0,L|503:136,1,200,2|8,1:2|0:0,0:0:0:0:
423,100,109911,1,0,0:0:0:0:
340,156,110125,6,0,P|279:169|211:145,1,100,2|0,1:2|0:0,0:0:0:0:
154,114,110554,2,0,P|87:102|30:115,1,100,8|0,0:0|0:0,0:0:0:0:
22,200,110982,1,2,1:2:0:0:
79,282,111197,1,0,0:0:0:0:
143,206,111411,2,0,P|197:197|258:214,1,100,8|0,0:0|0:0,0:0:0:0:
308,279,111840,6,0,P|361:286|426:274,1,100,2|0,1:2|0:0,0:0:0:0:
439,185,112268,2,0,L|451:82,1,100,8|0,0:0|0:0,0:0:0:0:
458,35,112590,1,0,0:0:0:0:
414,60,112697,2,0,P|361:80|224:20,1,200,2|12,1:2|0:0,0:0:0:0:
57,128,113554,6,0,L|79:265,1,100,0|0,0:0|0:0,0:0:0:0:
172,231,113982,2,0,L|160:342,1,100,0|0,0:0|0:0,0:0:0:0:
260,341,114411,2,0,P|325:328|451:383,1,200,0|0,0:0|0:0,0:0:0:0:
432,177,115268,6,0,P|421:113|342:67,1,133.333333333333,2|0,1:2|0:0,0:0:0:0:
299,95,115697,2,0,P|235:101|159:52,1,133.333333333333,8|0,0:0|0:0,0:0:0:0:
109,38,116125,2,0,B|88:75|110:119|138:139|138:139|129:190,1,133.333333333333,2|0,1:2|0:0,0:0:0:0:
169,222,116554,2,0,P|201:238|291:198,1,133.333333333333,8|0,0:0|0:0,0:0:0:0:
322,141,116982,2,0,L|296:292,1,133.333333333333,2|0,1:2|0:0,0:0:0:0:
350,325,117411,2,0,P|390:346|478:325,1,133.333333333333,8|0,0:0|0:0,0:0:0:0:
500,260,117840,2,0,L|512:61,1,200,2|8,1:2|0:0,0:0:0:0:
238,100,118697,6,0,P|170:110|104:63,1,133.333333333333,2|0,1:2|0:0,0:0:0:0:
56,35,119125,2,0,L|66:212,1,133.333333333333,8|0,0:0|0:0,0:0:0:0:
94,235,119554,2,0,B|126:218|135:180|135:180|160:208|219:190,1,133.333333333333,2|0,1:2|0:0,0:0:0:0:
262,180,119982,2,0,L|406:180,1,133.333333333333,8|0,0:0|0:0,0:0:0:0:
446,126,120411,2,0,P|467:176|425:249,1,133.333333333333,2|0,1:2|0:0,0:0:0:0:
366,272,120840,2,0,P|306:285|261:353,1,133.333333333333,8|0,0:0|0:0,0:0:0:0:
195,365,121268,2,0,L|199:172,1,133.333333333333,2|0,1:2|0:0,0:0:0:0:
125,216,121697,2,0,P|148:177|249:176,1,133.333333333333,8|0,0:0|0:0,0:0:0:0:
299,186,122125,6,0,P|366:194|431:169,1,133.333333333333,2|0,1:2|0:0,0:0:0:0:
464,108,122554,2,0,L|434:257,1,133.333333333333,8|0,0:0|0:0,0:0:0:0:
394,298,122982,2,0,P|353:331|253:295,1,133.333333333333,2|0,1:2|0:0,0:0:0:0:
224,269,123411,2,0,P|160:255|106:292,1,133.333333333333,8|0,0:0|0:0,0:0:0:0:
79,360,123840,2,0,L|66:180,1,133.333333333333,2|0,1:2|0:0,0:0:0:0:
132,189,124268,2,0,L|156:43,1,133.333333333333,8|0,0:0|0:0,0:0:0:0:
213,13,124697,2,0,P|253:37|406:-2,1,200,2|8,1:2|0:0,0:0:0:0:
429,226,125554,6,0,P|406:297|413:363,1,133.333333333333,2|0,1:2|0:0,0:0:0:0:
337,362,125982,2,0,P|269:340|198:353,1,133.333333333333,8|0,0:0|0:0,0:0:0:0:
139,373,126411,2,0,L|115:230,1,133.333333333333,2|0,1:2|0:0,0:0:0:0:
180,203,126840,2,0,L|199:50,1,133.333333333333,8|0,0:0|0:0,0:0:0:0:
256,28,127268,2,0,B|272:47|269:90|269:90|338:70|381:66,1,133.333333333333,2|0,1:2|0:0,0:0:0:0:
406,52,127697,2,0,P|477:32|525:89,1,133.333333333333,8|0,0:0|0:0,0:0:0:0:
506,139,128125,2,0,B|486:242|486:242|496:332,1,133.333333333333,2|0,1:2|0:0,0:0:0:0:
494,343,128554,5,8,0:0:0:0:
421,334,128697,1,0,0:0:0:0:
348,346,128840,1,0,0:0:0:0:
276,331,128982,1,6,1:2:0:0:
134,309,132411,6,0,L|118:172,1,133.333333333333,2|0,1:2|0:0,0:0:0:0:
167,121,132840,2,0,P|221:94|304:123,1,133.333333333333,8|0,0:0|0:0,0:0:0:0:
362,161,133268,1,2,1:2:0:0:
362,161,133411,1,0,0:0:0:0:
362,161,133554,1,0,0:0:0:0:
362,161,133697,2,0,P|406:172|503:117,1,133.333333333333,8|0,0:0|0:0,0:0:0:0:
504,69,134125,6,0,L|476:236,1,133.333333333333,2|0,1:2|0:0,0:0:0:0:
451,267,134554,2,0,P|389:304|318:270,1,133.333333333333,8|0,0:0|0:0,0:0:0:0:
270,251,134982,2,0,P|200:227|124:250,1,133.333333333333,2|0,1:2|0:0,0:0:0:0:
116,307,135411,2,0,L|89:167,1,133.333333333333,8|0,0:0|0:0,0:0:0:0:
145,125,135840,6,0,P|189:103|282:131,1,133.333333333333,2|0,1:2|0:0,0:0:0:0:
327,162,136268,2,0,P|386:187|462:159,1,133.333333333333,8|0,0:0|0:0,0:0:0:0:
491,107,136697,1,2,1:2:0:0:
491,107,136840,1,0,0:0:0:0:
491,107,136982,1,0,0:0:0:0:
491,107,137125,2,0,L|476:288,1,133.333333333333,8|0,0:0|0:0,0:0:0:0:
442,303,137554,6,0,P|381:347|300:299,1,133.333333333333,2|0,1:2|0:0,0:0:0:0:
279,280,137982,2,0,P|215:269|165:311,1,133.333333333333,8|0,0:0|0:0,0:0:0:0:
107,357,138411,2,0,B|75:297|129:240|129:240|156:190,1,133.333333333333,2|0,1:2|0:0,0:0:0:0:
188,189,138840,2,0,B|224:174|224:174|342:184,1,133.333333333333,8|0,0:0|0:0,0:0:0:0:
391,186,139268,6,0,P|405:117|385:51,1,133.333333333333,2|0,1:2|0:0,0:0:0:0:
315,69,139697,2,0,P|248:90|157:58,1,133.333333333333,8|0,0:0|0:0,0:0:0:0:
120,48,140125,1,2,1:2:0:0:
120,48,140268,1,0,0:0:0:0:
120,48,140411,1,0,0:0:0:0:
120,48,140554,2,0,L|137:199,1,133.333333333333,8|0,0:0|0:0,0:0:0:0:
193,224,140982,6,0,P|249:247|326:198,1,133.333333333333,2|0,1:2|0:0,0:0:0:0:
361,163,141411,2,0,L|345:314,1,133.333333333333,8|0,0:0|0:0,0:0:0:0:
284,335,141840,2,0,B|229:362|229:362|142:342,1,133.333333333333,2|0,1:2|0:0,0:0:0:0:
114,287,142268,2,0,P|97:223|111:158,1,133.333333333333,8|0,0:0|0:0,0:0:0:0:
177,124,142697,6,0,B|261:106|261:106|356:127,1,133.333333333333,2|0,1:2|0:0,0:0:0:0:
360,167,143125,2,0,P|374:220|350:309,1,133.333333333333,8|0,0:0|0:0,0:0:0:0:
296,336,143554,1,2,1:2:0:0:
296,336,143697,1,0,0:0:0:0:
296,336,143840,1,0,0:0:0:0:
296,336,143982,2,0,P|197:317|133:358,1,133.333333333333,8|0,0:0|0:0,0:0:0:0:
98,346,144411,6,0,P|84:277|104:211,1,133.333333333333,2|0,1:2|0:0,0:0:0:0:
170,195,144840,2,0,P|184:126|164:60,1,133.333333333333,8|0,0:0|0:0,0:0:0:0:
105,28,145268,1,2,1:2:0:0:
89,173,145554,1,0,0:0:0:0:
154,206,145697,1,8,0:0:0:0:
222,180,145840,1,0,0:0:0:0:
290,206,145982,1,0,0:0:0:0:
356,175,146125,6,0,P|365:87|331:26,1,133.333333333333,2|0,1:2|0:0,0:0:0:0:
274,54,146554,2,0,B|246:76|246:76|102:50,1,133.333333333333,8|0,0:0|0:0,0:0:0:0:
101,114,146982,1,2,1:2:0:0:
108,187,147125,1,0,0:0:0:0:
114,260,147268,1,0,0:0:0:0:
162,315,147411,2,0,P|207:327|287:291,1,133.333333333333,8|0,0:0|0:0,0:0:0:0:
319,229,147840,6,0,L|320:80,1,133.333333333333,2|0,1:2|0:0,0:0:0:0:
365,37,148268,2,0,P|393:20|493:87,1,133.333333333333,8|0,0:0|0:0,0:0:0:0:
489,124,148697,2,0,L|478:275,1,133.333333333333,2|0,1:2|0:0,0:0:0:0:
440,319,149125,2,0,P|370:368|291:339,1,133.333333333333,8|0,0:0|0:0,0:0:0:0:
275,309,149554,6,0,P|197:309|138:357,1,133.333333333333,2|0,1:2|0:0,0:0:0:0:
92,380,149982,2,0,L|67:228,1,133.333333333333,8|0,0:0|0:0,0:0:0:0:
49,177,150411,1,2,1:2:0:0:
32,105,150554,1,0,0:0:0:0:
17,32,150697,1,0,0:0:0:0:
87,51,150840,2,0,P|139:57|223:24,1,133.333333333333,8|0,0:0|0:0,0:0:0:0:
282,3,151268,6,0,L|266:148,1,133.333333333333,2|0,1:2|0:0,0:0:0:0:
248,207,151697,2,0,P|221:250|137:216,1,133.333333333333,8|8,0:0|0:0,0:0:0:0:
115,171,152125,2,0,L|138:330,1,133.333333333333,2|0,1:2|0:0,0:0:0:0:
203,327,152554,2,0,P|277:309|354:338,1,133.333333333333,8|0,0:0|0:0,0:0:0:0:
399,348,152982,6,0,P|450:356|486:274,1,133.333333333333,2|0,1:2|0:0,0:0:0:0:
489,220,153411,2,0,L|497:71,1,133.333333333333,8|0,0:0|0:0,0:0:0:0:
440,38,153840,1,2,1:2:0:0:
372,65,153982,1,0,0:0:0:0:
299,53,154125,1,0,0:0:0:0:
252,110,154268,2,0,P|238:192|274:257,1,133.333333333333,8|0,0:0|0:0,0:0:0:0:
329,247,154697,6,0,P|311:288|198:278,1,133.333333333333,2|0,1:2|0:0,0:0:0:0:
161,281,155125,2,0,P|103:267|29:314,1,133.333333333333,8|0,0:0|0:0,0:0:0:0:
14,368,155554,2,0,L|28:207,1,133.333333333333,2|0,1:2|0:0,0:0:0:0:
62,171,155982,2,0,P|109:139|221:182,1,133.333333333333,8|0,0:0|0:0,0:0:0:0:
244,185,156411,6,0,P|295:203|367:156,1,133.333333333333,2|0,1:2|0:0,0:0:0:0:
406,108,156840,1,8,0:0:0:0:
448,248,157125,1,0,0:0:0:0:
400,304,157268,1,2,1:2:0:0:
328,288,157411,1,0,0:0:0:0:
256,312,157554,1,0,0:0:0:0:
208,256,157697,1,8,0:0:0:0:
289,172,157982,1,0,0:0:0:0:
289,172,158125,6,0,P|216:177|155:89,1,160.000006103516,2|0,1:2|0:0,0:0:0:0:
113,14,158554,2,0,L|136:240,1,160.000006103516,8|0,0:0|0:0,0:0:0:0:
208,256,158982,2,0,P|298:289|384:224,1,180.000006866455,2|0,1:2|0:0,0:0:0:0:
419,193,159411,1,0,0:0:0:0:
469,257,159554,1,0,0:0:0:0:
510,188,159697,1,8,0:0:0:0:
459,115,159840,5,6,1:2:0:0:
256,192,159947,12,0,163697,0:0:0:0:
