osu file format v14

[General]
AudioFilename: Jingle Bells.mp3
AudioLeadIn: 0
PreviewTime: 115268
Countdown: 0
SampleSet: Soft
StackLeniency: 0.7
Mode: 0
LetterboxInBreaks: 0
EpilepsyWarning: 1
WidescreenStoryboard: 1

[Editor]
Bookmarks: 20982,38125,68982,99840
DistanceSpacing: 1.1
BeatDivisor: 4
GridSize: 32
TimelineZoom: 1

[Metadata]
Title:Jingle Bells
TitleUnicode:Jingle Bells
Artist:Basshunter
ArtistUnicode:Basshunter
Creator:Slayed
Version:Basic
Source:
Tags:christmas dnb winter drum bass new year fcl zlodeuka-
BeatmapID:830155
BeatmapSetID:370956

[Difficulty]
HPDrainRate:2
CircleSize:3.1
OverallDifficulty:2
ApproachRate:3
SliderMultiplier:1
SliderTickRate:1

[Events]
//Background and Video events
0,0,"bckgrnd.jpg",0,0
//Break Periods
2,16897,19542
2,34897,36685
2,65325,67542
2,96611,98400
2,129182,130971
//Storyboard Layer 0 (Background)
//Storyboard Layer 1 (Fail)
//Storyboard Layer 2 (Pass)
//Storyboard Layer 3 (Foreground)
//Storyboard Sound Samples

[TimingPoints]
3840,428.571428571429,4,2,2,50,1,0
20982,-100,4,2,1,50,0,0
51840,-100,4,2,1,50,0,1
65125,-100,4,2,1,50,0,0
115268,-100,4,2,1,50,0,1
128982,-100,4,2,1,50,0,0
161554,-100,4,2,1,5,0,0

[Colours]
Combo1 : 255,32,32
Combo2 : 9,204,72
Combo3 : 235,211,141

[HitObjects]
103,44,3840,6,0,P|167:27|239:140,1,200,4|0,0:0|0:0,0:0:0:0:
354,309,5554,2,0,P|407:323|460:209,1,200,4|0,0:0|0:0,0:0:0:0:
287,82,7268,6,0,P|224:78|179:98,1,100,4|0,0:0|0:0,0:0:0:0:
159,196,8125,2,0,L|144:309,1,100,0|0,0:0|0:0,0:0:0:0:
248,335,8982,2,0,P|321:347|404:246,1,200,0|0,0:0|0:0,0:0:0:0:
234,121,10697,6,0,L|133:102,1,100,4|0,0:0|0:0,0:0:0:0:
57,179,11554,2,0,P|50:245|57:284,1,100,0|0,0:0|0:0,0:0:0:0:
150,333,12411,2,0,P|194:305|343:340,1,200,4|0,0:0|0:0,0:0:0:0:
461,151,14125,6,0,P|471:114|465:48,1,100,4|0,0:0|0:0,0:0:0:0:
358,76,14982,2,0,P|312:86|241:65,1,100,0|0,0:0|0:0,0:0:0:0:
154,46,15840,2,0,P|85:35|120:129,1,200,4|0,0:0|0:0,0:0:0:0:
136,318,20982,6,0,L|127:195,1,100,2|8,1:2|0:0,0:0:0:0:
208,141,21840,2,0,P|262:125|320:143,1,100,2|8,1:2|0:0,0:0:0:0:
380,212,22697,2,0,P|443:216|493:192,1,100,2|8,1:2|0:0,0:0:0:0:
479,93,23554,2,0,P|431:78|382:84,1,100,2|8,1:2|0:0,0:0:0:0:
283,133,24411,6,0,P|233:141|169:125,1,100,2|8,1:2|0:0,0:0:0:0:
85,84,25268,1,2,1:2:0:0:
96,199,25697,1,8,0:0:0:0:
110,307,26125,2,0,P|142:338|291:299,1,200,2|2,1:2|1:2,0:0:0:0:
345,223,27411,1,8,0:0:0:0:
387,121,27840,6,0,P|394:70|379:16,1,100,6|8,1:2|0:0,0:0:0:0:
277,56,28697,2,0,P|226:67|167:51,1,100,2|8,1:2|0:0,0:0:0:0:
70,42,29554,2,0,P|60:94|69:153,1,100,2|8,1:2|0:0,0:0:0:0:
84,248,30411,2,0,P|93:301|81:355,1,100,2|8,1:2|0:0,0:0:0:0:
193,330,31268,2,0,P|285:310|410:322,1,200,2|2,1:2|1:2,0:0:0:0:
494,352,32554,1,8,0:0:0:0:
449,251,32982,6,0,P|438:204|453:135,1,100,6|0,1:2|0:0,0:0:0:0:
372,70,33840,2,0,P|316:60|260:77,1,100,2|8,1:2|0:0,0:0:0:0:
174,114,34697,1,6,1:2:0:0:
121,282,38125,6,0,P|187:300|297:123,1,300,2|0,1:2|0:0,0:0:0:0:
232,53,39840,2,0,B|182:87|90:61|90:61|113:180|43:209,1,300,2|0,1:2|0:0,0:0:0:0:
155,251,41554,2,0,P|239:231|413:350,1,300,2|0,1:2|0:0,0:0:0:0:
471,249,43268,6,0,L|482:136,1,100,2|0,1:2|0:0,0:0:0:0:
397,77,44125,2,0,P|331:63|283:86,1,100,2|0,1:2|0:0,0:0:0:0:
212,137,44982,6,0,P|163:147|116:132,1,100,2|8,1:2|0:0,0:0:0:0:
27,68,45840,2,0,L|39:180,1,100,2|8,1:2|0:0,0:0:0:0:
68,273,46697,2,0,P|137:339|240:298,1,200,2|2,1:2|1:2,0:0:0:0:
297,226,47982,1,8,0:0:0:0:
343,126,48411,6,0,P|349:70|334:14,1,100,2|8,1:2|0:0,0:0:0:0:
236,65,49268,2,0,P|165:72|117:58,1,100,2|8,1:2|0:0,0:0:0:0:
33,30,50125,2,0,L|49:138,1,100,2|8,1:2|0:0,0:0:0:0:
102,224,50982,2,0,L|86:333,1,100,2|8,1:2|0:0,0:0:0:0:
195,343,51840,6,0,L|311:349,1,100,2|8,1:2|0:0,0:0:0:0:
397,307,52697,1,2,1:2:0:0:
330,219,53125,1,10,0:0:0:0:
387,124,53554,6,0,P|398:94|378:14,1,100,2|8,1:2|0:0,0:0:0:0:
287,73,54411,2,0,P|228:86|174:77,1,100,2|8,1:2|0:0,0:0:0:0:
87,40,55268,6,0,L|99:159,1,100,2|8,1:2|0:0,0:0:0:0:
108,248,56125,1,2,1:2:0:0:
186,325,56554,1,8,0:0:0:0:
282,273,56982,6,0,P|349:266|393:288,2,100,2|8|2,1:2|0:0|1:2,0:0:0:0:
206,192,58268,1,8,0:0:0:0:
313,169,58697,6,0,P|350:151|364:84,1,100,2|8,1:2|0:0,0:0:0:0:
292,17,59554,1,2,1:2:0:0:
197,73,59982,1,8,0:0:0:0:
132,162,60411,6,0,P|120:239|136:279,1,100,2|8,1:2|0:0,0:0:0:0:
224,308,61268,2,0,B|271:300|271:300|341:306,1,100,2|8,1:2|0:0,0:0:0:0:
428,337,62125,6,0,L|436:224,1,100,2|8,1:2|0:0,0:0:0:0:
452,128,62982,1,2,1:2:0:0:
350,171,63411,1,8,0:0:0:0:
244,203,63840,6,0,P|165:217|90:196,2,150,2|0|8,1:2|0:0|0:0,0:0:0:0:
87,150,68982,6,0,B|144:159|195:304|195:304|220:253|294:259,1,300,2|8,1:2|0:0,0:0:0:0:
391,277,70697,2,0,P|412:224|272:62,1,300,2|8,1:2|0:0,0:0:0:0:
196,140,72411,6,0,P|120:190|165:76,1,300,2|8,1:2|0:0,0:0:0:0:
263,74,74125,2,0,P|320:56|418:231,1,300,2|8,1:2|0:0,0:0:0:0:
325,277,75840,6,0,B|240:278|204:348|204:348|153:282|63:288,1,300,0|8,1:2|0:0,0:0:0:0:
22,188,77554,2,0,P|14:124|203:65,1,300,2|8,1:2|0:0,0:0:0:0:
265,144,79268,6,0,P|329:188|461:47,1,300,2|8,1:2|0:0,0:0:0:0:
355,46,80982,2,0,B|214:29|214:29|136:35|107:102|118:147,1,300,2|8,1:2|0:0,0:0:0:0:
114,242,82697,6,0,P|155:330|332:278,1,300,2|8,1:2|0:0,0:0:0:0:
323,183,84411,2,0,B|392:190|417:236|417:236|411:142|466:44,1,300,2|8,1:2|0:0,0:0:0:0:
352,64,86125,6,0,B|260:90|146:27|146:27|162:127,1,300,0|8,1:2|0:0,0:0:0:0:
175,220,87840,2,0,P|189:273|377:235,1,300,0|8,1:2|0:0,0:0:0:0:
285,178,89554,6,0,P|225:115|345:140,1,300,0|8,1:2|0:0,0:0:0:0:
358,233,91268,2,0,P|323:291|125:233,1,300,2|8,1:2|0:0,0:0:0:0:
95,143,92982,6,0,L|72:40,2,100,4|8|4,1:2|0:0|1:2,0:0:0:0:
198,181,94268,1,8,0:0:0:0:
297,134,94697,6,0,P|343:124|462:227,1,200,2|2,1:2|1:2,0:0:0:0:
480,315,95982,1,8,0:0:0:0:
373,288,96411,5,6,1:2:0:0:
90,62,99840,6,0,B|118:208|118:208|77:263|90:326|130:365,1,300,2|0,1:2|0:0,0:0:0:0:
200,278,101554,2,0,B|284:289|323:224|323:224|400:258|461:180,1,300,2|0,1:2|0:0,0:0:0:0:
432,74,103268,2,0,P|362:44|235:200,1,300,2|0,1:2|0:0,0:0:0:0:
219,295,104982,6,0,L|104:270,1,100,2|0,1:2|0:0,0:0:0:0:
50,189,105840,2,0,P|41:123|61:81,1,100,2|0,1:2|0:0,0:0:0:0:
147,148,106697,6,0,L|250:160,1,100,2|8,1:2|0:0,0:0:0:0:
331,229,107554,2,0,P|341:293|316:337,1,100,2|8,1:2|0:0,0:0:0:0:
219,346,108411,2,0,P|134:303|130:203,1,200,2|2,1:2|1:2,0:0:0:0:
177,109,109697,1,8,0:0:0:0:
270,166,110125,6,0,P|331:181|386:172,1,100,2|8,1:2|0:0,0:0:0:0:
464,125,110982,2,0,L|447:228,1,100,2|8,1:2|0:0,0:0:0:0:
389,317,111840,2,0,P|326:329|274:314,1,100,2|8,1:2|0:0,0:0:0:0:
196,266,112697,2,0,P|128:258|84:274,1,100,2|12,1:2|0:0,0:0:0:0:
116,34,115268,6,0,L|107:156,1,100,2|8,1:2|0:0,0:0:0:0:
203,190,116125,2,0,L|203:302,1,100,2|8,1:2|0:0,0:0:0:0:
299,342,116982,2,0,P|349:353|427:229,1,200,2|2,1:2|1:2,0:0:0:0:
418,141,118268,1,8,0:0:0:0:
325,199,118697,6,0,P|268:210|216:200,1,100,2|8,1:2|0:0,0:0:0:0:
132,147,119554,2,0,P|67:143|21:158,1,100,2|8,1:2|0:0,0:0:0:0:
91,245,120411,2,0,B|133:274|143:336|143:336|175:304|247:333,1,200,2|2,1:2|1:2,0:0:0:0:
335,358,121697,1,8,0:0:0:0:
368,253,122125,6,0,P|379:176|378:141,1,100,2|8,1:2|0:0,0:0:0:0:
288,91,122982,2,0,P|238:81|177:92,1,100,2|8,1:2|0:0,0:0:0:0:
86,131,123840,2,0,P|38:172|80:299,1,200,2|2,1:2|1:2,0:0:0:0:
161,348,125125,1,8,0:0:0:0:
264,310,125554,6,0,P|331:302|382:312,1,100,2|8,1:2|0:0,0:0:0:0:
461,355,126411,2,0,L|476:248,1,100,2|8,1:2|0:0,0:0:0:0:
479,145,127268,2,0,B|417:156|392:194|392:194|369:158|303:147,1,200,2|2,1:2|1:2,0:0:0:0:
207,187,128554,1,8,0:0:0:0:
113,130,128982,5,6,1:2:0:0:
65,109,132411,6,0,P|173:73|241:232,1,300,2|8,1:2|0:0,0:0:0:0:
145,249,134125,2,0,P|198:333|345:243,1,300,2|8,1:2|0:0,0:0:0:0:
339,144,135840,6,0,P|336:102|399:182,1,300,2|8,1:2|0:0,0:0:0:0:
333,244,137554,2,0,P|248:260|148:95,1,300,2|8,1:2|0:0,0:0:0:0:
246,57,139268,6,0,B|320:107|393:66|393:66|366:148|424:211,1,300,2|8,1:2|0:0,0:0:0:0:
373,303,140982,2,0,P|332:346|164:243,1,300,2|8,1:2|0:0,0:0:0:0:
131,139,142697,6,0,B|96:110|83:87|83:87|16:192|71:317,1,300,2|8,1:2|0:0,0:0:0:0:
176,301,144411,2,0,B|312:246|309:312|417:346|473:274,1,300,2|8,1:2|0:0,0:0:0:0:
462,175,146125,6,0,B|401:118|427:48|427:48|370:108|257:80,1,300,2|8,1:2|0:0,0:0:0:0:
168,85,147840,2,0,P|85:106|146:269,1,300,2|8,1:2|0:0,0:0:0:0:
235,307,149554,6,0,B|328:356|328:356|388:359|416:364|480:326|484:247,1,300,2|8,1:2|0:0,0:0:0:0:
498,161,151268,2,0,P|502:117|373:178,1,300,2|8,1:2|0:0,0:0:0:0:
297,255,152982,6,0,P|238:265|213:82,1,300,2|8,1:2|0:0,0:0:0:0:
314,100,154697,6,0,B|371:111|406:76|406:76|460:179|421:278,1,300,2|8,1:2|0:0,0:0:0:0:
320,307,156411,2,0,L|200:322,2,100,2|8|2,1:2|0:0|1:2,0:0:0:0:
370,209,157697,1,8,0:0:0:0:
276,151,158125,6,0,P|224:139|162:155,1,100,2|8,1:2|0:0,0:0:0:0:
101,225,158982,2,0,P|46:232|-13:212,1,100,2|0,1:2|0:0,0:0:0:0:
3,110,159840,5,6,1:2:0:0:
256,192,160268,12,0,163697,0:0:0:0:
