osu file format v14

[General]
AudioFilename: Jingle Bells.mp3
AudioLeadIn: 0
PreviewTime: 115268
Countdown: 0
SampleSet: Soft
StackLeniency: 0.7
Mode: 0
LetterboxInBreaks: 0
EpilepsyWarning: 1
WidescreenStoryboard: 1

[Editor]
Bookmarks: 20982,38125,68982,99840
DistanceSpacing: 1.4
BeatDivisor: 3
GridSize: 16
TimelineZoom: 1

[Metadata]
Title:Jingle Bells
TitleUnicode:Jingle Bells
Artist:Basshunter
ArtistUnicode:Basshunter
Creator:Slayed
Version:Advanced
Source:
Tags:christmas dnb winter drum bass new year fcl zlodeuka-
BeatmapID:827595
BeatmapSetID:370956

[Difficulty]
HPDrainRate:4
CircleSize:3.2
OverallDifficulty:4
ApproachRate:5
SliderMultiplier:1.2
SliderTickRate:1

[Events]
//Background and Video events
0,0,"bckgrnd.jpg",0,0
//Break Periods
2,16897,19782
2,34897,36925
2,65754,67782
2,96611,98640
2,113325,114068
2,129182,131211
//Storyboard Layer 0 (Background)
//Storyboard Layer 1 (Fail)
//Storyboard Layer 2 (Pass)
//Storyboard Layer 3 (Foreground)
//Storyboard Sound Samples

[TimingPoints]
3840,428.571428571429,4,2,2,50,1,0
20982,-100,4,2,1,50,0,0
51840,-100,4,2,1,50,0,1
65125,-100,4,2,1,50,0,0
115268,-100,4,2,1,50,0,1
128982,-100,4,2,1,50,0,0
161554,-100,4,2,1,5,0,0

[Colours]
Combo1 : 255,32,32
Combo2 : 9,204,72
Combo3 : 235,211,141

[HitObjects]
129,280,3840,6,0,L|108:137,1,120,4|0,0:0|0:0,0:0:0:0:
237,49,4697,2,0,P|290:38|362:53,1,120
426,201,5554,2,0,L|408:319,1,120,4|0,0:0|0:0,0:0:0:0:
329,350,6197,1,0,0:0:0:0:
256,307,6411,2,0,P|180:301|92:333,1,120
19,191,7268,6,0,L|37:41,1,120,4|0,0:0|0:0,0:0:0:0:
200,83,8125,2,0,P|263:93|347:52,1,120
392,41,8768,1,0,0:0:0:0:
448,103,8982,2,0,B|399:191|476:265|425:350,1,240
95,340,10697,5,4,0:0:0:0:
67,172,11125,2,0,P|70:101|205:142,1,240
240,191,12197,1,0,0:0:0:0:
285,120,12411,2,0,P|382:75|419:175,1,240,4|0,0:0|0:0,0:0:0:0:
329,317,13697,5,0,0:0:0:0:
251,285,13911,1,0,0:0:0:0:
170,307,14125,2,0,P|100:338|24:297,1,120,4|0,0:0|0:0,0:0:0:0:
152,188,14982,2,0,P|203:158|261:166,1,120
376,289,15840,2,0,B|403:174|403:174|464:138|447:59,1,240,4|0,0:0|0:0,0:0:0:0:
113,304,20982,5,2,1:2:0:0:
96,128,21411,1,8,0:0:0:0:
256,192,21840,1,2,1:2:0:0:
416,128,22268,1,8,0:0:0:0:
399,300,22697,6,0,P|321:290|256:320,1,120,2|8,1:2|0:0,0:0:0:0:
119,345,23554,2,0,L|142:207,1,120,2|8,1:2|0:0,0:0:0:0:
153,144,24197,1,0,0:0:0:0:
165,61,24411,5,2,1:2:0:0:
296,165,24840,1,8,0:0:0:0:
139,227,25268,1,2,1:2:0:0:
280,317,25697,1,8,0:0:0:0:
416,219,26125,6,0,L|429:75,1,120,2|8,1:2|0:0,0:0:0:0:
268,43,26982,2,0,P|228:30|170:50,2,60,2|0|8,1:2|0:0|0:0,0:0:0:0:
256,126,27625,1,0,0:0:0:0:
242,209,27840,5,6,1:2:0:0:
90,280,28268,1,8,0:0:0:0:
63,114,28697,2,0,P|105:54|187:35,1,120,2|8,1:2|0:0,0:0:0:0:
268,151,29554,6,0,B|285:248|285:248|311:288,1,120,2|8,1:2|0:0,0:0:0:0:
445,344,30411,1,2,1:2:0:0:
433,176,30840,1,8,0:0:0:0:
299,74,31268,6,0,P|228:78|183:148,1,120,2|8,1:2|0:0,0:0:0:0:
105,251,32125,2,8,L|61:130,1,120,2|8,1:2|0:0,0:0:0:0:
206,49,32982,6,0,P|259:56|306:40,1,60,6|0,1:2|0:0,0:0:0:0:
433,49,33625,1,0,0:0:0:0:
452,131,33840,2,0,L|465:218,1,60,2|0,1:2|0:0,0:0:0:0:
423,265,34268,2,0,P|373:277|330:267,1,60,8|0,0:0|0:0,0:0:0:0:
289,238,34697,1,6,1:2:0:0:
140,297,38125,6,0,P|126:221|146:143,1,120,2|0,1:2|0:0,0:0:0:0:
294,135,38982,2,0,P|374:139|439:94,1,120,2|0,1:2|0:0,0:0:0:0:
476,73,39625,1,0,0:0:0:0:
482,157,39840,6,0,L|464:302,1,120,2|0,1:2|0:0,0:0:0:0:
305,323,40697,2,0,P|226:308|146:342,1,120,2|0,1:2|0:0,0:0:0:0:
44,230,41554,6,0,L|61:88,1,120,2|0,1:2|0:0,0:0:0:0:
74,28,42197,1,0,0:0:0:0:
147,68,42411,2,0,P|208:77|288:23,1,120,2|0,1:2|0:0,0:0:0:0:
427,68,43268,6,0,L|439:155,1,60,2|0,1:2|0:0,0:0:0:0:
369,180,43697,2,0,L|370:253,1,60
318,306,44125,2,0,P|243:291|174:328,1,120,2|0,1:2|0:0,0:0:0:0:
43,355,44982,6,0,B|32:269|32:269|44:218,1,120,2|8,1:2|0:0,0:0:0:0:
90,169,45625,1,0,0:0:0:0:
162,125,45840,2,0,P|227:111|309:152,1,120,2|8,1:2|0:0,0:0:0:0:
368,267,46697,6,0,B|346:298|346:298|241:319,1,120,2|8,1:2|0:0,0:0:0:0:
183,331,47340,1,0,0:0:0:0:
104,301,47554,2,0,P|87:242|120:165,1,120,2|8,1:2|0:0,0:0:0:0:
241,93,48411,6,0,P|309:116|401:86,1,120,2|8,1:2|0:0,0:0:0:0:
433,76,49054,1,0,0:0:0:0:
437,159,49268,2,0,B|437:242|437:242|415:296,1,120,2|8,1:2|0:0,0:0:0:0:
359,331,49911,1,0,0:0:0:0:
277,311,50125,6,0,P|159:308|120:331,1,120,2|8,1:2|0:0,0:0:0:0:
87,349,50768,1,0,0:0:0:0:
13,307,50982,2,0,P|0:237|42:160,1,120,2|8,1:2|0:0,0:0:0:0:
161,108,51840,6,0,P|194:83|217:78,2,60,2|0|8,1:2|0:0|0:0,0:0:0:0:
119,183,52482,1,0,0:0:0:0:
94,263,52697,2,0,P|85:318|97:357,2,60,2|0|10,1:2|0:0|0:0,0:0:0:0:
119,183,53340,1,0,0:0:0:0:
175,245,53554,6,0,P|254:264|316:232,1,120,2|8,1:2|0:0,0:0:0:0:
360,208,54197,1,0,0:0:0:0:
421,151,54411,2,0,L|399:304,1,120,2|8,1:2|0:0,0:0:0:0:
242,317,55268,6,0,P|174:312|115:340,1,120,2|8,1:2|0:0,0:0:0:0:
51,368,55911,1,0,0:0:0:0:
53,284,56125,2,0,B|54:204|54:204|66:160,1,120,2|8,1:2|0:0,0:0:0:0:
120,102,56768,1,0,0:0:0:0:
193,142,56982,6,0,P|225:144|283:127,1,60,2|0,1:2|0:0,0:0:0:0:
325,97,57411,2,0,P|357:96|417:113,1,60,8|0,0:0|0:0,0:0:0:0:
445,158,57840,2,0,B|454:251|454:251|428:325,1,120,2|8,1:2|0:0,0:0:0:0:
282,319,58697,6,0,P|245:330|190:325,2,60,2|0|8,1:2|0:0|0:0,0:0:0:0:
339,257,59340,1,0,0:0:0:0:
396,195,59554,2,8,P|432:184|490:195,2,60,2|2|8,1:2|0:0|0:0,0:0:0:0:
318,161,60197,1,0,0:0:0:0:
261,224,60411,6,0,P|175:221|122:253,1,120,2|8,1:2|0:0,0:0:0:0:
79,286,61054,1,0,0:0:0:0:
23,348,61268,2,0,L|7:208,1,120,2|8,1:2|0:0,0:0:0:0:
129,122,62125,6,0,P|163:111|212:117,1,60,2|0,1:2|0:0,0:0:0:0:
232,181,62554,2,0,P|273:177|318:156,1,60,8|0,0:0|0:0,0:0:0:0:
361,126,62982,2,0,P|371:155|364:230,1,60,2|0,1:2|0:0,0:0:0:0:
361,267,63411,2,0,L|356:350,1,60,8|0,0:0|0:0,0:0:0:0:
273,333,63840,6,0,P|168:320|124:338,1,120,2|8,1:2|0:0,0:0:0:0:
79,356,64482,1,0,0:0:0:0:
86,272,64697,2,0,L|104:120,1,120,2|8,1:2|0:0,0:0:0:0:
142,80,65340,1,0,0:0:0:0:
217,42,65554,5,6,1:2:0:0:
109,87,68982,6,0,L|103:240,1,120,2|8,1:2|0:0,0:0:0:0:
243,302,69840,2,0,P|319:289|389:330,1,120,2|8,1:2|0:0,0:0:0:0:
401,231,70482,1,0,0:0:0:0:
364,155,70697,2,0,P|306:169|249:153,1,120,2|8,1:2|0:0,0:0:0:0:
91,95,71554,2,0,L|81:241,1,120,2|8,1:2|0:0,0:0:0:0:
224,305,72411,6,0,P|292:289|361:311,1,120,2|8,1:2|0:0,0:0:0:0:
495,363,73268,2,0,L|518:207,1,120,2|8,1:2|0:0,0:0:0:0:
510,160,73911,1,0,0:0:0:0:
433,193,74125,2,0,P|366:209|297:180,1,120,2|8,1:2|0:0,0:0:0:0:
241,160,74768,1,0,0:0:0:0:
165,196,74982,2,0,P|107:210|50:193,1,120,2|8,1:2|0:0,0:0:0:0:
150,57,75840,6,0,B|228:45|228:45|267:83,1,120,0|8,1:2|0:0,0:0:0:0:
348,214,76697,2,0,B|377:242|377:242|455:230,1,120,2|8,1:2|0:0,0:0:0:0:
462,62,77554,2,0,P|354:52|318:70,1,120,2|8,1:2|0:0,0:0:0:0:
263,72,78197,1,0,0:0:0:0:
181,92,78411,2,0,P|110:108|30:66,1,120,2|8,1:2|0:0,0:0:0:0:
4,251,79268,6,0,B|4:347|4:347|23:383,1,120,2|8,1:2|0:0,0:0:0:0:
168,299,80125,2,0,P|228:277|332:293,1,120,2|8,1:2|0:0,0:0:0:0:
362,305,80768,1,0,0:0:0:0:
434,347,80982,2,0,L|437:206,1,120,2|8,1:2|0:0,0:0:0:0:
430,142,81625,1,0,0:0:0:0:
351,170,81840,2,0,P|279:194|208:162,1,120,2|8,1:2|0:0,0:0:0:0:
95,92,82697,6,0,L|86:228,1,120,2|8,1:2|0:0,0:0:0:0:
217,318,83554,2,0,L|226:178,1,120,2|8,1:2|0:0,0:0:0:0:
230,114,84197,1,0,0:0:0:0:
299,160,84411,2,0,P|375:174|441:134,1,120,2|8,1:2|0:0,0:0:0:0:
491,135,85054,1,0,0:0:0:0:
484,219,85268,2,0,L|465:364,1,120,2|8,1:2|0:0,0:0:0:0:
302,311,86125,6,0,P|219:297|157:319,1,120,0|8,1:2|0:0,0:0:0:0:
113,348,86768,1,0,0:0:0:0:
74,273,86982,2,0,B|61:238|61:238|78:139,1,120,2|8,1:2|0:0,0:0:0:0:
215,64,87840,2,0,B|228:99|228:99|211:198,1,120,0|8,1:2|0:0,0:0:0:0:
268,244,88482,1,0,0:0:0:0:
345,210,88697,2,0,P|348:271|305:322,1,120,2|8,1:2|0:0,0:0:0:0:
147,297,89554,6,0,L|125:142,1,120,0|8,1:2|0:0,0:0:0:0:
218,36,90411,2,0,P|269:58|369:32,1,120,2|8,1:2|0:0,0:0:0:0:
399,206,91268,2,0,L|372:292,2,60,2|0|8,1:2|0:0|0:0,0:0:0:0:
428,130,91911,1,0,0:0:0:0:
345,146,92125,2,0,B|254:161|254:161|196:144,1,120,2|8,1:2|0:0,0:0:0:0:
72,86,92982,6,0,L|83:238,1,120,4|8,1:2|0:0,0:0:0:0:
226,289,93840,2,0,L|238:156,1,120,4|8,1:2|0:0,0:0:0:0:
365,61,94697,2,0,L|438:44,1,60,2|0,1:2|0:0,0:0:0:0:
475,113,95125,2,0,L|461:187,1,60,8|0,0:0|0:0,0:0:0:0:
444,253,95554,2,0,P|439:304|452:347,1,60,2|0,1:2|0:0,0:0:0:0:
367,353,95982,2,0,P|308:338|277:347,1,60,8|0,0:0|0:0,0:0:0:0:
227,352,96411,5,6,1:2:0:0:
114,309,99840,6,0,L|94:197,1,60,2|0,1:2|0:0,0:0:0:0:
169,197,100268,2,0,L|177:112,1,60
239,83,100697,2,0,P|305:98|395:59,1,120,2|0,1:2|0:0,0:0:0:0:
429,47,101340,1,0,0:0:0:0:
421,130,101554,6,0,L|405:231,1,60,2|0,1:2|0:0,0:0:0:0:
344,240,101982,2,0,P|311:226|268:231,1,60
210,260,102411,2,0,P|141:262|72:198,1,120,2|0,1:2|0:0,0:0:0:0:
7,95,103268,6,0,L|-1:223,1,120,2|0,1:2|0:0,0:0:0:0:
15,297,103911,1,0,0:0:0:0:
82,346,104125,2,0,B|119:367|119:367|224:361,1,120,2|0,1:2|0:0,0:0:0:0:
314,242,104982,6,0,L|322:161,1,60,2|0,1:2|0:0,0:0:0:0:
246,140,105411,2,0,L|252:66,1,60
171,52,105840,2,0,P|106:85|28:55,1,120,2|0,1:2|0:0,0:0:0:0:
152,219,106697,6,0,L|306:229,2,120,2|8|2,1:2|0:0|1:2,0:0:0:0:
45,348,107982,1,8,0:0:0:0:
38,179,108411,6,0,L|28:37,2,120,2|8|2,1:2|0:0|1:2,0:0:0:0:
155,296,109697,1,8,0:0:0:0:
319,327,110125,6,0,P|391:333|454:289,1,120,2|8,1:2|0:0,0:0:0:0:
462,233,110768,1,0,0:0:0:0:
478,150,110982,2,0,L|485:70,1,60,2|0,1:2|0:0,0:0:0:0:
399,83,111411,2,0,P|373:92|305:78,1,60,8|0,0:0|0:0,0:0:0:0:
257,80,111840,6,0,P|195:76|152:83,1,60,2|0,1:2|0:0,0:0:0:0:
121,112,112268,2,0,L|131:202,1,60,8|0,0:0|0:0,0:0:0:0:
173,242,112697,2,0,P|253:228|334:257,1,120,2|12,1:2|0:0,0:0:0:0:
117,276,115268,6,0,P|110:195|126:128,1,120,2|8,1:2|0:0,0:0:0:0:
247,52,116125,2,0,P|297:62|394:35,1,120,2|8,1:2|0:0,0:0:0:0:
498,152,116982,2,0,L|478:273,1,120,2|8,1:2|0:0,0:0:0:0:
385,333,117697,1,0,0:0:0:0:
385,333,117840,2,0,P|312:324|256:340,1,120,2|8,1:2|0:0,0:0:0:0:
100,354,118697,6,0,L|90:218,1,120,2|8,1:2|0:0,0:0:0:0:
97,66,119554,2,0,P|146:82|217:64,1,120,2|8,1:2|0:0,0:0:0:0:
374,27,120411,2,0,L|389:164,1,120,2|8,1:2|0:0,0:0:0:0:
395,258,121125,1,0,0:0:0:0:
395,258,121268,2,0,B|363:278|363:278|272:272,1,120,2|8,1:2|0:0,0:0:0:0:
118,228,122125,6,0,L|101:89,1,120,2|8,1:2|0:0,0:0:0:0:
264,61,122982,2,0,P|328:67|399:25,1,120,2|8,1:2|0:0,0:0:0:0:
503,157,123840,2,0,L|494:305,1,120,2|8,1:2|0:0,0:0:0:0:
391,316,124554,1,0,0:0:0:0:
391,316,124697,2,0,P|325:329|252:302,1,120,2|8,1:2|0:0,0:0:0:0:
112,272,125554,6,0,P|95:219|110:137,1,120,2|8,1:2|0:0,0:0:0:0:
165,63,126268,1,0,0:0:0:0:
165,63,126411,2,0,P|237:70|299:50,1,120,2|8,1:2|0:0,0:0:0:0:
448,28,127268,2,0,L|428:164,1,120,2|8,1:2|0:0,0:0:0:0:
344,291,128125,2,0,P|267:265|205:279,1,120,2|8,1:2|0:0,0:0:0:0:
71,325,128982,5,6,1:2:0:0:
101,83,132411,6,0,L|110:226,1,120,2|8,1:2|0:0,0:0:0:0:
231,317,133268,2,0,P|295:296|372:322,1,120,2|8,1:2|0:0,0:0:0:0:
507,348,134125,2,0,L|509:221,1,120,2|8,1:2|0:0,0:0:0:0:
418,86,134982,2,0,B|376:109|376:109|274:97,1,120,2|8,1:2|0:0,0:0:0:0:
137,75,135840,6,0,P|124:146|148:198,1,120,2|8,1:2|0:0,0:0:0:0:
273,292,136697,2,0,P|337:272|404:295,1,120,2|8,1:2|0:0,0:0:0:0:
470,138,137554,2,0,L|484:18,1,120,2|8,1:2|0:0,0:0:0:0:
328,81,138411,2,0,P|274:96|185:78,1,120,2|8,1:2|0:0,0:0:0:0:
48,45,139268,6,0,L|65:182,1,120,2|8,1:2|0:0,0:0:0:0:
165,297,140125,2,0,P|243:280|293:305,1,120,2|8,1:2|0:0,0:0:0:0:
439,342,140982,2,0,B|477:315|477:315|488:215,1,120,2|8,1:2|0:0,0:0:0:0:
360,127,141840,2,0,P|301:151|219:122,1,120,2|8,1:2|0:0,0:0:0:0:
107,47,142697,6,0,L|93:172,1,120,2|8,1:2|0:0,0:0:0:0:
190,303,143554,2,0,P|254:288|337:308,1,120,2|8,1:2|0:0,0:0:0:0:
405,349,144268,2,0,L|410:287,1,40,0|2,0:0|1:2,0:0:0:0:
479,221,144697,2,0,L|483:181,1,40,0|8,0:0|0:0,0:0:0:0:
401,105,145125,2,0,L|397:65,1,40,0|2,0:0|1:2,0:0:0:0:
291,27,145554,2,0,L|296:90,1,40,0|8,0:0|0:0,0:0:0:0:
317,233,146125,6,0,P|267:195|190:185,1,120,2|8,1:2|0:0,0:0:0:0:
51,233,146982,2,0,L|63:102,1,120,2|8,1:2|0:0,0:0:0:0:
216,46,147840,2,0,P|301:35|357:56,1,120,2|8,1:2|0:0,0:0:0:0:
442,172,148697,2,0,L|427:291,1,120,2|8,1:2|0:0,0:0:0:0:
270,351,149554,6,0,P|215:366|130:340,1,120,2|8,1:2|0:0,0:0:0:0:
46,225,150411,2,0,L|35:105,1,120,2|8,1:2|0:0,0:0:0:0:
131,163,151125,2,0,L|126:225,1,40,0|2,0:0|1:2,0:0:0:0:
183,300,151554,2,0,L|189:248,1,40,0|8,0:0|0:0,0:0:0:0:
259,174,151982,2,0,L|264:236,1,40,8|2,0:0|1:2,0:0:0:0:
340,294,152411,2,0,L|334:242,1,40,0|8,0:0|0:0,0:0:0:0:
314,87,152982,6,0,P|258:66|201:81,1,120,2|8,1:2|0:0,0:0:0:0:
67,183,153840,2,0,L|46:332,1,120,2|8,1:2|0:0,0:0:0:0:
209,355,154697,2,0,B|238:369|238:369|342:361,1,120,2|8,1:2|0:0,0:0:0:0:
469,275,155554,2,0,P|481:207|465:153,1,120,2|8,1:2|0:0,0:0:0:0:
348,39,156411,6,0,L|210:35,1,120,2|8,1:2|0:0,0:0:0:0:
170,131,157125,1,0,0:0:0:0:
170,131,157268,2,0,P|83:149|29:120,1,120,2|8,1:2|0:0,0:0:0:0:
14,243,157982,2,0,L|6:305,1,40,0|2,0:0|1:2,0:0:0:0:
115,317,158411,2,0,L|118:378,1,40,0|8,0:0|0:0,0:0:0:0:
221,315,158840,2,0,P|267:305|297:311,1,40,0|2,0:0|1:2,0:0:0:0:
370,291,159268,2,0,P|391:223|382:143,1,120,0|8,0:0|0:0,0:0:0:0:
362,125,159840,5,6,1:2:0:0:
256,192,160125,12,0,163697,0:0:0:0:
