osu file format v14

[General]
AudioFilename: audio.mp3
AudioLeadIn: 0
PreviewTime: 82804
Countdown: 1
SampleSet: Soft
StackLeniency: 0.7
Mode: 0
LetterboxInBreaks: 0
WidescreenStoryboard: 0

[Editor]
Bookmarks: 24733,38447,55590,83019,86447,94161,113876,117304,131019,148161,175590,206447
DistanceSpacing: 1
BeatDivisor: 4
GridSize: 8
TimelineZoom: 2

[Metadata]
Title:Ievan Polkka Trance Remix
TitleUnicode:Ievan Polkka Trance Remix
Artist:Basshunter
ArtistUnicode:Basshunter
Creator:Sakurauchi Riko
Version:Original
Source:
Tags:phyloukz
BeatmapID:2090259
BeatmapSetID:999431

[Difficulty]
HPDrainRate:5
CircleSize:5
OverallDifficulty:9
ApproachRate:9.5
SliderMultiplier:2.4
SliderTickRate:1

[Events]
//Background and Video events
0,0,"huebsch.png",0,0
//Break Periods
2,24717,82494
//Storyboard Layer 0 (Background)
//Storyboard Layer 1 (Fail)
//Storyboard Layer 2 (Pass)
//Storyboard Layer 3 (Foreground)
//Storyboard Layer 4 (Overlay)
//Storyboard Sound Samples

[TimingPoints]
9304,428.571428571429,4,2,0,80,1,0
11018,-125,4,2,0,80,0,0
86447,-100,4,2,0,80,0,0
115590,-333.333333333333,4,2,0,80,0,0
117304,-125,4,2,0,80,0,0
134447,-166.666666666667,4,2,0,80,0,0
143019,-125,4,2,0,80,0,0
144090,-166.666666666667,4,2,0,80,0,0
146019,-125,4,2,0,80,0,0
146447,-66.6666666666667,4,2,0,80,0,0
146876,-166.666666666667,4,2,0,80,0,0
148161,-125,4,2,0,80,0,0
177733,-1000,4,2,0,80,0,0
178590,-66.6666666666667,4,2,0,80,0,0
179019,-100,4,2,0,80,0,0
206233,-100,4,2,0,80,0,0
208161,-200,4,2,0,80,0,0

[Colours]
Combo1 : 85,119,183
Combo2 : 165,166,218
Combo3 : 215,233,251

[HitObjects]
119,228,10590,6,0,P|89:216|53:222,1,60
83,284,10804,2,0,P|112:295|148:289,1,60
236,143,11018,6,0,L|205:49,3,96
122,41,11876,1,0,0:0:0:0:
503,87,12304,1,0,0:0:0:0:
298,223,12732,6,0,L|267:314,3,96
386,212,13589,2,0,L|416:120,1,96
503,87,14018,1,0,0:0:0:0:
197,240,14447,2,0,L|77:196,3,96
97,123,15304,2,0,L|-23:79,1,96
121,309,15732,2,0,L|241:353,1,96
451,169,16161,6,0,B|445:217|445:217|410:278,1,96
388,92,16589,2,0,B|432:72|432:72|503:72,1,96
355,184,17018,2,0,B|315:155|315:155|280:93,2,96
388,92,17661,1,0,0:0:0:0:
248,216,17875,6,0,P|197:216|143:263,1,96
221,301,18304,1,0,0:0:0:0:
21,66,18732,2,0,P|72:66|126:113,1,96
48,151,19161,1,0,0:0:0:0:
403,88,19589,6,0,L|307:88,1,96
109,88,20018,2,0,L|205:88,1,96
109,296,20446,2,0,L|205:296,1,96
403,296,20875,2,0,L|307:296,1,96
307,88,21304,5,0,0:0:0:0:
354,144,21518,1,0,0:0:0:0:
256,244,21732,2,0,L|289:143,1,96
141,199,22161,1,0,0:0:0:0:
188,255,22375,1,0,0:0:0:0:
90,355,22589,2,0,L|123:254,1,96
173,91,23018,5,0,0:0:0:0:
242,77,23232,1,0,0:0:0:0:
413,38,23446,1,0,0:0:0:0:
345,51,23661,1,0,0:0:0:0:
305,112,23875,1,0,0:0:0:0:
326,177,24089,2,0,L|355:270,2,96
104,192,83019,5,0,0:0:0:0:
128,232,83126,1,0,0:0:0:0:
152,192,83233,1,0,0:0:0:0:
176,232,83340,1,0,0:0:0:0:
200,192,83447,5,0,0:0:0:0:
152,104,83661,1,0,0:0:0:0:
56,104,83876,1,0,0:0:0:0:
256,280,84090,1,0,0:0:0:0:
352,280,84304,1,0,0:0:0:0:
440,280,84519,1,0,0:0:0:0:
352,65,84733,5,0,0:0:0:0:
306,78,84840,1,0,0:0:0:0:
283,120,84947,1,0,0:0:0:0:
287,167,85054,1,0,0:0:0:0:
321,199,85161,5,0,0:0:0:0:
338,195,85269,1,0,0:0:0:0:
470,154,85482,2,0,L|499:162,2,24
440,280,85804,1,0,0:0:0:0:
117,342,86019,1,0,0:0:0:0:
173,139,86233,1,0,0:0:0:0:
180,115,86340,1,0,0:0:0:0:
188,90,86447,5,0,0:0:0:0:
255,140,86554,1,0,0:0:0:0:
244,227,86661,1,0,0:0:0:0:
178,279,86769,1,0,0:0:0:0:
95,257,86876,1,0,0:0:0:0:
341,113,87090,1,0,0:0:0:0:
405,166,87197,1,0,0:0:0:0:
483,135,87304,2,0,L|495:66,1,60
390,248,87519,5,0,0:0:0:0:
447,308,87626,2,0,L|435:382,1,60
384,384,87840,1,0,0:0:0:0:
331,372,87947,1,0,0:0:0:0:
307,323,88054,1,0,0:0:0:0:
324,272,88161,5,0,0:0:0:0:
290,194,88269,1,0,0:0:0:0:
206,198,88376,1,0,0:0:0:0:
170,273,88483,1,0,0:0:0:0:
223,337,88590,1,0,0:0:0:0:
187,67,88804,1,0,0:0:0:0:
123,12,88911,1,0,0:0:0:0:
45,45,89019,2,0,L|31:125,1,60
0,325,89233,5,0,0:0:0:0:
75,290,89340,2,0,L|86:225,1,60
46,193,89554,1,0,0:0:0:0:
82,152,89661,1,0,0:0:0:0:
133,144,89769,1,0,0:0:0:0:
181,165,89876,5,0,0:0:0:0:
241,222,89983,1,0,0:0:0:0:
324,228,90090,1,0,0:0:0:0:
403,201,90197,1,0,0:0:0:0:
447,129,90304,1,0,0:0:0:0:
355,368,90519,1,0,0:0:0:0:
270,356,90626,1,0,0:0:0:0:
231,281,90733,2,0,L|240:221,1,60
276,0,90947,5,0,0:0:0:0:
317,69,91054,2,0,L|302:160,1,60
339,171,91269,1,0,0:0:0:0:
308,219,91376,1,0,0:0:0:0:
240,221,91483,1,0,0:0:0:0:
196,167,91590,6,0,P|166:149|122:146,1,60
0,283,91804,2,0,P|0:250|21:206,1,60
262,91,92019,6,0,P|292:73|336:70,1,60
450,192,92233,2,0,P|450:159|429:115,1,60
226,18,92447,1,0,0:0:0:0:
383,315,92661,1,0,0:0:0:0:
348,356,92769,2,0,L|277:347,1,60
250,384,92983,1,0,0:0:0:0:
211,346,93090,1,0,0:0:0:0:
212,292,93197,1,0,0:0:0:0:
321,206,93304,5,0,0:0:0:0:
286,129,93411,1,0,0:0:0:0:
214,83,93519,1,0,0:0:0:0:
130,75,93626,1,0,0:0:0:0:
59,120,93733,2,0,L|48:196,1,60
374,0,93947,2,0,L|364:79,1,60
459,259,94161,2,0,L|450:341,1,60
264,289,94376,5,0,0:0:0:0:
223,255,94483,2,0,L|231:188,1,60
189,161,94697,1,0,0:0:0:0:
229,121,94804,1,0,0:0:0:0:
286,129,94911,1,0,0:0:0:0:
374,0,95019,5,0,0:0:0:0:
453,32,95126,1,0,0:0:0:0:
501,104,95233,1,0,0:0:0:0:
507,187,95340,1,0,0:0:0:0:
459,259,95447,2,0,L|372:250,1,60
59,345,95661,2,0,L|-28:336,1,60
154,84,95876,2,0,L|67:75,1,60
147,246,96090,5,0,0:0:0:0:
170,294,96197,2,0,L|229:300,1,60
252,349,96411,1,0,0:0:0:0:
313,346,96519,1,0,0:0:0:0:
348,286,96626,1,0,0:0:0:0:
311,223,96733,6,0,P|277:216|246:228,1,60
70,382,96947,2,0,P|78:355|107:327,1,60
15,43,97161,2,0,P|45:47|75:65,1,60
147,246,97376,2,0,P|153:214|137:173,1,60
315,34,97590,5,0,0:0:0:0:
379,14,97697,1,0,0:0:0:0:
433,29,97804,1,0,0:0:0:0:
466,71,97911,2,0,L|456:139,1,60
491,172,98126,1,0,0:0:0:0:
450,207,98233,1,0,0:0:0:0:
396,202,98340,1,0,0:0:0:0:
288,256,98447,5,0,0:0:0:0:
231,193,98554,1,0,0:0:0:0:
146,187,98661,1,0,0:0:0:0:
76,234,98769,1,0,0:0:0:0:
61,316,98876,2,0,L|71:403,1,60
9,121,99090,2,0,L|-1:41,1,60
146,187,99304,6,0,L|135:109,1,60
318,0,99519,1,0,0:0:0:0:
288,40,99626,2,0,L|223:35,1,60
192,75,99840,1,0,0:0:0:0:
209,126,99947,1,0,0:0:0:0:
256,150,100054,1,0,0:0:0:0:
309,141,100161,5,0,0:0:0:0:
392,154,100269,1,0,0:0:0:0:
443,220,100376,1,0,0:0:0:0:
456,302,100483,1,0,0:0:0:0:
411,372,100590,1,0,0:0:0:0:
17,325,100804,1,0,0:0:0:0:
84,276,100911,1,0,0:0:0:0:
168,286,101019,2,0,L|237:294,1,60
246,50,101233,5,0,0:0:0:0:
163,64,101340,2,0,L|91:75,1,60
59,42,101554,1,0,0:0:0:0:
28,90,101661,1,0,0:0:0:0:
51,142,101769,1,0,0:0:0:0:
102,164,101876,5,0,0:0:0:0:
186,149,101983,1,0,0:0:0:0:
242,210,102090,1,0,0:0:0:0:
227,292,102197,1,0,0:0:0:0:
148,320,102304,1,0,0:0:0:0:
451,24,102519,1,0,0:0:0:0:
401,88,102626,1,0,0:0:0:0:
318,77,102733,2,0,L|241:68,1,60
303,264,102947,5,0,0:0:0:0:
386,275,103054,2,0,L|465:284,1,60
487,310,103269,1,0,0:0:0:0:
512,265,103376,1,0,0:0:0:0:
512,209,103483,1,0,0:0:0:0:
479,169,103590,5,0,0:0:0:0:
399,199,103697,1,0,0:0:0:0:
327,156,103804,1,0,0:0:0:0:
318,77,103911,1,0,0:0:0:0:
369,13,104018,1,0,0:0:0:0:
17,279,104233,1,0,0:0:0:0:
46,357,104340,1,0,0:0:0:0:
128,370,104447,2,0,L|192:379,1,60
127,195,104661,5,0,0:0:0:0:
100,117,104769,2,0,L|119:47,1,60
88,12,104983,1,0,0:0:0:0:
147,0,105090,1,0,0:0:0:0:
202,39,105197,1,0,0:0:0:0:
216,110,105304,6,0,P|247:121|291:117,1,60
493,0,105519,2,0,P|477:33|438:56,1,60
321,230,105733,2,0,P|350:245|378:283,1,60
127,195,105947,2,0,P|94:198|51:222,1,60
258,43,106161,1,0,0:0:0:0:
220,235,106376,5,0,0:0:0:0:
212,288,106483,2,0,L|225:353,1,60
185,382,106697,1,0,0:0:0:0:
131,380,106804,1,0,0:0:0:0:
103,333,106911,1,0,0:0:0:0:
1,212,107019,5,0,0:0:0:0:
75,250,107126,1,0,0:0:0:0:
155,225,107233,1,0,0:0:0:0:
186,147,107340,1,0,0:0:0:0:
158,67,107447,2,0,L|93:59,1,60
364,291,107661,2,0,L|304:283,1,60
509,152,107876,2,0,L|449:144,1,60
259,215,108090,5,0,0:0:0:0:
223,252,108197,2,0,L|234:310,1,60
212,359,108411,1,0,0:0:0:0:
261,382,108519,1,0,0:0:0:0:
312,364,108626,1,0,0:0:0:0:
437,332,108733,5,0,0:0:0:0:
454,250,108840,1,0,0:0:0:0:
423,171,108947,1,0,0:0:0:0:
349,130,109054,1,0,0:0:0:0:
265,137,109161,2,0,L|181:148,1,60
110,338,109376,2,0,L|26:349,1,60
454,250,109590,2,0,L|370:261,1,60
161,210,109804,5,0,0:0:0:0:
127,169,109911,2,0,L|135:105,1,60
102,65,110126,1,0,0:0:0:0:
141,19,110233,1,0,0:0:0:0:
209,17,110340,1,0,0:0:0:0:
258,71,110447,6,0,P|284:105|314:118,1,60
500,7,110661,2,0,P|495:44|472:74,1,60
468,273,110876,2,0,P|426:245|411:216,1,60
400,78,111090,2,0,P|387:102|385:146,1,60
192,245,111304,5,0,0:0:0:0:
119,261,111411,1,0,0:0:0:0:
60,230,111519,1,0,0:0:0:0:
42,175,111626,2,0,L|51:96,1,60
15,73,111840,1,0,0:0:0:0:
45,28,111947,1,0,0:0:0:0:
98,24,112054,1,0,0:0:0:0:
265,0,112161,5,0,0:0:0:0:
290,80,112269,1,0,0:0:0:0:
360,125,112376,1,0,0:0:0:0:
440,149,112483,1,0,0:0:0:0:
483,220,112590,2,0,L|501:291,1,60
227,384,112804,1,0,0:0:0:0:
248,302,112911,1,0,0:0:0:0:
268,223,113019,2,0,L|282:164,1,60
169,112,113233,5,0,0:0:0:0:
143,72,113340,2,0,L|54:86,1,60
51,42,113554,1,0,0:0:0:0:
20,73,113661,1,0,0:0:0:0:
21,117,113769,1,0,0:0:0:0:
39,139,113876,5,0,0:0:0:0:
113,175,114090,1,0,0:0:0:0:
135,256,114304,1,0,0:0:0:0:
82,321,114519,1,0,0:0:0:0:
0,313,114733,5,0,0:0:0:0:
194,197,114947,1,0,0:0:0:0:
241,360,115161,5,0,0:0:0:0:
113,175,115376,1,0,0:0:0:0:
322,39,115590,6,0,L|470:61,1,143.999995605469
220,278,117304,5,0,0:0:0:0:
353,326,117519,2,0,L|339:393,2,48
304,64,117947,2,0,L|290:131,2,48
93,122,118376,2,0,L|37:133,2,48
359,185,118804,2,0,L|415:174,1,48
486,162,119019,5,0,0:0:0:0:
385,362,119233,2,0,L|401:290,2,48
272,140,119661,2,0,L|256:68,2,48
88,291,120090,2,0,L|148:301,2,48
247,19,120519,2,0,L|307:29,1,48
402,44,120733,5,0,0:0:0:0:
187,69,120947,2,0,P|172:45|168:18,2,48
318,279,121376,2,0,P|333:255|337:228,2,48
0,193,121804,2,0,P|28:182|69:187,2,48
318,279,122233,2,0,P|346:290|387:285,1,48
445,251,122447,5,0,0:0:0:0:
258,339,122661,2,0,P|239:312|236:271,2,48
107,130,123090,2,0,P|115:103|137:74,2,48
399,161,123519,2,0,P|427:171|458:169,2,48
163,273,123947,2,0,P|135:283|104:281,1,48
20,238,124161,5,0,0:0:0:0:
274,162,124376,1,0,0:0:0:0:
280,209,124483,1,0,0:0:0:0:
259,252,124590,1,0,0:0:0:0:
420,5,124804,1,0,0:0:0:0:
428,52,124911,1,0,0:0:0:0:
460,87,125018,1,0,0:0:0:0:
105,139,125233,2,0,L|45:132,2,48
372,271,125661,2,0,L|419:276,1,48
512,291,125876,5,0,0:0:0:0:
198,247,126090,1,0,0:0:0:0:
153,264,126197,1,0,0:0:0:0:
133,307,126304,1,0,0:0:0:0:
294,75,126519,1,0,0:0:0:0:
339,92,126626,1,0,0:0:0:0:
359,135,126733,1,0,0:0:0:0:
104,123,126947,2,0,L|40:137,2,48
372,271,127376,2,0,L|418:260,1,48
512,243,127590,5,0,0:0:0:0:
213,104,127804,1,0,0:0:0:0:
201,57,127911,1,0,0:0:0:0:
226,16,128019,1,0,0:0:0:0:
274,242,128233,1,0,0:0:0:0:
299,283,128341,1,0,0:0:0:0:
287,330,128448,1,0,0:0:0:0:
423,145,128661,2,0,L|411:213,2,48
93,145,129090,2,0,L|105:213,1,48
121,287,129304,5,0,0:0:0:0:
280,76,129519,1,0,0:0:0:0:
255,34,129626,1,0,0:0:0:0:
231,76,129733,1,0,0:0:0:0:
256,324,129947,1,0,0:0:0:0:
256,147,130161,2,0,L|256:248,1,96
121,287,130590,1,0,0:0:0:0:
391,287,130804,1,0,0:0:0:0:
255,34,131019,5,0,0:0:0:0:
256,192,131126,12,0,131876,0:0:0:0:
256,192,131983,12,0,132733,0:0:0:0:
200,192,132947,5,0,0:0:0:0:
312,192,133161,1,2,0:0:0:0:
344,128,133590,5,0,0:0:0:0:
167,127,133804,1,0,0:0:0:0:
147,121,133911,1,0,0:0:0:0:
123,138,134019,1,0,0:0:0:0:
117,175,134126,1,0,0:0:0:0:
152,199,134233,1,0,0:0:0:0:
196,192,134340,1,0,0:0:0:0:
243,216,134447,6,0,P|258:249|254:288,1,71.9999978027344
167,127,134876,2,0,P|164:91|179:59,1,71.9999978027344
273,60,135197,2,0,P|290:75|321:81,1,35.9999989013672
337,84,135411,1,0,0:0:0:0:
372,77,135519,1,0,0:0:0:0:
401,56,135626,1,0,0:0:0:0:
414,22,135733,2,0,P|416:57|401:89,1,71.9999978027344
409,124,136054,1,0,0:0:0:0:
438,144,136161,5,0,0:0:0:0:
313,259,136376,1,0,0:0:0:0:
389,245,136590,5,0,0:0:0:0:
227,180,136804,1,0,0:0:0:0:
37,306,137019,5,0,0:0:0:0:
147,192,137233,1,0,0:0:0:0:
215,384,137447,2,0,L|203:299,1,71.9999978027344
200,286,137769,1,0,0:0:0:0:
196,255,137876,5,0,0:0:0:0:
170,73,138090,1,0,0:0:0:0:
342,139,138304,2,0,L|443:124,1,71.9999978027344
449,123,138626,1,0,0:0:0:0:
436,156,138733,1,0,0:0:0:0:
330,58,138947,1,0,0:0:0:0:
352,30,139054,1,0,0:0:0:0:
367,62,139161,1,0,0:0:0:0:
232,160,139376,1,0,0:0:0:0:
223,195,139483,1,0,0:0:0:0:
158,214,139590,5,0,0:0:0:0:
172,254,139697,1,0,0:0:0:0:
189,293,139804,1,0,0:0:0:0:
202,333,139911,1,0,0:0:0:0:
217,373,140018,5,0,0:0:0:0:
94,288,140233,1,0,0:0:0:0:
281,339,140447,5,0,0:0:0:0:
223,195,140661,1,0,0:0:0:0:
435,269,140876,5,0,0:0:0:0:
326,240,141090,1,0,0:0:0:0:
351,214,141197,1,0,0:0:0:0:
359,248,141304,5,0,0:0:0:0:
304,98,141519,2,0,L|309:61,1,35.9999989013672
314,26,141733,1,0,0:0:0:0:
52,99,141947,2,0,L|110:84,1,35.9999989013672
121,82,142161,1,0,0:0:0:0:
214,251,142376,2,0,L|171:244,2,35.9999989013672
417,286,142804,2,0,L|456:294,2,23.9999992675781
423,313,143019,6,0,P|436:277|434:240,1,64
414,209,143233,2,0,P|415:177|427:147,1,64
389,85,143447,2,0,P|353:88|313:111,1,64
284,118,143661,2,0,P|248:115|208:92,1,64
269,37,143876,5,0,0:0:0:0:
216,231,144090,2,0,L|158:242,1,35.9999989013672
145,244,144304,1,0,0:0:0:0:
85,151,144519,1,0,0:0:0:0:
284,280,144733,5,0,0:0:0:0:
284,280,144804,2,0,L|275:336,1,47.9999985351563
375,229,145161,2,0,L|387:148,1,71.9999978027344
431,282,145590,2,0,L|419:363,1,71.9999978027344
403,85,146019,2,0,P|369:84|327:107,1,64
267,95,146233,2,0,P|302:97|344:125,1,64
281,170,146447,6,0,L|291:227,7,45.0000017166138
258,189,146876,2,0,L|253:214,8,17.9999994506836
78,222,147519,1,0,0:0:0:0:
385,157,147733,1,0,0:0:0:0:
18,287,148161,6,0,P|60:309|108:306,2,96
193,202,148804,1,0,0:0:0:0:
200,209,148911,1,0,0:0:0:0:
205,217,149019,1,0,0:0:0:0:
201,282,149126,1,0,0:0:0:0:
239,338,149233,1,0,0:0:0:0:
441,279,149447,1,0,0:0:0:0:
290,99,149661,1,0,0:0:0:0:
341,141,149769,1,0,0:0:0:0:
408,138,149876,6,0,L|469:116,1,48
494,9,150090,2,0,L|433:31,1,48
376,201,150304,1,0,0:0:0:0:
142,12,150519,2,0,L|151:68,1,48
290,99,150733,1,0,0:0:0:0:
228,185,150947,2,0,L|221:128,1,48
83,94,151161,1,0,0:0:0:0:
176,313,151376,1,0,0:0:0:0:
213,283,151483,1,0,0:0:0:0:
168,265,151590,6,0,P|121:261|64:298,2,96
342,216,152233,1,0,0:0:0:0:
351,220,152340,1,0,0:0:0:0:
415,203,152447,1,0,0:0:0:0:
389,17,152661,1,0,0:0:0:0:
346,71,152769,1,0,0:0:0:0:
362,136,152876,1,0,0:0:0:0:
191,248,153090,5,0,0:0:0:0:
127,231,153197,1,0,0:0:0:0:
103,167,153304,2,0,L|115:100,1,48
240,110,153519,2,0,L|252:43,1,48
351,220,153733,2,0,L|360:267,1,48
435,318,153947,6,0,L|448:381,1,48
234,292,154161,1,0,0:0:0:0:
327,384,154376,2,0,L|317:336,1,48
477,247,154590,1,0,0:0:0:0:
318,58,154804,1,0,0:0:0:0:
271,108,154911,1,0,0:0:0:0:
278,173,155019,5,0,0:0:0:0:
119,287,155233,2,0,L|55:274,1,48
23,123,155447,1,0,0:0:0:0:
44,197,155661,2,0,L|126:213,1,48
143,364,155876,1,0,0:0:0:0:
278,173,156090,1,0,0:0:0:0:
344,166,156197,1,0,0:0:0:0:
391,213,156304,1,0,0:0:0:0:
251,44,156519,1,0,0:0:0:0:
186,54,156626,1,0,0:0:0:0:
136,10,156733,6,0,P|124:29|119:64,3,48
151,117,157161,2,0,L|161:164,1,48
131,232,157376,2,0,L|141:279,1,48
196,364,157590,1,0,0:0:0:0:
357,240,157804,1,0,0:0:0:0:
325,200,157911,1,0,0:0:0:0:
306,248,158019,2,0,L|425:268,1,96
447,274,158340,1,0,0:0:0:0:
416,311,158447,5,0,0:0:0:0:
227,194,158661,1,0,0:0:0:0:
85,334,158876,1,0,0:0:0:0:
137,218,159090,1,0,0:0:0:0:
306,248,159304,1,0,0:0:0:0:
227,194,159519,2,0,L|239:140,1,48
292,95,159733,2,0,L|281:42,3,48
246,15,160161,5,0,0:0:0:0:
197,14,160269,1,0,0:0:0:0:
160,44,160376,1,0,0:0:0:0:
112,51,160483,1,0,0:0:0:0:
70,27,160590,1,0,0:0:0:0:
292,95,160804,2,0,L|354:106,1,48
441,57,161019,1,0,0:0:0:0:
512,136,161233,2,0,L|450:125,1,48
358,177,161447,1,0,0:0:0:0:
246,15,161661,1,0,0:0:0:0:
124,230,161876,6,0,P|77:250|17:237,2,96
207,94,162519,1,0,0:0:0:0:
216,91,162626,1,0,0:0:0:0:
226,91,162733,1,0,0:0:0:0:
283,125,162840,1,0,0:0:0:0:
349,119,162947,1,0,0:0:0:0:
478,0,163161,1,0,0:0:0:0:
323,183,163375,1,0,0:0:0:0:
347,245,163483,1,0,0:0:0:0:
408,274,163590,6,0,L|473:262,1,48
313,355,163804,2,0,L|248:367,1,48
105,281,164018,1,0,0:0:0:0:
185,52,164233,2,0,L|175:112,1,48
323,183,164447,1,0,0:0:0:0:
212,210,164661,2,0,L|221:157,1,48
71,79,164875,1,0,0:0:0:0:
360,0,165090,1,0,0:0:0:0:
350,46,165197,1,0,0:0:0:0:
396,30,165304,6,0,P|443:26|500:63,2,96
386,188,165947,1,0,0:0:0:0:
395,186,166054,1,0,0:0:0:0:
424,128,166161,1,0,0:0:0:0:
279,223,166375,1,0,0:0:0:0:
288,289,166483,1,0,0:0:0:0:
340,336,166590,1,0,0:0:0:0:
123,145,166804,5,0,0:0:0:0:
58,160,166911,1,0,0:0:0:0:
27,221,167018,2,0,L|18:268,1,48
140,320,167233,2,0,L|131:367,1,48
123,145,167447,6,0,L|130:97,1,48
209,6,167661,2,0,L|202:54,1,48
329,83,167875,1,0,0:0:0:0:
251,164,168090,2,0,L|259:117,1,48
130,97,168304,1,0,0:0:0:0:
255,299,168518,1,0,0:0:0:0:
313,331,168625,1,0,0:0:0:0:
376,313,168733,5,0,0:0:0:0:
448,118,168947,2,0,L|373:131,1,48
322,252,169161,1,0,0:0:0:0:
439,195,169376,2,0,L|514:182,1,48
343,34,169590,1,0,0:0:0:0:
172,198,169804,1,0,0:0:0:0:
115,233,169912,1,0,0:0:0:0:
53,216,170019,1,0,0:0:0:0:
113,38,170233,1,0,0:0:0:0:
133,99,170340,1,0,0:0:0:0:
104,157,170447,6,0,P|84:143|71:115,3,48
133,99,170875,2,0,L|184:108,1,48
221,53,171090,2,0,L|272:62,1,48
367,109,171304,1,0,0:0:0:0:
368,328,171518,1,0,0:0:0:0:
321,316,171625,1,0,0:0:0:0:
357,283,171733,2,0,L|472:311,1,96
496,320,172054,1,0,0:0:0:0:
477,275,172161,5,0,0:0:0:0:
290,220,172375,1,0,0:0:0:0:
138,362,172590,1,0,0:0:0:0:
213,244,172804,1,0,0:0:0:0:
397,252,173018,1,0,0:0:0:0:
290,220,173233,2,0,L|302:166,1,48
252,121,173447,2,0,L|241:68,3,48
258,29,173875,5,0,0:0:0:0:
302,10,173983,1,0,0:0:0:0:
348,22,174090,1,0,0:0:0:0:
371,64,174197,1,0,0:0:0:0:
354,109,174304,1,0,0:0:0:0:
65,30,174519,1,0,0:0:0:0:
158,53,174733,2,0,L|136:166,1,96
251,284,175161,1,0,0:0:0:0:
229,203,175375,1,0,0:0:0:0:
94,353,175590,5,0,0:0:0:0:
418,353,176019,5,0,0:0:0:0:
255,47,176447,5,0,0:0:0:0:
257,140,176661,1,0,0:0:0:0:
256,237,176876,1,0,0:0:0:0:
255,327,177090,1,0,0:0:0:0:
255,47,177304,5,0,0:0:0:0:
473,169,177733,6,0,L|473:217,1,48
115,108,179018,5,0,0:0:0:0:
191,138,179125,1,0,0:0:0:0:
256,88,179232,1,0,0:0:0:0:
316,31,179340,1,0,0:0:0:0:
392,61,179447,1,0,0:0:0:0:
373,351,179661,1,0,0:0:0:0:
312,296,179769,1,0,0:0:0:0:
339,218,179875,2,0,L|429:198,1,60
203,322,180090,5,0,0:0:0:0:
146,262,180197,2,0,L|56:282,1,60
42,241,180411,1,0,0:0:0:0:
38,184,180518,1,0,0:0:0:0:
67,137,180625,1,0,0:0:0:0:
123,126,180732,5,0,0:0:0:0:
190,175,180840,1,0,0:0:0:0:
268,149,180947,1,0,0:0:0:0:
284,68,181054,1,0,0:0:0:0:
221,14,181161,1,0,0:0:0:0:
313,296,181375,1,0,0:0:0:0:
331,213,181482,1,0,0:0:0:0:
411,191,181590,2,0,L|486:174,1,60
249,233,181804,5,0,0:0:0:0:
227,313,181911,2,0,L|213:374,1,60
160,381,182125,1,0,0:0:0:0:
121,342,182232,1,0,0:0:0:0:
122,287,182340,1,0,0:0:0:0:
165,253,182447,5,0,0:0:0:0:
185,171,182554,1,0,0:0:0:0:
157,91,182661,1,0,0:0:0:0:
92,37,182768,1,0,0:0:0:0:
8,39,182875,1,0,0:0:0:0:
294,132,183090,1,0,0:0:0:0:
372,161,183197,1,0,0:0:0:0:
457,138,183304,2,0,L|474:59,1,60
402,239,183518,5,0,0:0:0:0:
383,320,183625,2,0,L|324:333,1,60
299,381,183840,1,0,0:0:0:0:
240,372,183947,1,0,0:0:0:0:
195,313,184054,1,0,0:0:0:0:
204,236,184161,6,0,P|225:207|256:195,1,60
487,306,184375,2,0,P|489:342|471:378,1,60
317,161,184590,2,0,P|296:132|265:120,1,60
54,227,184804,2,0,P|52:263|70:299,1,60
166,15,185018,1,0,0:0:0:0:
448,184,185232,5,0,0:0:0:0:
419,230,185340,2,0,L|333:243,1,60
330,284,185554,1,0,0:0:0:0:
371,318,185661,1,0,0:0:0:0:
424,317,185768,1,0,0:0:0:0:
271,355,185875,5,0,0:0:0:0:
217,284,185982,1,0,0:0:0:0:
218,192,186090,1,0,0:0:0:0:
274,121,186197,1,0,0:0:0:0:
359,100,186304,2,0,L|418:108,1,60
166,15,186518,2,0,L|225:23,1,60
25,97,186732,2,0,L|84:105,1,60
217,284,186947,5,0,0:0:0:0:
180,324,187054,2,0,L|107:312,1,60
84,354,187268,1,0,0:0:0:0:
36,328,187375,1,0,0:0:0:0:
26,274,187482,1,0,0:0:0:0:
111,175,187590,5,0,0:0:0:0:
196,201,187697,1,0,0:0:0:0:
285,191,187804,1,0,0:0:0:0:
360,142,187911,1,0,0:0:0:0:
395,59,188018,2,0,L|386:0,1,60
496,255,188232,2,0,L|487:195,1,60
398,382,188447,2,0,L|389:322,1,60
196,201,188661,5,0,0:0:0:0:
153,233,188768,2,0,L|161:292,1,60
118,324,188982,1,0,0:0:0:0:
144,378,189090,1,0,0:0:0:0:
215,384,189197,1,0,0:0:0:0:
250,317,189304,6,0,P|277:301|319:300,1,60
505,384,189518,2,0,P|487:361|447:341,1,60
337,16,189732,2,0,P|324:44|332:90,1,60
421,267,189947,2,0,P|397:253|373:220,1,60
205,55,190161,5,0,0:0:0:0:
139,23,190268,1,0,0:0:0:0:
75,41,190375,1,0,0:0:0:0:
47,87,190482,2,0,L|53:146,1,60
102,169,190697,1,0,0:0:0:0:
123,218,190804,1,0,0:0:0:0:
97,265,190911,1,0,0:0:0:0:
1,337,191018,5,0,0:0:0:0:
91,383,191125,1,0,0:0:0:0:
192,378,191232,1,0,0:0:0:0:
279,323,191340,1,0,0:0:0:0:
331,235,191447,5,0,0:0:0:0:
329,217,191554,1,0,0:0:0:0:
389,294,191661,5,0,0:0:0:0:
392,311,191768,1,0,0:0:0:0:
445,203,191875,6,0,L|438:125,1,60
487,118,192090,1,0,0:0:0:0:
498,65,192197,2,0,L|543:57,1,30
459,27,192304,1,0,0:0:0:0:
405,34,192411,1,0,0:0:0:0:
383,83,192518,1,0,0:0:0:0:
331,97,192625,1,0,0:0:0:0:
284,69,192732,5,0,0:0:0:0:
233,1,192840,1,0,0:0:0:0:
149,10,192947,1,0,0:0:0:0:
124,90,193054,1,0,0:0:0:0:
182,149,193161,1,0,0:0:0:0:
307,375,193375,1,0,0:0:0:0:
332,296,193482,1,0,0:0:0:0:
274,237,193590,2,0,L|198:231,1,60
5,216,193804,5,0,0:0:0:0:
62,275,193911,2,0,L|138:281,1,60
162,322,194125,1,0,0:0:0:0:
208,289,194232,1,0,0:0:0:0:
214,232,194340,1,0,0:0:0:0:
176,191,194447,5,0,0:0:0:0:
239,138,194554,1,0,0:0:0:0:
323,136,194661,1,0,0:0:0:0:
393,180,194768,1,0,0:0:0:0:
415,260,194875,1,0,0:0:0:0:
202,17,195090,1,0,0:0:0:0:
117,0,195197,1,0,0:0:0:0:
50,49,195304,2,0,L|43:119,1,60
22,294,195518,5,0,0:0:0:0:
83,237,195625,2,0,L|92:151,1,60
127,138,195840,1,0,0:0:0:0:
176,160,195947,1,0,0:0:0:0:
195,210,196054,1,0,0:0:0:0:
180,260,196161,5,0,0:0:0:0:
202,340,196268,1,0,0:0:0:0:
272,384,196375,1,0,0:0:0:0:
356,382,196482,1,0,0:0:0:0:
420,329,196589,1,0,0:0:0:0:
434,17,196804,1,0,0:0:0:0:
381,83,196911,1,0,0:0:0:0:
297,76,197018,2,0,L|210:67,1,60
409,160,197232,5,0,0:0:0:0:
435,236,197340,2,0,L|521:245,1,60
512,287,197554,1,0,0:0:0:0:
479,329,197661,1,0,0:0:0:0:
420,329,197768,1,0,0:0:0:0:
366,278,197875,6,0,P|355:254|357:217,1,60
470,51,198090,2,0,P|440:57|415:73,1,60
103,160,198304,2,0,P|132:143|180:143,1,60
409,160,198518,2,0,P|380:143|332:143,1,60
40,51,198732,1,0,0:0:0:0:
255,259,198947,5,0,0:0:0:0:
238,310,199054,2,0,L|146:319,1,60
159,366,199268,1,0,0:0:0:0:
106,353,199375,1,0,0:0:0:0:
82,304,199482,1,0,0:0:0:0:
0,208,199590,5,0,0:0:0:0:
33,131,199697,1,0,0:0:0:0:
110,93,199804,1,0,0:0:0:0:
193,95,199911,1,0,0:0:0:0:
262,147,200018,2,0,L|269:222,1,60
507,0,200232,2,0,L|514:75,1,60
474,284,200447,2,0,L|481:359,1,60
364,105,200661,5,0,0:0:0:0:
415,88,200768,2,0,L|407:5,1,60
360,6,200982,1,0,0:0:0:0:
307,18,201090,1,0,0:0:0:0:
274,65,201197,1,0,0:0:0:0:
153,129,201304,5,0,0:0:0:0:
167,217,201411,1,0,0:0:0:0:
235,276,201518,1,0,0:0:0:0:
325,283,201625,1,0,0:0:0:0:
400,243,201732,2,0,L|392:163,1,60
47,370,201947,2,0,L|39:290,1,60
78,89,202161,2,0,L|70:9,1,60
338,103,202375,5,0,0:0:0:0:
388,123,202482,2,0,L|395:205,1,60
443,203,202697,1,0,0:0:0:0:
418,258,202804,1,0,0:0:0:0:
353,284,202911,1,0,0:0:0:0:
280,256,203018,6,0,P|251:242|209:245,1,60
47,370,203232,2,0,P|52:345|76:312,1,60
84,4,203446,2,0,P|121:24|141:63,1,60
137,228,203660,2,0,P|152:205|162:162,1,60
348,66,203875,5,0,0:0:0:0:
421,50,203982,1,0,0:0:0:0:
480,81,204090,1,0,0:0:0:0:
498,136,204197,2,0,L|489:215,1,60
509,246,204411,1,0,0:0:0:0:
464,276,204518,1,0,0:0:0:0:
410,266,204625,1,0,0:0:0:0:
240,324,204732,5,0,0:0:0:0:
217,243,204840,1,0,0:0:0:0:
137,228,204947,1,0,0:0:0:0:
88,297,205054,1,0,0:0:0:0:
122,373,205161,2,0,L|202:385,1,60
280,184,205375,1,0,0:0:0:0:
257,103,205482,1,0,0:0:0:0:
233,24,205590,2,0,L|144:11,1,60
342,123,205804,5,0,0:0:0:0:
377,90,205911,2,0,L|466:104,1,60
481,69,206125,1,0,0:0:0:0:
512,100,206232,1,0,0:0:0:0:
511,144,206340,1,0,0:0:0:0:
493,166,206447,5,0,0:0:0:0:
405,168,206661,1,0,0:0:0:0:
364,248,206875,1,0,0:0:0:0:
429,314,207090,1,0,0:0:0:0:
512,289,207304,5,0,0:0:0:0:
288,270,207518,1,0,0:0:0:0:
195,384,207732,5,0,0:0:0:0:
364,248,207947,1,0,0:0:0:0:
86,70,208161,6,0,B|96:93|92:114|92:114|101:126|101:126|97:143|97:143|131:195|92:254|92:254|96:227|80:199,1,240
321,83,209447,1,0,0:0:0:0:
460,133,209875,5,0,0:0:0:0:
