osu file format v14

[General]
AudioFilename: audio.mp3
AudioLeadIn: 0
PreviewTime: 33236
Countdown: 0
SampleSet: None
StackLeniency: 0.7
Mode: 3
LetterboxInBreaks: 0
SpecialStyle: 0
WidescreenStoryboard: 0

[Editor]
DistanceSpacing: 2
BeatDivisor: 4
GridSize: 16
TimelineZoom: 2.1

[Metadata]
Title:Master Plan
TitleUnicode:Master Plan
Artist:Bassdrum RendaP feat. GUMI
ArtistUnicode:バスドラ連打P feat. GUMI
Creator:Cryolien
Version:Mastermind
Source:
Tags:
BeatmapID:1704174
BeatmapSetID:812478

[Difficulty]
HPDrainRate:8
CircleSize:7
OverallDifficulty:8
ApproachRate:5
SliderMultiplier:1.4
SliderTickRate:1

[Events]
//Background and Video events
0,0,"background.jpg",0,0
//Break Periods
//Storyboard Layer 0 (Background)
//Storyboard Layer 1 (Fail)
//Storyboard Layer 2 (Pass)
//Storyboard Layer 3 (Foreground)
//Storyboard Sound Samples

[TimingPoints]
986.596638655462,500,4,2,0,15,1,0
2486,-222.222222222222,4,2,0,15,0,0
2611,-153.846153846154,4,2,0,15,0,0
2736,-133.333333333333,4,2,0,15,0,0
2861,-105.263157894737,4,2,0,15,0,0
2986,-100,4,2,0,15,0,0
33986,-400,4,2,0,15,0,0
34486,-166.666666666667,4,2,0,15,0,0
34611,-142.857142857143,4,2,0,15,0,0
34736,-125,4,2,0,15,0,0
34861,-111.111111111111,4,2,0,15,0,0
34986,-133.333333333333,4,2,0,15,0,0
50986,-100,4,2,0,15,0,0
65986,-399.999999999997,4,2,0,15,0,0
66486,-166.666666666667,4,2,0,15,0,0
66611,-142.857142857143,4,2,0,15,0,0
66736,-125,4,2,0,15,0,0
66861,-111.111111111111,4,2,0,15,0,0
66986,-100,4,2,0,15,0,0
97986,-399.999999999997,4,2,0,15,0,0
98486,-166.666666666667,4,2,0,15,0,0
98611,-142.857142857143,4,2,0,15,0,0
98736,-125,4,2,0,15,0,0
98861,-111.111111111111,4,2,0,15,0,0
98986,-133.333333333333,4,2,0,15,0,0
114986,-100,4,2,0,15,0,0
129986,-399.999999999997,4,2,0,15,0,0
130486,-166.666666666667,4,2,0,15,0,0
130611,-142.857142857143,4,2,0,15,0,0
130736,-125,4,2,0,15,0,0
130861,-111.111111111111,4,2,0,15,0,0
130986,-100,4,2,0,15,0,0
146986,-133.333333333333,4,2,0,15,0,0
154986,-100,4,2,0,15,0,0
162986,250,4,2,0,15,1,0
162986,-200,4,2,0,15,0,0

[HitObjects]
36,192,986,5,0,0:0:0:0:
475,192,986,1,0,0:0:0:0:
475,192,1486,1,0,0:0:0:0:
36,192,1486,1,0,0:0:0:0:
475,192,1986,1,0,0:0:0:0:
329,192,1986,1,0,0:0:0:0:
36,192,2049,1,0,0:0:0:0:
182,192,2049,1,0,0:0:0:0:
475,192,2111,1,0,0:0:0:0:
402,192,2174,1,0,0:0:0:0:
329,192,2236,1,0,0:0:0:0:
36,192,2299,1,0,0:0:0:0:
109,192,2361,1,0,0:0:0:0:
182,192,2424,1,0,0:0:0:0:
256,192,2486,1,0,0:0:0:0:
402,192,2486,1,0,0:0:0:0:
475,192,2986,128,0,3486:0:0:0:0:
36,192,2986,1,0,0:0:0:0:
109,192,2986,1,0,0:0:0:0:
256,192,2986,1,0,0:0:0:0:
329,192,2986,1,0,0:0:0:0:
182,192,3236,1,0,0:0:0:0:
256,192,3361,1,0,0:0:0:0:
402,192,3486,128,0,3736:0:0:0:0:
36,192,3486,1,0,0:0:0:0:
182,192,3486,1,0,0:0:0:0:
329,192,3486,1,0,0:0:0:0:
109,192,3611,1,0,0:0:0:0:
329,192,3736,128,0,4236:0:0:0:0:
182,192,3861,1,0,0:0:0:0:
36,192,3986,1,0,0:0:0:0:
109,192,3986,1,0,0:0:0:0:
475,192,3986,1,0,0:0:0:0:
402,192,4236,128,0,4986:0:0:0:0:
182,192,4236,1,0,0:0:0:0:
256,192,4361,1,0,0:0:0:0:
329,192,4486,1,0,0:0:0:0:
109,192,4486,1,0,0:0:0:0:
36,192,4486,1,0,0:0:0:0:
256,192,4611,1,0,0:0:0:0:
182,192,4736,128,0,4986:0:0:0:0:
329,192,4861,1,0,0:0:0:0:
36,192,4986,128,0,5236:0:0:0:0:
109,192,4986,1,0,0:0:0:0:
256,192,4986,1,0,0:0:0:0:
475,192,4986,1,0,0:0:0:0:
109,192,5236,128,0,5486:0:0:0:0:
402,192,5236,1,0,0:0:0:0:
329,192,5361,1,0,0:0:0:0:
182,192,5486,128,0,5736:0:0:0:0:
475,192,5486,1,0,0:0:0:0:
402,192,5486,1,0,0:0:0:0:
36,192,5486,1,0,0:0:0:0:
329,192,5611,1,0,0:0:0:0:
256,192,5736,128,0,5986:0:0:0:0:
109,192,5861,1,0,0:0:0:0:
329,192,5986,128,0,6236:0:0:0:0:
36,192,5986,1,0,0:0:0:0:
182,192,5986,1,0,0:0:0:0:
475,192,5986,1,0,0:0:0:0:
256,192,6236,128,0,6486:0:0:0:0:
109,192,6236,1,0,0:0:0:0:
402,192,6361,1,0,0:0:0:0:
182,192,6486,128,0,6736:0:0:0:0:
475,192,6486,1,0,0:0:0:0:
36,192,6486,1,0,0:0:0:0:
329,192,6486,1,0,0:0:0:0:
402,192,6611,1,0,0:0:0:0:
109,192,6736,128,0,6986:0:0:0:0:
475,192,6736,1,0,0:0:0:0:
329,192,6736,1,0,0:0:0:0:
402,192,6861,1,0,0:0:0:0:
256,192,6861,1,0,0:0:0:0:
475,192,6986,128,0,7486:0:0:0:0:
36,192,6986,1,0,0:0:0:0:
182,192,6986,1,0,0:0:0:0:
329,192,6986,1,0,0:0:0:0:
36,192,7236,1,0,0:0:0:0:
182,192,7361,1,0,0:0:0:0:
402,192,7486,128,0,7736:0:0:0:0:
36,192,7486,1,0,0:0:0:0:
109,192,7486,1,0,0:0:0:0:
256,192,7486,1,0,0:0:0:0:
182,192,7611,1,0,0:0:0:0:
329,192,7736,128,0,8236:0:0:0:0:
475,192,7861,1,0,0:0:0:0:
402,192,7986,1,0,0:0:0:0:
182,192,7986,1,0,0:0:0:0:
109,192,7986,1,0,0:0:0:0:
256,192,8236,128,0,8486:0:0:0:0:
475,192,8236,1,0,0:0:0:0:
36,192,8361,1,0,0:0:0:0:
109,192,8486,128,0,8736:0:0:0:0:
402,192,8486,1,0,0:0:0:0:
329,192,8486,1,0,0:0:0:0:
475,192,8486,1,0,0:0:0:0:
256,192,8611,1,0,0:0:0:0:
182,192,8736,128,0,9236:0:0:0:0:
256,192,8861,1,0,0:0:0:0:
36,192,8986,1,0,0:0:0:0:
329,192,8986,1,0,0:0:0:0:
402,192,8986,1,0,0:0:0:0:
109,192,9236,128,0,9486:0:0:0:0:
475,192,9236,1,0,0:0:0:0:
329,192,9361,1,0,0:0:0:0:
36,192,9486,128,0,9736:0:0:0:0:
182,192,9486,1,0,0:0:0:0:
256,192,9486,1,0,0:0:0:0:
402,192,9486,1,0,0:0:0:0:
475,192,9611,1,0,0:0:0:0:
109,192,9736,128,0,10236:0:0:0:0:
256,192,9861,1,0,0:0:0:0:
182,192,9986,1,0,0:0:0:0:
402,192,9986,1,0,0:0:0:0:
475,192,9986,1,0,0:0:0:0:
329,192,10236,128,0,10986:0:0:0:0:
36,192,10236,1,0,0:0:0:0:
182,192,10361,1,0,0:0:0:0:
36,192,10486,1,0,0:0:0:0:
109,192,10486,1,0,0:0:0:0:
475,192,10549,1,0,0:0:0:0:
402,192,10549,1,0,0:0:0:0:
256,192,10611,1,0,0:0:0:0:
182,192,10674,1,0,0:0:0:0:
109,192,10736,1,0,0:0:0:0:
36,192,10799,1,0,0:0:0:0:
256,192,10861,1,0,0:0:0:0:
182,192,10924,1,0,0:0:0:0:
475,192,10986,128,0,11486:0:0:0:0:
109,192,10986,1,0,0:0:0:0:
36,192,10986,1,0,0:0:0:0:
402,192,10986,1,0,0:0:0:0:
256,192,11236,1,0,0:0:0:0:
182,192,11361,1,0,0:0:0:0:
402,192,11486,128,0,11736:0:0:0:0:
36,192,11486,1,0,0:0:0:0:
109,192,11486,1,0,0:0:0:0:
329,192,11486,1,0,0:0:0:0:
256,192,11611,1,0,0:0:0:0:
329,192,11736,128,0,12236:0:0:0:0:
36,192,11861,1,0,0:0:0:0:
109,192,11986,1,0,0:0:0:0:
182,192,11986,1,0,0:0:0:0:
256,192,11986,1,0,0:0:0:0:
402,192,12236,128,0,12986:0:0:0:0:
36,192,12236,1,0,0:0:0:0:
109,192,12361,1,0,0:0:0:0:
329,192,12486,1,0,0:0:0:0:
256,192,12486,1,0,0:0:0:0:
182,192,12486,1,0,0:0:0:0:
475,192,12611,1,0,0:0:0:0:
109,192,12736,128,0,12986:0:0:0:0:
475,192,12861,1,0,0:0:0:0:
36,192,12986,128,0,13236:0:0:0:0:
182,192,12986,1,0,0:0:0:0:
256,192,12986,1,0,0:0:0:0:
329,192,12986,1,0,0:0:0:0:
109,192,13236,128,0,13486:0:0:0:0:
402,192,13236,1,0,0:0:0:0:
329,192,13361,1,0,0:0:0:0:
182,192,13486,128,0,13736:0:0:0:0:
475,192,13486,1,0,0:0:0:0:
36,192,13486,1,0,0:0:0:0:
402,192,13486,1,0,0:0:0:0:
329,192,13611,1,0,0:0:0:0:
256,192,13736,128,0,13986:0:0:0:0:
109,192,13861,1,0,0:0:0:0:
402,192,13986,128,0,14236:0:0:0:0:
36,192,13986,1,0,0:0:0:0:
182,192,13986,1,0,0:0:0:0:
475,192,13986,1,0,0:0:0:0:
329,192,14236,128,0,14486:0:0:0:0:
36,192,14236,1,0,0:0:0:0:
109,192,14361,1,0,0:0:0:0:
256,192,14486,128,0,14736:0:0:0:0:
182,192,14486,1,0,0:0:0:0:
402,192,14486,1,0,0:0:0:0:
475,192,14486,1,0,0:0:0:0:
109,192,14611,1,0,0:0:0:0:
182,192,14736,128,0,14986:0:0:0:0:
36,192,14736,1,0,0:0:0:0:
475,192,14736,1,0,0:0:0:0:
402,192,14861,1,0,0:0:0:0:
109,192,14861,1,0,0:0:0:0:
475,192,14986,128,0,15486:0:0:0:0:
256,192,14986,1,0,0:0:0:0:
329,192,14986,1,0,0:0:0:0:
36,192,14986,1,0,0:0:0:0:
109,192,15236,1,0,0:0:0:0:
182,192,15361,1,0,0:0:0:0:
402,192,15486,128,0,15611:0:0:0:0:
329,192,15486,1,0,0:0:0:0:
256,192,15486,1,0,0:0:0:0:
109,192,15486,1,0,0:0:0:0:
36,192,15611,1,0,0:0:0:0:
402,192,15736,128,0,16236:0:0:0:0:
182,192,15861,1,0,0:0:0:0:
329,192,15986,1,0,0:0:0:0:
256,192,15986,1,0,0:0:0:0:
36,192,15986,1,0,0:0:0:0:
475,192,16236,128,0,16736:0:0:0:0:
109,192,16236,1,0,0:0:0:0:
182,192,16361,1,0,0:0:0:0:
402,192,16486,1,0,0:0:0:0:
329,192,16486,1,0,0:0:0:0:
36,192,16486,1,0,0:0:0:0:
256,192,16611,1,0,0:0:0:0:
329,192,16736,128,0,17236:0:0:0:0:
109,192,16861,1,0,0:0:0:0:
182,192,16986,1,0,0:0:0:0:
256,192,16986,1,0,0:0:0:0:
475,192,16986,1,0,0:0:0:0:
182,192,17236,128,0,17486:0:0:0:0:
402,192,17236,1,0,0:0:0:0:
256,192,17361,1,0,0:0:0:0:
109,192,17486,128,0,17736:0:0:0:0:
329,192,17486,1,0,0:0:0:0:
475,192,17486,1,0,0:0:0:0:
36,192,17486,1,0,0:0:0:0:
402,192,17486,1,0,0:0:0:0:
256,192,17611,1,0,0:0:0:0:
182,192,17736,128,0,18236:0:0:0:0:
256,192,17861,1,0,0:0:0:0:
36,192,17986,1,0,0:0:0:0:
109,192,17986,1,0,0:0:0:0:
475,192,17986,1,0,0:0:0:0:
402,192,18153,128,0,18236:0:0:0:0:
329,192,18236,128,0,18361:0:0:0:0:
36,192,18299,1,0,0:0:0:0:
256,192,18361,128,0,18486:0:0:0:0:
109,192,18361,1,0,0:0:0:0:
182,192,18424,1,0,0:0:0:0:
402,192,18486,128,0,18736:0:0:0:0:
36,192,18486,1,0,0:0:0:0:
109,192,18486,1,0,0:0:0:0:
329,192,18486,1,0,0:0:0:0:
475,192,18486,1,0,0:0:0:0:
109,192,18736,128,0,18819:0:0:0:0:
329,192,18819,128,0,18903:0:0:0:0:
109,192,18903,128,0,18986:0:0:0:0:
329,192,18986,128,0,20236:0:0:0:0:
36,192,18986,1,0,0:0:0:0:
182,192,18986,1,0,0:0:0:0:
256,192,18986,1,0,0:0:0:0:
475,192,18986,1,0,0:0:0:0:
36,192,19111,1,0,0:0:0:0:
182,192,19111,1,0,0:0:0:0:
36,192,19361,1,0,0:0:0:0:
182,192,19361,1,0,0:0:0:0:
475,192,19486,1,0,0:0:0:0:
402,192,19486,1,0,0:0:0:0:
256,192,19486,1,0,0:0:0:0:
182,192,19611,1,0,0:0:0:0:
36,192,19611,1,0,0:0:0:0:
36,192,19861,1,0,0:0:0:0:
182,192,19861,1,0,0:0:0:0:
109,192,19986,1,0,0:0:0:0:
256,192,19986,1,0,0:0:0:0:
256,192,20111,1,0,0:0:0:0:
109,192,20111,1,0,0:0:0:0:
475,192,20236,128,0,20486:0:0:0:0:
36,192,20236,1,0,0:0:0:0:
182,192,20236,1,0,0:0:0:0:
402,192,20236,1,0,0:0:0:0:
109,192,20361,1,0,0:0:0:0:
329,192,20486,128,0,22236:0:0:0:0:
182,192,20486,1,0,0:0:0:0:
256,192,20486,1,0,0:0:0:0:
402,192,20486,1,0,0:0:0:0:
36,192,20611,1,0,0:0:0:0:
109,192,20736,1,0,0:0:0:0:
182,192,20736,1,0,0:0:0:0:
256,192,20736,1,0,0:0:0:0:
475,192,20861,1,0,0:0:0:0:
402,192,20861,1,0,0:0:0:0:
36,192,20861,1,0,0:0:0:0:
182,192,20986,1,0,0:0:0:0:
256,192,20986,1,0,0:0:0:0:
475,192,20986,1,0,0:0:0:0:
36,192,20986,1,0,0:0:0:0:
36,192,21111,1,0,0:0:0:0:
182,192,21111,1,0,0:0:0:0:
182,192,21361,1,0,0:0:0:0:
36,192,21361,1,0,0:0:0:0:
475,192,21486,1,0,0:0:0:0:
402,192,21486,1,0,0:0:0:0:
109,192,21486,1,0,0:0:0:0:
36,192,21611,1,0,0:0:0:0:
182,192,21611,1,0,0:0:0:0:
182,192,21861,1,0,0:0:0:0:
36,192,21861,1,0,0:0:0:0:
256,192,21986,1,0,0:0:0:0:
475,192,21986,1,0,0:0:0:0:
109,192,22111,1,0,0:0:0:0:
475,192,22236,1,0,0:0:0:0:
402,192,22236,1,0,0:0:0:0:
182,192,22236,1,0,0:0:0:0:
36,192,22236,1,0,0:0:0:0:
402,192,22424,1,0,0:0:0:0:
256,192,22486,1,0,0:0:0:0:
36,192,22486,1,0,0:0:0:0:
109,192,22611,1,0,0:0:0:0:
182,192,22611,1,0,0:0:0:0:
329,192,22611,1,0,0:0:0:0:
475,192,22611,1,0,0:0:0:0:
109,192,22861,1,0,0:0:0:0:
256,192,22986,1,0,0:0:0:0:
329,192,22986,1,0,0:0:0:0:
402,192,22986,1,0,0:0:0:0:
182,192,22986,1,0,0:0:0:0:
182,192,23111,1,0,0:0:0:0:
256,192,23111,1,0,0:0:0:0:
256,192,23361,1,0,0:0:0:0:
182,192,23361,1,0,0:0:0:0:
36,192,23486,1,0,0:0:0:0:
109,192,23486,1,0,0:0:0:0:
475,192,23486,1,0,0:0:0:0:
182,192,23611,1,0,0:0:0:0:
256,192,23611,1,0,0:0:0:0:
182,192,23861,1,0,0:0:0:0:
256,192,23861,1,0,0:0:0:0:
256,192,23986,1,0,0:0:0:0:
329,192,23986,1,0,0:0:0:0:
329,192,24111,1,0,0:0:0:0:
36,192,24111,1,0,0:0:0:0:
182,192,24236,1,0,0:0:0:0:
402,192,24236,1,0,0:0:0:0:
256,192,24236,1,0,0:0:0:0:
109,192,24361,1,0,0:0:0:0:
329,192,24486,1,0,0:0:0:0:
36,192,24486,1,0,0:0:0:0:
475,192,24486,1,0,0:0:0:0:
182,192,24486,1,0,0:0:0:0:
402,192,24611,1,0,0:0:0:0:
36,192,24736,1,0,0:0:0:0:
109,192,24736,1,0,0:0:0:0:
256,192,24736,1,0,0:0:0:0:
475,192,24861,1,0,0:0:0:0:
329,192,24861,1,0,0:0:0:0:
182,192,24861,1,0,0:0:0:0:
36,192,24986,1,0,0:0:0:0:
109,192,24986,1,0,0:0:0:0:
256,192,24986,1,0,0:0:0:0:
402,192,24986,1,0,0:0:0:0:
475,192,24986,1,0,0:0:0:0:
109,192,25111,1,0,0:0:0:0:
36,192,25111,1,0,0:0:0:0:
329,192,25111,1,0,0:0:0:0:
36,192,25361,1,0,0:0:0:0:
109,192,25361,1,0,0:0:0:0:
256,192,25486,1,0,0:0:0:0:
329,192,25486,1,0,0:0:0:0:
475,192,25486,1,0,0:0:0:0:
109,192,25611,1,0,0:0:0:0:
36,192,25611,1,0,0:0:0:0:
182,192,25861,1,0,0:0:0:0:
256,192,25924,1,0,0:0:0:0:
329,192,25986,1,0,0:0:0:0:
402,192,25986,1,0,0:0:0:0:
475,192,25986,1,0,0:0:0:0:
36,192,25986,128,0,26111:0:0:0:0:
109,192,26111,128,0,26236:0:0:0:0:
256,192,26111,1,0,0:0:0:0:
475,192,26236,1,0,0:0:0:0:
182,192,26236,128,0,26361:0:0:0:0:
329,192,26361,1,0,0:0:0:0:
256,192,26361,128,0,26486:0:0:0:0:
36,192,26486,1,0,0:0:0:0:
109,192,26486,1,0,0:0:0:0:
182,192,26486,1,0,0:0:0:0:
475,192,26486,128,0,26611:0:0:0:0:
402,192,26611,128,0,26736:0:0:0:0:
256,192,26611,1,0,0:0:0:0:
329,192,26736,128,0,26861:0:0:0:0:
182,192,26736,1,0,0:0:0:0:
256,192,26861,128,0,26986:0:0:0:0:
109,192,26861,1,0,0:0:0:0:
36,192,26986,1,0,0:0:0:0:
402,192,26986,1,0,0:0:0:0:
475,192,26986,1,0,0:0:0:0:
182,192,26986,1,0,0:0:0:0:
182,192,27111,1,0,0:0:0:0:
36,192,27111,1,0,0:0:0:0:
329,192,27111,1,0,0:0:0:0:
402,192,27236,1,0,0:0:0:0:
36,192,27361,1,0,0:0:0:0:
182,192,27361,1,0,0:0:0:0:
256,192,27361,1,0,0:0:0:0:
475,192,27486,1,0,0:0:0:0:
109,192,27486,1,0,0:0:0:0:
402,192,27486,1,0,0:0:0:0:
182,192,27611,1,0,0:0:0:0:
36,192,27611,1,0,0:0:0:0:
329,192,27611,1,0,0:0:0:0:
402,192,27736,1,0,0:0:0:0:
36,192,27861,1,0,0:0:0:0:
182,192,27861,1,0,0:0:0:0:
329,192,27861,1,0,0:0:0:0:
182,192,27986,1,0,0:0:0:0:
109,192,27986,1,0,0:0:0:0:
402,192,27986,1,0,0:0:0:0:
36,192,28111,1,0,0:0:0:0:
329,192,28236,1,0,0:0:0:0:
256,192,28236,1,0,0:0:0:0:
475,192,28236,1,0,0:0:0:0:
182,192,28361,1,0,0:0:0:0:
36,192,28486,1,0,0:0:0:0:
256,192,28486,1,0,0:0:0:0:
402,192,28486,1,0,0:0:0:0:
329,192,28611,1,0,0:0:0:0:
109,192,28736,1,0,0:0:0:0:
182,192,28736,1,0,0:0:0:0:
402,192,28736,1,0,0:0:0:0:
256,192,28861,1,0,0:0:0:0:
329,192,28861,1,0,0:0:0:0:
475,192,28861,1,0,0:0:0:0:
36,192,28986,1,0,0:0:0:0:
109,192,28986,1,0,0:0:0:0:
182,192,28986,1,0,0:0:0:0:
402,192,28986,1,0,0:0:0:0:
36,192,29111,1,0,0:0:0:0:
109,192,29111,1,0,0:0:0:0:
329,192,29111,1,0,0:0:0:0:
256,192,29236,1,0,0:0:0:0:
109,192,29361,1,0,0:0:0:0:
36,192,29361,1,0,0:0:0:0:
329,192,29361,1,0,0:0:0:0:
182,192,29486,1,0,0:0:0:0:
256,192,29486,1,0,0:0:0:0:
475,192,29486,1,0,0:0:0:0:
36,192,29611,1,0,0:0:0:0:
109,192,29611,1,0,0:0:0:0:
402,192,29611,1,0,0:0:0:0:
256,192,29736,1,0,0:0:0:0:
36,192,29861,1,0,0:0:0:0:
109,192,29861,1,0,0:0:0:0:
182,192,29861,1,0,0:0:0:0:
109,192,29986,1,0,0:0:0:0:
36,192,29986,1,0,0:0:0:0:
402,192,29986,1,0,0:0:0:0:
182,192,30111,1,0,0:0:0:0:
475,192,30236,1,0,0:0:0:0:
256,192,30236,1,0,0:0:0:0:
109,192,30236,1,0,0:0:0:0:
36,192,30236,1,0,0:0:0:0:
329,192,30361,1,0,0:0:0:0:
402,192,30486,1,0,0:0:0:0:
109,192,30486,1,0,0:0:0:0:
182,192,30486,1,0,0:0:0:0:
36,192,30611,1,0,0:0:0:0:
256,192,30611,1,0,0:0:0:0:
329,192,30611,1,0,0:0:0:0:
475,192,30611,1,0,0:0:0:0:
109,192,30736,1,0,0:0:0:0:
402,192,30861,1,0,0:0:0:0:
182,192,30986,1,0,0:0:0:0:
256,192,30986,1,0,0:0:0:0:
329,192,30986,1,0,0:0:0:0:
475,192,30986,1,0,0:0:0:0:
36,192,30986,1,0,0:0:0:0:
36,192,31111,1,0,0:0:0:0:
182,192,31111,1,0,0:0:0:0:
402,192,31111,1,0,0:0:0:0:
256,192,31236,1,0,0:0:0:0:
182,192,31361,1,0,0:0:0:0:
36,192,31361,1,0,0:0:0:0:
329,192,31361,1,0,0:0:0:0:
402,192,31486,1,0,0:0:0:0:
475,192,31486,1,0,0:0:0:0:
256,192,31486,1,0,0:0:0:0:
36,192,31611,1,0,0:0:0:0:
182,192,31611,1,0,0:0:0:0:
329,192,31611,1,0,0:0:0:0:
402,192,31736,1,0,0:0:0:0:
182,192,31861,1,0,0:0:0:0:
36,192,31861,1,0,0:0:0:0:
256,192,31861,1,0,0:0:0:0:
109,192,31986,1,0,0:0:0:0:
182,192,31986,1,0,0:0:0:0:
329,192,31986,1,0,0:0:0:0:
475,192,32111,1,0,0:0:0:0:
109,192,32236,1,0,0:0:0:0:
182,192,32236,1,0,0:0:0:0:
402,192,32236,1,0,0:0:0:0:
256,192,32361,1,0,0:0:0:0:
182,192,32486,1,0,0:0:0:0:
109,192,32486,1,0,0:0:0:0:
475,192,32486,1,0,0:0:0:0:
329,192,32486,1,0,0:0:0:0:
36,192,32611,1,0,0:0:0:0:
329,192,32736,1,0,0:0:0:0:
182,192,32736,1,0,0:0:0:0:
36,192,32861,1,0,0:0:0:0:
475,192,32861,1,0,0:0:0:0:
109,192,32986,5,0,0:0:0:0:
182,192,32986,1,0,0:0:0:0:
402,192,32986,1,0,0:0:0:0:
329,192,32986,1,0,0:0:0:0:
182,192,33111,1,0,0:0:0:0:
109,192,33111,1,0,0:0:0:0:
329,192,33111,1,0,0:0:0:0:
402,192,33111,1,0,0:0:0:0:
256,192,33236,1,0,0:0:0:0:
109,192,33361,1,0,0:0:0:0:
182,192,33361,1,0,0:0:0:0:
329,192,33361,1,0,0:0:0:0:
402,192,33361,1,0,0:0:0:0:
256,192,33486,1,0,0:0:0:0:
109,192,33611,1,0,0:0:0:0:
182,192,33611,1,0,0:0:0:0:
329,192,33611,1,0,0:0:0:0:
402,192,33611,1,0,0:0:0:0:
402,192,33736,1,0,0:0:0:0:
329,192,33736,1,0,0:0:0:0:
182,192,33736,1,0,0:0:0:0:
109,192,33736,1,0,0:0:0:0:
109,192,33861,1,0,0:0:0:0:
182,192,33861,1,0,0:0:0:0:
329,192,33861,1,0,0:0:0:0:
402,192,33861,1,0,0:0:0:0:
402,192,33986,1,0,0:0:0:0:
329,192,33986,1,0,0:0:0:0:
182,192,33986,1,0,0:0:0:0:
109,192,33986,1,0,0:0:0:0:
36,192,34486,1,0,0:0:0:0:
475,192,34486,1,0,0:0:0:0:
36,192,34986,128,0,35361:0:0:0:0:
109,192,34986,1,0,0:0:0:0:
256,192,34986,1,0,0:0:0:0:
402,192,34986,1,0,0:0:0:0:
475,192,34986,1,0,0:0:0:0:
182,192,35111,1,0,0:0:0:0:
402,192,35236,1,0,0:0:0:0:
475,192,35361,128,0,35736:0:0:0:0:
256,192,35361,1,0,0:0:0:0:
109,192,35486,1,0,0:0:0:0:
182,192,35486,1,0,0:0:0:0:
402,192,35486,1,0,0:0:0:0:
256,192,35611,1,0,0:0:0:0:
329,192,35736,128,0,35986:0:0:0:0:
109,192,35736,1,0,0:0:0:0:
182,192,35861,1,0,0:0:0:0:
36,192,35986,128,0,36361:0:0:0:0:
475,192,35986,1,0,0:0:0:0:
402,192,35986,1,0,0:0:0:0:
109,192,36111,1,0,0:0:0:0:
182,192,36111,1,0,0:0:0:0:
256,192,36111,1,0,0:0:0:0:
402,192,36236,1,0,0:0:0:0:
182,192,36361,128,0,36736:0:0:0:0:
329,192,36361,1,0,0:0:0:0:
256,192,36486,1,0,0:0:0:0:
475,192,36486,1,0,0:0:0:0:
402,192,36486,1,0,0:0:0:0:
329,192,36611,1,0,0:0:0:0:
109,192,36736,128,0,36986:0:0:0:0:
402,192,36736,1,0,0:0:0:0:
256,192,36861,1,0,0:0:0:0:
36,192,36986,128,0,37361:0:0:0:0:
182,192,36986,1,0,0:0:0:0:
475,192,36986,1,0,0:0:0:0:
329,192,37111,1,0,0:0:0:0:
182,192,37236,1,0,0:0:0:0:
475,192,37361,128,0,37736:0:0:0:0:
256,192,37361,1,0,0:0:0:0:
109,192,37486,1,0,0:0:0:0:
402,192,37486,1,0,0:0:0:0:
329,192,37486,1,0,0:0:0:0:
182,192,37611,1,0,0:0:0:0:
329,192,37736,128,0,37986:0:0:0:0:
256,192,37736,1,0,0:0:0:0:
109,192,37861,1,0,0:0:0:0:
36,192,37986,128,0,38361:0:0:0:0:
256,192,37986,1,0,0:0:0:0:
475,192,37986,1,0,0:0:0:0:
402,192,38111,1,0,0:0:0:0:
182,192,38111,1,0,0:0:0:0:
109,192,38111,1,0,0:0:0:0:
256,192,38236,1,0,0:0:0:0:
182,192,38361,128,0,38736:0:0:0:0:
329,192,38361,1,0,0:0:0:0:
475,192,38486,1,0,0:0:0:0:
402,192,38486,1,0,0:0:0:0:
109,192,38486,1,0,0:0:0:0:
256,192,38611,1,0,0:0:0:0:
109,192,38736,128,0,38986:0:0:0:0:
329,192,38736,1,0,0:0:0:0:
402,192,38861,1,0,0:0:0:0:
36,192,38986,128,0,39361:0:0:0:0:
182,192,38986,1,0,0:0:0:0:
256,192,38986,1,0,0:0:0:0:
329,192,38986,1,0,0:0:0:0:
475,192,38986,1,0,0:0:0:0:
402,192,39111,1,0,0:0:0:0:
329,192,39236,1,0,0:0:0:0:
475,192,39361,128,0,39736:0:0:0:0:
109,192,39361,1,0,0:0:0:0:
182,192,39486,1,0,0:0:0:0:
402,192,39486,1,0,0:0:0:0:
256,192,39486,1,0,0:0:0:0:
109,192,39611,1,0,0:0:0:0:
329,192,39736,128,0,39986:0:0:0:0:
36,192,39736,1,0,0:0:0:0:
256,192,39861,1,0,0:0:0:0:
36,192,39986,128,0,40361:0:0:0:0:
109,192,39986,1,0,0:0:0:0:
182,192,39986,1,0,0:0:0:0:
475,192,40111,1,0,0:0:0:0:
402,192,40111,1,0,0:0:0:0:
329,192,40111,1,0,0:0:0:0:
256,192,40236,1,0,0:0:0:0:
182,192,40361,128,0,40736:0:0:0:0:
329,192,40361,1,0,0:0:0:0:
475,192,40486,1,0,0:0:0:0:
256,192,40486,1,0,0:0:0:0:
36,192,40486,1,0,0:0:0:0:
402,192,40611,1,0,0:0:0:0:
109,192,40736,128,0,40986:0:0:0:0:
329,192,40736,1,0,0:0:0:0:
402,192,40861,1,0,0:0:0:0:
36,192,40986,128,0,41361:0:0:0:0:
182,192,40986,1,0,0:0:0:0:
256,192,40986,1,0,0:0:0:0:
329,192,41111,1,0,0:0:0:0:
182,192,41236,1,0,0:0:0:0:
475,192,41361,128,0,41736:0:0:0:0:
402,192,41361,1,0,0:0:0:0:
109,192,41486,1,0,0:0:0:0:
182,192,41486,1,0,0:0:0:0:
256,192,41486,1,0,0:0:0:0:
402,192,41611,1,0,0:0:0:0:
329,192,41736,128,0,41986:0:0:0:0:
36,192,41736,1,0,0:0:0:0:
256,192,41861,1,0,0:0:0:0:
36,192,41986,1,0,0:0:0:0:
109,192,41986,1,0,0:0:0:0:
475,192,41986,1,0,0:0:0:0:
475,192,42111,1,0,0:0:0:0:
109,192,42111,1,0,0:0:0:0:
36,192,42111,1,0,0:0:0:0:
329,192,42236,1,0,0:0:0:0:
475,192,42361,1,0,0:0:0:0:
109,192,42361,1,0,0:0:0:0:
36,192,42361,1,0,0:0:0:0:
329,192,42486,1,0,0:0:0:0:
36,192,42611,1,0,0:0:0:0:
109,192,42611,1,0,0:0:0:0:
475,192,42611,1,0,0:0:0:0:
475,192,42736,1,0,0:0:0:0:
109,192,42736,1,0,0:0:0:0:
36,192,42736,1,0,0:0:0:0:
36,192,42861,1,0,0:0:0:0:
109,192,42861,1,0,0:0:0:0:
475,192,42861,1,0,0:0:0:0:
36,192,42986,128,0,43361:0:0:0:0:
256,192,42986,1,0,0:0:0:0:
329,192,42986,1,0,0:0:0:0:
402,192,42986,1,0,0:0:0:0:
475,192,42986,128,0,43361:0:0:0:0:
109,192,43111,1,0,0:0:0:0:
182,192,43236,1,0,0:0:0:0:
256,192,43361,128,0,43736:0:0:0:0:
402,192,43361,128,0,43736:0:0:0:0:
109,192,43361,1,0,0:0:0:0:
36,192,43486,1,0,0:0:0:0:
475,192,43486,1,0,0:0:0:0:
329,192,43486,1,0,0:0:0:0:
109,192,43611,1,0,0:0:0:0:
182,192,43736,128,0,43986:0:0:0:0:
329,192,43736,128,0,43986:0:0:0:0:
475,192,43736,1,0,0:0:0:0:
402,192,43861,1,0,0:0:0:0:
36,192,43986,128,0,44361:0:0:0:0:
475,192,43986,128,0,44361:0:0:0:0:
109,192,43986,1,0,0:0:0:0:
256,192,43986,1,0,0:0:0:0:
402,192,44111,1,0,0:0:0:0:
329,192,44111,1,0,0:0:0:0:
182,192,44111,1,0,0:0:0:0:
256,192,44236,1,0,0:0:0:0:
182,192,44361,128,0,44736:0:0:0:0:
402,192,44361,128,0,44736:0:0:0:0:
109,192,44361,1,0,0:0:0:0:
256,192,44486,1,0,0:0:0:0:
329,192,44486,1,0,0:0:0:0:
36,192,44486,1,0,0:0:0:0:
475,192,44611,1,0,0:0:0:0:
109,192,44736,128,0,44986:0:0:0:0:
329,192,44736,128,0,44986:0:0:0:0:
256,192,44736,1,0,0:0:0:0:
182,192,44861,1,0,0:0:0:0:
36,192,44986,128,0,45361:0:0:0:0:
402,192,44986,128,0,45361:0:0:0:0:
256,192,44986,1,0,0:0:0:0:
475,192,44986,1,0,0:0:0:0:
182,192,45111,1,0,0:0:0:0:
109,192,45236,1,0,0:0:0:0:
256,192,45361,128,0,45736:0:0:0:0:
329,192,45361,128,0,45736:0:0:0:0:
182,192,45361,1,0,0:0:0:0:
475,192,45486,1,0,0:0:0:0:
402,192,45486,1,0,0:0:0:0:
36,192,45486,1,0,0:0:0:0:
109,192,45611,1,0,0:0:0:0:
182,192,45736,128,0,45986:0:0:0:0:
402,192,45736,128,0,45986:0:0:0:0:
475,192,45736,1,0,0:0:0:0:
109,192,45861,1,0,0:0:0:0:
36,192,45986,128,0,46361:0:0:0:0:
329,192,45986,128,0,46361:0:0:0:0:
256,192,45986,1,0,0:0:0:0:
475,192,45986,1,0,0:0:0:0:
109,192,46111,1,0,0:0:0:0:
402,192,46111,1,0,0:0:0:0:
182,192,46111,1,0,0:0:0:0:
256,192,46236,1,0,0:0:0:0:
182,192,46361,128,0,46736:0:0:0:0:
475,192,46361,128,0,46736:0:0:0:0:
402,192,46361,1,0,0:0:0:0:
329,192,46486,1,0,0:0:0:0:
256,192,46486,1,0,0:0:0:0:
36,192,46486,1,0,0:0:0:0:
402,192,46611,1,0,0:0:0:0:
109,192,46736,128,0,46986:0:0:0:0:
329,192,46736,128,0,46986:0:0:0:0:
256,192,46736,1,0,0:0:0:0:
475,192,46861,1,0,0:0:0:0:
36,192,46986,128,0,47361:0:0:0:0:
402,192,46986,128,0,47361:0:0:0:0:
182,192,46986,1,0,0:0:0:0:
256,192,46986,1,0,0:0:0:0:
475,192,46986,1,0,0:0:0:0:
109,192,47111,1,0,0:0:0:0:
182,192,47236,1,0,0:0:0:0:
256,192,47361,128,0,47736:0:0:0:0:
329,192,47361,128,0,47486:0:0:0:0:
475,192,47361,1,0,0:0:0:0:
402,192,47486,1,0,0:0:0:0:
182,192,47486,1,0,0:0:0:0:
36,192,47486,1,0,0:0:0:0:
109,192,47611,1,0,0:0:0:0:
182,192,47736,128,0,47986:0:0:0:0:
329,192,47736,128,0,47986:0:0:0:0:
475,192,47736,1,0,0:0:0:0:
256,192,47861,1,0,0:0:0:0:
36,192,47986,128,0,48361:0:0:0:0:
402,192,47986,128,0,48361:0:0:0:0:
109,192,47986,1,0,0:0:0:0:
475,192,47986,1,0,0:0:0:0:
329,192,48111,1,0,0:0:0:0:
256,192,48111,1,0,0:0:0:0:
182,192,48111,1,0,0:0:0:0:
109,192,48236,1,0,0:0:0:0:
182,192,48361,128,0,48736:0:0:0:0:
475,192,48361,128,0,48736:0:0:0:0:
329,192,48361,1,0,0:0:0:0:
256,192,48486,1,0,0:0:0:0:
109,192,48486,1,0,0:0:0:0:
402,192,48486,1,0,0:0:0:0:
36,192,48611,1,0,0:0:0:0:
109,192,48736,128,0,48986:0:0:0:0:
329,192,48736,128,0,48986:0:0:0:0:
256,192,48736,1,0,0:0:0:0:
402,192,48861,1,0,0:0:0:0:
36,192,48986,128,0,49361:0:0:0:0:
475,192,48986,128,0,49986:0:0:0:0:
182,192,48986,1,0,0:0:0:0:
256,192,48986,1,0,0:0:0:0:
402,192,49111,1,0,0:0:0:0:
329,192,49236,1,0,0:0:0:0:
256,192,49361,128,0,49736:0:0:0:0:
109,192,49361,1,0,0:0:0:0:
402,192,49486,1,0,0:0:0:0:
329,192,49486,1,0,0:0:0:0:
36,192,49486,1,0,0:0:0:0:
109,192,49611,1,0,0:0:0:0:
182,192,49736,128,0,49986:0:0:0:0:
402,192,49736,1,0,0:0:0:0:
329,192,49861,1,0,0:0:0:0:
36,192,49986,1,0,0:0:0:0:
109,192,49986,1,0,0:0:0:0:
256,192,49986,1,0,0:0:0:0:
402,192,49986,1,0,0:0:0:0:
109,192,50111,1,0,0:0:0:0:
36,192,50111,1,0,0:0:0:0:
329,192,50111,1,0,0:0:0:0:
256,192,50111,1,0,0:0:0:0:
182,192,50236,1,0,0:0:0:0:
36,192,50361,1,0,0:0:0:0:
109,192,50361,1,0,0:0:0:0:
329,192,50361,1,0,0:0:0:0:
475,192,50361,1,0,0:0:0:0:
182,192,50486,1,0,0:0:0:0:
109,192,50611,1,0,0:0:0:0:
36,192,50611,1,0,0:0:0:0:
256,192,50611,1,0,0:0:0:0:
402,192,50611,1,0,0:0:0:0:
36,192,50736,1,0,0:0:0:0:
109,192,50736,1,0,0:0:0:0:
402,192,50736,1,0,0:0:0:0:
256,192,50736,1,0,0:0:0:0:
109,192,50861,1,0,0:0:0:0:
36,192,50861,1,0,0:0:0:0:
256,192,50861,1,0,0:0:0:0:
402,192,50861,1,0,0:0:0:0:
36,192,50986,1,0,0:0:0:0:
109,192,50986,1,0,0:0:0:0:
182,192,50986,1,0,0:0:0:0:
329,192,50986,1,0,0:0:0:0:
475,192,50986,1,0,0:0:0:0:
256,192,51111,1,0,0:0:0:0:
36,192,51236,128,0,51361:0:0:0:0:
182,192,51236,1,0,0:0:0:0:
109,192,51361,128,0,51486:0:0:0:0:
256,192,51361,1,0,0:0:0:0:
182,192,51486,128,0,51611:0:0:0:0:
475,192,51486,1,0,0:0:0:0:
329,192,51486,1,0,0:0:0:0:
402,192,51486,1,0,0:0:0:0:
256,192,51611,128,0,51736:0:0:0:0:
182,192,51736,128,0,51861:0:0:0:0:
475,192,51736,1,0,0:0:0:0:
109,192,51861,128,0,51986:0:0:0:0:
402,192,51861,1,0,0:0:0:0:
329,192,51861,1,0,0:0:0:0:
36,192,51986,1,0,0:0:0:0:
182,192,52111,1,0,0:0:0:0:
256,192,52111,1,0,0:0:0:0:
329,192,52111,1,0,0:0:0:0:
475,192,52236,128,0,52361:0:0:0:0:
109,192,52236,1,0,0:0:0:0:
402,192,52361,128,0,52486:0:0:0:0:
36,192,52361,1,0,0:0:0:0:
329,192,52486,128,0,52611:0:0:0:0:
109,192,52486,1,0,0:0:0:0:
182,192,52486,1,0,0:0:0:0:
475,192,52486,1,0,0:0:0:0:
256,192,52611,128,0,52736:0:0:0:0:
36,192,52611,1,0,0:0:0:0:
402,192,52611,1,0,0:0:0:0:
329,192,52736,128,0,52861:0:0:0:0:
109,192,52736,1,0,0:0:0:0:
475,192,52736,1,0,0:0:0:0:
402,192,52861,128,0,52986:0:0:0:0:
182,192,52861,1,0,0:0:0:0:
36,192,52861,1,0,0:0:0:0:
109,192,52986,1,0,0:0:0:0:
256,192,52986,1,0,0:0:0:0:
329,192,52986,1,0,0:0:0:0:
475,192,52986,1,0,0:0:0:0:
182,192,53111,1,0,0:0:0:0:
36,192,53236,128,0,53361:0:0:0:0:
256,192,53236,1,0,0:0:0:0:
182,192,53361,128,0,53486:0:0:0:0:
402,192,53361,1,0,0:0:0:0:
329,192,53486,128,0,53611:0:0:0:0:
256,192,53486,1,0,0:0:0:0:
109,192,53486,1,0,0:0:0:0:
36,192,53486,1,0,0:0:0:0:
475,192,53611,128,0,53736:0:0:0:0:
329,192,53736,128,0,53861:0:0:0:0:
36,192,53736,1,0,0:0:0:0:
182,192,53861,128,0,53986:0:0:0:0:
36,192,53861,1,0,0:0:0:0:
109,192,53861,1,0,0:0:0:0:
256,192,53986,1,0,0:0:0:0:
402,192,54111,1,0,0:0:0:0:
329,192,54111,1,0,0:0:0:0:
36,192,54111,1,0,0:0:0:0:
475,192,54236,128,0,54361:0:0:0:0:
109,192,54236,1,0,0:0:0:0:
329,192,54361,128,0,54486:0:0:0:0:
256,192,54361,1,0,0:0:0:0:
182,192,54486,128,0,54611:0:0:0:0:
109,192,54486,1,0,0:0:0:0:
402,192,54486,1,0,0:0:0:0:
475,192,54486,1,0,0:0:0:0:
36,192,54611,128,0,54736:0:0:0:0:
256,192,54611,1,0,0:0:0:0:
329,192,54611,1,0,0:0:0:0:
182,192,54736,128,0,54861:0:0:0:0:
402,192,54736,1,0,0:0:0:0:
329,192,54861,128,0,54986:0:0:0:0:
256,192,54861,1,0,0:0:0:0:
36,192,54986,1,0,0:0:0:0:
109,192,54986,1,0,0:0:0:0:
475,192,54986,1,0,0:0:0:0:
402,192,54986,1,0,0:0:0:0:
329,192,55111,1,0,0:0:0:0:
256,192,55236,128,0,55361:0:0:0:0:
182,192,55236,1,0,0:0:0:0:
329,192,55361,128,0,55486:0:0:0:0:
109,192,55361,1,0,0:0:0:0:
402,192,55486,128,0,55611:0:0:0:0:
36,192,55486,1,0,0:0:0:0:
182,192,55486,1,0,0:0:0:0:
256,192,55486,1,0,0:0:0:0:
475,192,55611,128,0,55736:0:0:0:0:
402,192,55736,128,0,55861:0:0:0:0:
109,192,55736,1,0,0:0:0:0:
329,192,55861,128,0,55986:0:0:0:0:
182,192,55861,1,0,0:0:0:0:
256,192,55861,1,0,0:0:0:0:
36,192,55986,1,0,0:0:0:0:
109,192,56111,1,0,0:0:0:0:
329,192,56111,1,0,0:0:0:0:
475,192,56111,1,0,0:0:0:0:
256,192,56236,128,0,56361:0:0:0:0:
402,192,56236,1,0,0:0:0:0:
182,192,56361,128,0,56486:0:0:0:0:
329,192,56361,1,0,0:0:0:0:
109,192,56486,128,0,56611:0:0:0:0:
475,192,56486,1,0,0:0:0:0:
402,192,56486,1,0,0:0:0:0:
256,192,56486,1,0,0:0:0:0:
36,192,56611,128,0,56736:0:0:0:0:
329,192,56611,1,0,0:0:0:0:
182,192,56611,1,0,0:0:0:0:
109,192,56736,128,0,56861:0:0:0:0:
475,192,56736,1,0,0:0:0:0:
182,192,56861,128,0,56986:0:0:0:0:
329,192,56861,1,0,0:0:0:0:
256,192,56986,1,0,0:0:0:0:
36,192,56986,1,0,0:0:0:0:
329,192,57111,1,0,0:0:0:0:
109,192,57236,128,0,57361:0:0:0:0:
402,192,57236,1,0,0:0:0:0:
182,192,57361,128,0,57486:0:0:0:0:
475,192,57361,1,0,0:0:0:0:
329,192,57486,128,0,57611:0:0:0:0:
256,192,57486,1,0,0:0:0:0:
109,192,57486,1,0,0:0:0:0:
36,192,57486,1,0,0:0:0:0:
402,192,57611,128,0,57736:0:0:0:0:
329,192,57736,128,0,57861:0:0:0:0:
182,192,57861,128,0,57986:0:0:0:0:
475,192,57861,1,0,0:0:0:0:
402,192,57924,1,0,0:0:0:0:
329,192,57986,1,0,0:0:0:0:
36,192,58111,1,0,0:0:0:0:
109,192,58111,1,0,0:0:0:0:
182,192,58111,1,0,0:0:0:0:
402,192,58236,128,0,58361:0:0:0:0:
256,192,58236,1,0,0:0:0:0:
329,192,58361,128,0,58486:0:0:0:0:
36,192,58361,1,0,0:0:0:0:
182,192,58486,128,0,58611:0:0:0:0:
256,192,58486,1,0,0:0:0:0:
402,192,58486,1,0,0:0:0:0:
475,192,58486,1,0,0:0:0:0:
109,192,58611,128,0,58736:0:0:0:0:
329,192,58611,1,0,0:0:0:0:
182,192,58736,128,0,58861:0:0:0:0:
36,192,58736,1,0,0:0:0:0:
256,192,58736,1,0,0:0:0:0:
475,192,58736,1,0,0:0:0:0:
329,192,58861,128,0,58986:0:0:0:0:
402,192,58861,1,0,0:0:0:0:
109,192,58861,1,0,0:0:0:0:
36,192,58861,1,0,0:0:0:0:
182,192,58986,1,0,0:0:0:0:
256,192,58986,1,0,0:0:0:0:
402,192,58986,1,0,0:0:0:0:
475,192,58986,1,0,0:0:0:0:
36,192,59111,1,0,0:0:0:0:
109,192,59236,128,0,59361:0:0:0:0:
329,192,59236,1,0,0:0:0:0:
256,192,59361,128,0,59486:0:0:0:0:
182,192,59361,1,0,0:0:0:0:
402,192,59486,128,0,59611:0:0:0:0:
36,192,59486,1,0,0:0:0:0:
109,192,59486,1,0,0:0:0:0:
475,192,59486,1,0,0:0:0:0:
256,192,59611,128,0,59736:0:0:0:0:
182,192,59611,1,0,0:0:0:0:
109,192,59736,128,0,59861:0:0:0:0:
329,192,59736,1,0,0:0:0:0:
36,192,59861,128,0,59986:0:0:0:0:
182,192,59861,1,0,0:0:0:0:
256,192,59986,1,0,0:0:0:0:
475,192,59986,1,0,0:0:0:0:
329,192,60111,1,0,0:0:0:0:
109,192,60111,1,0,0:0:0:0:
36,192,60111,1,0,0:0:0:0:
402,192,60236,128,0,60361:0:0:0:0:
182,192,60236,1,0,0:0:0:0:
256,192,60361,128,0,60486:0:0:0:0:
36,192,60361,1,0,0:0:0:0:
109,192,60486,128,0,60611:0:0:0:0:
182,192,60486,1,0,0:0:0:0:
329,192,60486,1,0,0:0:0:0:
475,192,60486,1,0,0:0:0:0:
256,192,60611,128,0,60736:0:0:0:0:
36,192,60611,1,0,0:0:0:0:
402,192,60736,128,0,60861:0:0:0:0:
182,192,60736,1,0,0:0:0:0:
475,192,60861,128,0,60986:0:0:0:0:
109,192,60861,1,0,0:0:0:0:
36,192,60861,1,0,0:0:0:0:
329,192,60861,1,0,0:0:0:0:
182,192,60986,1,0,0:0:0:0:
402,192,60986,1,0,0:0:0:0:
329,192,61111,1,0,0:0:0:0:
182,192,61236,128,0,61361:0:0:0:0:
402,192,61236,1,0,0:0:0:0:
256,192,61361,128,0,61486:0:0:0:0:
36,192,61361,1,0,0:0:0:0:
329,192,61486,128,0,61611:0:0:0:0:
109,192,61486,1,0,0:0:0:0:
182,192,61486,1,0,0:0:0:0:
475,192,61486,1,0,0:0:0:0:
402,192,61611,128,0,61736:0:0:0:0:
36,192,61611,1,0,0:0:0:0:
329,192,61736,128,0,61861:0:0:0:0:
182,192,61736,1,0,0:0:0:0:
256,192,61861,128,0,61986:0:0:0:0:
109,192,61861,1,0,0:0:0:0:
475,192,61986,1,0,0:0:0:0:
329,192,61986,1,0,0:0:0:0:
36,192,62111,1,0,0:0:0:0:
109,192,62111,1,0,0:0:0:0:
182,192,62111,1,0,0:0:0:0:
329,192,62236,128,0,62361:0:0:0:0:
475,192,62236,1,0,0:0:0:0:
256,192,62361,128,0,62486:0:0:0:0:
109,192,62361,1,0,0:0:0:0:
182,192,62486,128,0,62611:0:0:0:0:
36,192,62486,1,0,0:0:0:0:
329,192,62486,1,0,0:0:0:0:
402,192,62486,1,0,0:0:0:0:
109,192,62611,128,0,62736:0:0:0:0:
475,192,62611,1,0,0:0:0:0:
182,192,62736,128,0,62861:0:0:0:0:
402,192,62736,1,0,0:0:0:0:
256,192,62861,128,0,62986:0:0:0:0:
329,192,62861,1,0,0:0:0:0:
36,192,62861,1,0,0:0:0:0:
475,192,62861,1,0,0:0:0:0:
109,192,62986,1,0,0:0:0:0:
182,192,62986,1,0,0:0:0:0:
402,192,62986,1,0,0:0:0:0:
475,192,62986,1,0,0:0:0:0:
329,192,63111,1,0,0:0:0:0:
36,192,63236,128,0,63361:0:0:0:0:
256,192,63236,1,0,0:0:0:0:
109,192,63361,128,0,63486:0:0:0:0:
182,192,63361,1,0,0:0:0:0:
402,192,63486,128,0,63611:0:0:0:0:
329,192,63486,1,0,0:0:0:0:
256,192,63486,1,0,0:0:0:0:
36,192,63486,1,0,0:0:0:0:
475,192,63611,128,0,63736:0:0:0:0:
182,192,63611,1,0,0:0:0:0:
402,192,63736,128,0,63861:0:0:0:0:
329,192,63736,1,0,0:0:0:0:
109,192,63861,128,0,63986:0:0:0:0:
256,192,63861,1,0,0:0:0:0:
182,192,63986,1,0,0:0:0:0:
475,192,63986,1,0,0:0:0:0:
36,192,64111,1,0,0:0:0:0:
402,192,64111,1,0,0:0:0:0:
329,192,64111,1,0,0:0:0:0:
475,192,64236,128,0,64361:0:0:0:0:
182,192,64236,1,0,0:0:0:0:
402,192,64361,128,0,64486:0:0:0:0:
256,192,64361,1,0,0:0:0:0:
109,192,64486,128,0,64611:0:0:0:0:
329,192,64486,1,0,0:0:0:0:
182,192,64486,1,0,0:0:0:0:
475,192,64486,1,0,0:0:0:0:
36,192,64611,128,0,64736:0:0:0:0:
402,192,64611,1,0,0:0:0:0:
109,192,64736,128,0,64861:0:0:0:0:
329,192,64736,1,0,0:0:0:0:
402,192,64861,128,0,64986:0:0:0:0:
182,192,64861,1,0,0:0:0:0:
256,192,64924,1,0,0:0:0:0:
36,192,64986,128,0,65111:0:0:0:0:
329,192,64986,1,0,0:0:0:0:
475,192,64986,1,0,0:0:0:0:
182,192,65049,1,0,0:0:0:0:
256,192,65049,1,0,0:0:0:0:
109,192,65111,128,0,65236:0:0:0:0:
329,192,65111,1,0,0:0:0:0:
402,192,65174,1,0,0:0:0:0:
182,192,65236,128,0,65361:0:0:0:0:
475,192,65236,1,0,0:0:0:0:
402,192,65299,1,0,0:0:0:0:
256,192,65361,128,0,65486:0:0:0:0:
36,192,65361,1,0,0:0:0:0:
109,192,65424,1,0,0:0:0:0:
329,192,65486,128,0,65611:0:0:0:0:
402,192,65486,1,0,0:0:0:0:
475,192,65486,1,0,0:0:0:0:
36,192,65549,1,0,0:0:0:0:
109,192,65549,1,0,0:0:0:0:
475,192,65611,128,0,65736:0:0:0:0:
182,192,65611,1,0,0:0:0:0:
256,192,65674,1,0,0:0:0:0:
329,192,65736,128,0,65861:0:0:0:0:
36,192,65736,1,0,0:0:0:0:
109,192,65799,1,0,0:0:0:0:
182,192,65861,128,0,65986:0:0:0:0:
402,192,65861,1,0,0:0:0:0:
256,192,65924,1,0,0:0:0:0:
36,192,65986,1,0,0:0:0:0:
109,192,65986,1,0,0:0:0:0:
402,192,65986,1,0,0:0:0:0:
475,192,65986,1,0,0:0:0:0:
36,192,66986,1,0,0:0:0:0:
109,192,66986,1,0,0:0:0:0:
329,192,66986,1,0,0:0:0:0:
475,192,66986,1,0,0:0:0:0:
256,192,66986,1,0,0:0:0:0:
182,192,66986,128,0,68986:0:0:0:0:
402,192,67236,1,0,0:0:0:0:
329,192,67236,1,0,0:0:0:0:
256,192,67361,1,0,0:0:0:0:
36,192,67361,1,0,0:0:0:0:
109,192,67486,1,0,0:0:0:0:
475,192,67486,1,0,0:0:0:0:
402,192,67486,1,0,0:0:0:0:
329,192,67611,1,0,0:0:0:0:
256,192,67611,1,0,0:0:0:0:
36,192,67861,1,0,0:0:0:0:
109,192,67861,1,0,0:0:0:0:
475,192,67986,1,0,0:0:0:0:
402,192,67986,1,0,0:0:0:0:
329,192,67986,1,0,0:0:0:0:
109,192,68236,1,0,0:0:0:0:
256,192,68236,1,0,0:0:0:0:
402,192,68361,1,0,0:0:0:0:
329,192,68361,1,0,0:0:0:0:
256,192,68486,1,0,0:0:0:0:
36,192,68486,1,0,0:0:0:0:
475,192,68486,1,0,0:0:0:0:
109,192,68611,1,0,0:0:0:0:
329,192,68611,1,0,0:0:0:0:
475,192,68861,1,0,0:0:0:0:
329,192,68861,1,0,0:0:0:0:
109,192,68986,128,0,70986:0:0:0:0:
402,192,68986,1,0,0:0:0:0:
256,192,68986,1,0,0:0:0:0:
36,192,68986,1,0,0:0:0:0:
182,192,69236,1,0,0:0:0:0:
329,192,69236,1,0,0:0:0:0:
475,192,69361,1,0,0:0:0:0:
256,192,69361,1,0,0:0:0:0:
402,192,69486,1,0,0:0:0:0:
329,192,69486,1,0,0:0:0:0:
182,192,69486,1,0,0:0:0:0:
36,192,69611,1,0,0:0:0:0:
256,192,69611,1,0,0:0:0:0:
182,192,69861,1,0,0:0:0:0:
256,192,69861,1,0,0:0:0:0:
475,192,69986,1,0,0:0:0:0:
402,192,69986,1,0,0:0:0:0:
329,192,69986,1,0,0:0:0:0:
182,192,70236,1,0,0:0:0:0:
36,192,70236,1,0,0:0:0:0:
329,192,70361,1,0,0:0:0:0:
475,192,70361,1,0,0:0:0:0:
182,192,70486,1,0,0:0:0:0:
256,192,70486,1,0,0:0:0:0:
36,192,70486,1,0,0:0:0:0:
475,192,70611,1,0,0:0:0:0:
329,192,70611,1,0,0:0:0:0:
256,192,70736,1,0,0:0:0:0:
402,192,70736,1,0,0:0:0:0:
329,192,70861,1,0,0:0:0:0:
182,192,70861,1,0,0:0:0:0:
36,192,70986,128,0,72986:0:0:0:0:
256,192,70986,1,0,0:0:0:0:
402,192,70986,1,0,0:0:0:0:
475,192,70986,1,0,0:0:0:0:
329,192,70986,1,0,0:0:0:0:
109,192,71236,1,0,0:0:0:0:
182,192,71236,1,0,0:0:0:0:
256,192,71361,1,0,0:0:0:0:
402,192,71361,1,0,0:0:0:0:
329,192,71486,1,0,0:0:0:0:
475,192,71486,1,0,0:0:0:0:
182,192,71486,1,0,0:0:0:0:
109,192,71611,1,0,0:0:0:0:
402,192,71611,1,0,0:0:0:0:
182,192,71861,1,0,0:0:0:0:
256,192,71861,1,0,0:0:0:0:
402,192,71986,1,0,0:0:0:0:
475,192,71986,1,0,0:0:0:0:
109,192,71986,1,0,0:0:0:0:
329,192,72236,1,0,0:0:0:0:
182,192,72236,1,0,0:0:0:0:
109,192,72361,1,0,0:0:0:0:
402,192,72361,1,0,0:0:0:0:
182,192,72486,1,0,0:0:0:0:
256,192,72486,1,0,0:0:0:0:
475,192,72486,1,0,0:0:0:0:
329,192,72611,1,0,0:0:0:0:
109,192,72611,1,0,0:0:0:0:
402,192,72861,1,0,0:0:0:0:
256,192,72861,1,0,0:0:0:0:
109,192,72986,1,0,0:0:0:0:
182,192,72986,1,0,0:0:0:0:
329,192,72986,1,0,0:0:0:0:
256,192,73236,1,0,0:0:0:0:
329,192,73236,1,0,0:0:0:0:
402,192,73361,1,0,0:0:0:0:
182,192,73361,1,0,0:0:0:0:
36,192,73486,1,0,0:0:0:0:
109,192,73486,1,0,0:0:0:0:
329,192,73486,1,0,0:0:0:0:
475,192,73611,1,0,0:0:0:0:
182,192,73611,1,0,0:0:0:0:
256,192,73861,1,0,0:0:0:0:
329,192,73861,1,0,0:0:0:0:
36,192,73986,1,0,0:0:0:0:
109,192,73986,1,0,0:0:0:0:
475,192,73986,1,0,0:0:0:0:
182,192,74236,1,0,0:0:0:0:
329,192,74236,1,0,0:0:0:0:
402,192,74361,1,0,0:0:0:0:
475,192,74361,1,0,0:0:0:0:
36,192,74486,1,0,0:0:0:0:
109,192,74486,1,0,0:0:0:0:
182,192,74549,1,0,0:0:0:0:
256,192,74549,1,0,0:0:0:0:
329,192,74611,1,0,0:0:0:0:
402,192,74674,1,0,0:0:0:0:
36,192,74736,1,0,0:0:0:0:
109,192,74799,1,0,0:0:0:0:
182,192,74861,1,0,0:0:0:0:
256,192,74924,1,0,0:0:0:0:
329,192,74986,128,0,76986:0:0:0:0:
475,192,74986,1,0,0:0:0:0:
402,192,74986,1,0,0:0:0:0:
109,192,74986,1,0,0:0:0:0:
36,192,74986,1,0,0:0:0:0:
256,192,75236,1,0,0:0:0:0:
109,192,75236,1,0,0:0:0:0:
182,192,75361,1,0,0:0:0:0:
36,192,75361,1,0,0:0:0:0:
256,192,75486,1,0,0:0:0:0:
475,192,75486,1,0,0:0:0:0:
402,192,75486,1,0,0:0:0:0:
109,192,75611,1,0,0:0:0:0:
182,192,75611,1,0,0:0:0:0:
36,192,75861,1,0,0:0:0:0:
109,192,75861,1,0,0:0:0:0:
475,192,75986,1,0,0:0:0:0:
402,192,75986,1,0,0:0:0:0:
182,192,75986,1,0,0:0:0:0:
109,192,76236,1,0,0:0:0:0:
182,192,76236,1,0,0:0:0:0:
256,192,76361,1,0,0:0:0:0:
402,192,76361,1,0,0:0:0:0:
475,192,76486,1,0,0:0:0:0:
182,192,76486,1,0,0:0:0:0:
36,192,76486,1,0,0:0:0:0:
109,192,76611,1,0,0:0:0:0:
256,192,76611,1,0,0:0:0:0:
36,192,76861,1,0,0:0:0:0:
182,192,76861,1,0,0:0:0:0:
402,192,76986,128,0,78986:0:0:0:0:
109,192,76986,1,0,0:0:0:0:
256,192,76986,1,0,0:0:0:0:
475,192,76986,1,0,0:0:0:0:
182,192,77236,1,0,0:0:0:0:
329,192,77236,1,0,0:0:0:0:
256,192,77361,1,0,0:0:0:0:
36,192,77361,1,0,0:0:0:0:
109,192,77486,1,0,0:0:0:0:
329,192,77486,1,0,0:0:0:0:
475,192,77486,1,0,0:0:0:0:
256,192,77611,1,0,0:0:0:0:
182,192,77611,1,0,0:0:0:0:
36,192,77861,1,0,0:0:0:0:
329,192,77861,1,0,0:0:0:0:
109,192,77986,1,0,0:0:0:0:
182,192,77986,1,0,0:0:0:0:
475,192,77986,1,0,0:0:0:0:
329,192,78236,1,0,0:0:0:0:
36,192,78236,1,0,0:0:0:0:
256,192,78361,1,0,0:0:0:0:
109,192,78361,1,0,0:0:0:0:
36,192,78486,1,0,0:0:0:0:
182,192,78486,1,0,0:0:0:0:
329,192,78486,1,0,0:0:0:0:
109,192,78611,1,0,0:0:0:0:
475,192,78611,1,0,0:0:0:0:
329,192,78736,1,0,0:0:0:0:
182,192,78736,1,0,0:0:0:0:
109,192,78861,1,0,0:0:0:0:
475,192,78986,128,0,80986:0:0:0:0:
36,192,78986,1,0,0:0:0:0:
182,192,78986,1,0,0:0:0:0:
329,192,78986,1,0,0:0:0:0:
256,192,78986,1,0,0:0:0:0:
109,192,79236,1,0,0:0:0:0:
329,192,79236,1,0,0:0:0:0:
182,192,79361,1,0,0:0:0:0:
402,192,79361,1,0,0:0:0:0:
36,192,79486,1,0,0:0:0:0:
109,192,79486,1,0,0:0:0:0:
256,192,79486,1,0,0:0:0:0:
182,192,79611,1,0,0:0:0:0:
329,192,79611,1,0,0:0:0:0:
36,192,79861,1,0,0:0:0:0:
182,192,79861,1,0,0:0:0:0:
109,192,79986,1,0,0:0:0:0:
402,192,79986,1,0,0:0:0:0:
256,192,79986,1,0,0:0:0:0:
36,192,80236,1,0,0:0:0:0:
109,192,80236,1,0,0:0:0:0:
402,192,80361,1,0,0:0:0:0:
329,192,80361,1,0,0:0:0:0:
256,192,80486,1,0,0:0:0:0:
182,192,80486,1,0,0:0:0:0:
36,192,80486,1,0,0:0:0:0:
402,192,80611,1,0,0:0:0:0:
109,192,80611,1,0,0:0:0:0:
182,192,80861,1,0,0:0:0:0:
329,192,80861,1,0,0:0:0:0:
256,192,80986,128,0,81986:0:0:0:0:
36,192,80986,1,0,0:0:0:0:
109,192,80986,1,0,0:0:0:0:
402,192,80986,1,0,0:0:0:0:
36,192,81236,1,0,0:0:0:0:
182,192,81236,1,0,0:0:0:0:
475,192,81361,1,0,0:0:0:0:
329,192,81361,1,0,0:0:0:0:
36,192,81486,1,0,0:0:0:0:
109,192,81486,1,0,0:0:0:0:
182,192,81486,1,0,0:0:0:0:
402,192,81486,1,0,0:0:0:0:
329,192,81611,1,0,0:0:0:0:
475,192,81611,1,0,0:0:0:0:
402,192,81861,1,0,0:0:0:0:
329,192,81861,1,0,0:0:0:0:
36,192,81986,128,0,82486:0:0:0:0:
109,192,81986,1,0,0:0:0:0:
182,192,81986,1,0,0:0:0:0:
475,192,81986,1,0,0:0:0:0:
109,192,82299,1,0,0:0:0:0:
182,192,82361,1,0,0:0:0:0:
256,192,82424,1,0,0:0:0:0:
329,192,82486,128,0,82986:0:0:0:0:
402,192,82486,1,0,0:0:0:0:
475,192,82486,1,0,0:0:0:0:
109,192,82486,1,0,0:0:0:0:
475,192,82986,1,0,0:0:0:0:
402,192,82986,1,0,0:0:0:0:
182,192,82986,1,0,0:0:0:0:
109,192,82986,1,0,0:0:0:0:
109,192,83111,1,0,0:0:0:0:
182,192,83111,1,0,0:0:0:0:
182,192,83361,1,0,0:0:0:0:
109,192,83361,1,0,0:0:0:0:
256,192,83486,1,0,0:0:0:0:
36,192,83486,1,0,0:0:0:0:
475,192,83486,1,0,0:0:0:0:
109,192,83611,1,0,0:0:0:0:
182,192,83611,1,0,0:0:0:0:
109,192,83861,1,0,0:0:0:0:
182,192,83861,1,0,0:0:0:0:
329,192,83986,1,0,0:0:0:0:
402,192,83986,1,0,0:0:0:0:
256,192,84111,1,0,0:0:0:0:
36,192,84236,1,0,0:0:0:0:
182,192,84236,1,0,0:0:0:0:
475,192,84236,1,0,0:0:0:0:
256,192,84361,1,0,0:0:0:0:
329,192,84361,1,0,0:0:0:0:
36,192,84486,1,0,0:0:0:0:
109,192,84486,1,0,0:0:0:0:
475,192,84486,1,0,0:0:0:0:
402,192,84486,1,0,0:0:0:0:
182,192,84611,1,0,0:0:0:0:
329,192,84611,1,0,0:0:0:0:
36,192,84736,1,0,0:0:0:0:
109,192,84736,1,0,0:0:0:0:
256,192,84736,1,0,0:0:0:0:
475,192,84861,1,0,0:0:0:0:
402,192,84861,1,0,0:0:0:0:
182,192,84861,1,0,0:0:0:0:
329,192,84986,1,0,0:0:0:0:
256,192,84986,1,0,0:0:0:0:
109,192,84986,1,0,0:0:0:0:
36,192,84986,1,0,0:0:0:0:
475,192,84986,1,0,0:0:0:0:
109,192,85111,1,0,0:0:0:0:
36,192,85111,1,0,0:0:0:0:
402,192,85111,1,0,0:0:0:0:
36,192,85361,1,0,0:0:0:0:
109,192,85361,1,0,0:0:0:0:
402,192,85361,1,0,0:0:0:0:
182,192,85486,1,0,0:0:0:0:
256,192,85486,1,0,0:0:0:0:
329,192,85486,1,0,0:0:0:0:
36,192,85611,1,0,0:0:0:0:
109,192,85611,1,0,0:0:0:0:
475,192,85611,1,0,0:0:0:0:
36,192,85861,1,0,0:0:0:0:
109,192,85861,1,0,0:0:0:0:
329,192,85861,1,0,0:0:0:0:
109,192,85986,1,0,0:0:0:0:
36,192,85986,1,0,0:0:0:0:
402,192,85986,1,0,0:0:0:0:
256,192,86111,1,0,0:0:0:0:
182,192,86236,1,0,0:0:0:0:
36,192,86236,1,0,0:0:0:0:
329,192,86236,1,0,0:0:0:0:
475,192,86236,1,0,0:0:0:0:
402,192,86236,1,0,0:0:0:0:
109,192,86486,1,0,0:0:0:0:
402,192,86486,1,0,0:0:0:0:
182,192,86611,1,0,0:0:0:0:
329,192,86611,1,0,0:0:0:0:
475,192,86611,1,0,0:0:0:0:
36,192,86611,1,0,0:0:0:0:
256,192,86611,1,0,0:0:0:0:
109,192,86861,1,0,0:0:0:0:
36,192,86986,1,0,0:0:0:0:
182,192,86986,1,0,0:0:0:0:
256,192,86986,1,0,0:0:0:0:
402,192,86986,1,0,0:0:0:0:
475,192,86986,1,0,0:0:0:0:
182,192,87111,1,0,0:0:0:0:
36,192,87111,1,0,0:0:0:0:
36,192,87361,1,0,0:0:0:0:
182,192,87361,1,0,0:0:0:0:
329,192,87486,1,0,0:0:0:0:
402,192,87486,1,0,0:0:0:0:
475,192,87486,1,0,0:0:0:0:
182,192,87611,1,0,0:0:0:0:
36,192,87611,1,0,0:0:0:0:
36,192,87861,1,0,0:0:0:0:
182,192,87861,1,0,0:0:0:0:
109,192,87986,1,0,0:0:0:0:
256,192,87986,1,0,0:0:0:0:
402,192,88111,1,0,0:0:0:0:
182,192,88111,1,0,0:0:0:0:
329,192,88236,1,0,0:0:0:0:
475,192,88236,1,0,0:0:0:0:
256,192,88236,1,0,0:0:0:0:
109,192,88361,1,0,0:0:0:0:
36,192,88486,1,0,0:0:0:0:
182,192,88486,1,0,0:0:0:0:
329,192,88486,1,0,0:0:0:0:
475,192,88486,1,0,0:0:0:0:
256,192,88486,1,0,0:0:0:0:
402,192,88611,1,0,0:0:0:0:
109,192,88736,1,0,0:0:0:0:
182,192,88736,1,0,0:0:0:0:
329,192,88736,1,0,0:0:0:0:
256,192,88861,1,0,0:0:0:0:
402,192,88861,1,0,0:0:0:0:
475,192,88861,1,0,0:0:0:0:
36,192,88986,1,0,0:0:0:0:
109,192,88986,1,0,0:0:0:0:
182,192,88986,1,0,0:0:0:0:
329,192,88986,1,0,0:0:0:0:
109,192,89111,1,0,0:0:0:0:
182,192,89111,1,0,0:0:0:0:
182,192,89361,1,0,0:0:0:0:
109,192,89361,1,0,0:0:0:0:
402,192,89486,1,0,0:0:0:0:
329,192,89486,1,0,0:0:0:0:
256,192,89486,1,0,0:0:0:0:
109,192,89611,1,0,0:0:0:0:
182,192,89611,1,0,0:0:0:0:
109,192,89861,1,0,0:0:0:0:
182,192,89924,1,0,0:0:0:0:
256,192,89986,1,0,0:0:0:0:
329,192,89986,1,0,0:0:0:0:
402,192,89986,1,0,0:0:0:0:
36,192,89986,128,0,90111:0:0:0:0:
475,192,89986,1,0,0:0:0:0:
109,192,90111,128,0,90236:0:0:0:0:
182,192,90111,1,0,0:0:0:0:
182,192,90236,128,0,90361:0:0:0:0:
329,192,90236,1,0,0:0:0:0:
256,192,90361,128,0,90486:0:0:0:0:
402,192,90361,1,0,0:0:0:0:
475,192,90486,128,0,90611:0:0:0:0:
36,192,90486,1,0,0:0:0:0:
109,192,90486,1,0,0:0:0:0:
182,192,90486,1,0,0:0:0:0:
329,192,90486,1,0,0:0:0:0:
402,192,90611,128,0,90736:0:0:0:0:
256,192,90611,1,0,0:0:0:0:
329,192,90736,128,0,90861:0:0:0:0:
182,192,90736,1,0,0:0:0:0:
256,192,90861,128,0,90986:0:0:0:0:
109,192,90861,1,0,0:0:0:0:
36,192,90986,1,0,0:0:0:0:
182,192,90986,1,0,0:0:0:0:
329,192,90986,1,0,0:0:0:0:
402,192,90986,1,0,0:0:0:0:
475,192,90986,1,0,0:0:0:0:
36,192,91111,1,0,0:0:0:0:
182,192,91111,1,0,0:0:0:0:
256,192,91111,1,0,0:0:0:0:
402,192,91236,1,0,0:0:0:0:
182,192,91361,1,0,0:0:0:0:
36,192,91361,1,0,0:0:0:0:
329,192,91361,1,0,0:0:0:0:
256,192,91486,1,0,0:0:0:0:
402,192,91486,1,0,0:0:0:0:
475,192,91486,1,0,0:0:0:0:
182,192,91611,1,0,0:0:0:0:
36,192,91611,1,0,0:0:0:0:
329,192,91611,1,0,0:0:0:0:
475,192,91736,1,0,0:0:0:0:
36,192,91861,1,0,0:0:0:0:
182,192,91861,1,0,0:0:0:0:
256,192,91861,1,0,0:0:0:0:
109,192,91986,1,0,0:0:0:0:
182,192,91986,1,0,0:0:0:0:
402,192,91986,1,0,0:0:0:0:
329,192,92111,1,0,0:0:0:0:
475,192,92111,1,0,0:0:0:0:
36,192,92236,1,0,0:0:0:0:
109,192,92236,1,0,0:0:0:0:
256,192,92236,1,0,0:0:0:0:
329,192,92361,1,0,0:0:0:0:
402,192,92486,1,0,0:0:0:0:
475,192,92486,1,0,0:0:0:0:
256,192,92486,1,0,0:0:0:0:
182,192,92486,1,0,0:0:0:0:
36,192,92486,1,0,0:0:0:0:
109,192,92611,1,0,0:0:0:0:
256,192,92736,1,0,0:0:0:0:
329,192,92736,1,0,0:0:0:0:
402,192,92736,1,0,0:0:0:0:
329,192,92861,1,0,0:0:0:0:
402,192,92861,1,0,0:0:0:0:
475,192,92861,1,0,0:0:0:0:
256,192,92986,1,0,0:0:0:0:
182,192,92986,1,0,0:0:0:0:
109,192,92986,1,0,0:0:0:0:
36,192,92986,1,0,0:0:0:0:
36,192,93111,1,0,0:0:0:0:
182,192,93111,1,0,0:0:0:0:
475,192,93111,1,0,0:0:0:0:
402,192,93236,1,0,0:0:0:0:
182,192,93361,1,0,0:0:0:0:
36,192,93361,1,0,0:0:0:0:
329,192,93361,1,0,0:0:0:0:
475,192,93486,1,0,0:0:0:0:
402,192,93486,1,0,0:0:0:0:
109,192,93486,1,0,0:0:0:0:
36,192,93611,1,0,0:0:0:0:
182,192,93611,1,0,0:0:0:0:
256,192,93611,1,0,0:0:0:0:
402,192,93736,1,0,0:0:0:0:
182,192,93861,1,0,0:0:0:0:
36,192,93861,1,0,0:0:0:0:
329,192,93861,1,0,0:0:0:0:
182,192,93986,1,0,0:0:0:0:
36,192,93986,1,0,0:0:0:0:
475,192,93986,1,0,0:0:0:0:
329,192,94111,1,0,0:0:0:0:
475,192,94236,1,0,0:0:0:0:
402,192,94236,1,0,0:0:0:0:
256,192,94236,1,0,0:0:0:0:
182,192,94236,1,0,0:0:0:0:
36,192,94236,1,0,0:0:0:0:
109,192,94361,1,0,0:0:0:0:
329,192,94486,1,0,0:0:0:0:
256,192,94486,1,0,0:0:0:0:
182,192,94486,1,0,0:0:0:0:
475,192,94486,1,0,0:0:0:0:
36,192,94611,1,0,0:0:0:0:
402,192,94611,1,0,0:0:0:0:
109,192,94611,1,0,0:0:0:0:
475,192,94611,1,0,0:0:0:0:
329,192,94736,1,0,0:0:0:0:
182,192,94861,1,0,0:0:0:0:
256,192,94986,1,0,0:0:0:0:
36,192,94986,1,0,0:0:0:0:
109,192,94986,1,0,0:0:0:0:
402,192,94986,1,0,0:0:0:0:
475,192,94986,1,0,0:0:0:0:
109,192,95111,1,0,0:0:0:0:
36,192,95111,1,0,0:0:0:0:
329,192,95111,1,0,0:0:0:0:
256,192,95236,1,0,0:0:0:0:
36,192,95361,1,0,0:0:0:0:
109,192,95361,1,0,0:0:0:0:
475,192,95361,1,0,0:0:0:0:
329,192,95486,1,0,0:0:0:0:
402,192,95486,1,0,0:0:0:0:
182,192,95486,1,0,0:0:0:0:
109,192,95611,1,0,0:0:0:0:
36,192,95611,1,0,0:0:0:0:
475,192,95611,1,0,0:0:0:0:
256,192,95736,1,0,0:0:0:0:
36,192,95861,1,0,0:0:0:0:
109,192,95861,1,0,0:0:0:0:
329,192,95861,1,0,0:0:0:0:
109,192,95986,1,0,0:0:0:0:
182,192,95986,1,0,0:0:0:0:
475,192,95986,1,0,0:0:0:0:
329,192,96111,1,0,0:0:0:0:
109,192,96236,1,0,0:0:0:0:
475,192,96236,1,0,0:0:0:0:
36,192,96236,1,0,0:0:0:0:
256,192,96361,1,0,0:0:0:0:
475,192,96486,1,0,0:0:0:0:
329,192,96486,1,0,0:0:0:0:
182,192,96486,1,0,0:0:0:0:
36,192,96486,1,0,0:0:0:0:
256,192,96611,1,0,0:0:0:0:
475,192,96736,1,0,0:0:0:0:
329,192,96736,1,0,0:0:0:0:
182,192,96736,1,0,0:0:0:0:
109,192,96861,1,0,0:0:0:0:
256,192,96861,1,0,0:0:0:0:
402,192,96861,1,0,0:0:0:0:
36,192,96986,1,0,0:0:0:0:
182,192,96986,1,0,0:0:0:0:
475,192,96986,1,0,0:0:0:0:
402,192,97111,1,0,0:0:0:0:
256,192,97111,1,0,0:0:0:0:
182,192,97111,1,0,0:0:0:0:
36,192,97111,1,0,0:0:0:0:
329,192,97236,1,0,0:0:0:0:
36,192,97361,1,0,0:0:0:0:
182,192,97361,1,0,0:0:0:0:
256,192,97361,1,0,0:0:0:0:
475,192,97361,1,0,0:0:0:0:
329,192,97486,1,0,0:0:0:0:
36,192,97611,1,0,0:0:0:0:
182,192,97611,1,0,0:0:0:0:
475,192,97611,1,0,0:0:0:0:
109,192,97611,1,0,0:0:0:0:
182,192,97736,1,0,0:0:0:0:
36,192,97736,1,0,0:0:0:0:
475,192,97736,1,0,0:0:0:0:
109,192,97736,1,0,0:0:0:0:
36,192,97861,1,0,0:0:0:0:
182,192,97861,1,0,0:0:0:0:
475,192,97861,1,0,0:0:0:0:
109,192,97861,1,0,0:0:0:0:
182,192,97986,1,0,0:0:0:0:
36,192,97986,1,0,0:0:0:0:
475,192,97986,1,0,0:0:0:0:
109,192,97986,1,0,0:0:0:0:
256,192,98486,1,0,0:0:0:0:
109,192,98986,5,0,0:0:0:0:
329,192,98986,1,0,0:0:0:0:
475,192,98986,1,0,0:0:0:0:
182,192,98986,1,0,0:0:0:0:
36,192,98986,128,0,99361:0:0:0:0:
402,192,99111,1,0,0:0:0:0:
256,192,99236,1,0,0:0:0:0:
475,192,99361,128,0,99736:0:0:0:0:
182,192,99361,1,0,0:0:0:0:
402,192,99486,1,0,0:0:0:0:
329,192,99486,1,0,0:0:0:0:
36,192,99486,1,0,0:0:0:0:
109,192,99611,1,0,0:0:0:0:
256,192,99736,128,0,99986:0:0:0:0:
182,192,99736,1,0,0:0:0:0:
402,192,99861,1,0,0:0:0:0:
36,192,99986,128,0,100361:0:0:0:0:
109,192,99986,1,0,0:0:0:0:
329,192,99986,1,0,0:0:0:0:
475,192,100111,1,0,0:0:0:0:
402,192,100111,1,0,0:0:0:0:
182,192,100111,1,0,0:0:0:0:
256,192,100236,1,0,0:0:0:0:
329,192,100361,128,0,100736:0:0:0:0:
109,192,100361,1,0,0:0:0:0:
182,192,100486,1,0,0:0:0:0:
256,192,100486,1,0,0:0:0:0:
475,192,100486,1,0,0:0:0:0:
109,192,100611,1,0,0:0:0:0:
182,192,100736,128,0,100986:0:0:0:0:
402,192,100736,1,0,0:0:0:0:
256,192,100861,1,0,0:0:0:0:
36,192,100986,128,0,101361:0:0:0:0:
475,192,100986,1,0,0:0:0:0:
329,192,100986,1,0,0:0:0:0:
256,192,101111,1,0,0:0:0:0:
109,192,101236,1,0,0:0:0:0:
475,192,101361,128,0,101736:0:0:0:0:
329,192,101361,1,0,0:0:0:0:
109,192,101486,1,0,0:0:0:0:
182,192,101486,1,0,0:0:0:0:
402,192,101486,1,0,0:0:0:0:
36,192,101611,1,0,0:0:0:0:
256,192,101736,128,0,101986:0:0:0:0:
402,192,101736,1,0,0:0:0:0:
182,192,101861,1,0,0:0:0:0:
36,192,101986,128,0,102361:0:0:0:0:
109,192,101986,1,0,0:0:0:0:
402,192,101986,1,0,0:0:0:0:
329,192,102111,1,0,0:0:0:0:
475,192,102111,1,0,0:0:0:0:
182,192,102111,1,0,0:0:0:0:
256,192,102236,1,0,0:0:0:0:
329,192,102361,128,0,102736:0:0:0:0:
182,192,102361,1,0,0:0:0:0:
109,192,102486,1,0,0:0:0:0:
256,192,102486,1,0,0:0:0:0:
475,192,102486,1,0,0:0:0:0:
402,192,102611,1,0,0:0:0:0:
182,192,102736,128,0,102986:0:0:0:0:
256,192,102736,1,0,0:0:0:0:
109,192,102861,1,0,0:0:0:0:
36,192,102986,128,0,103361:0:0:0:0:
256,192,102986,1,0,0:0:0:0:
329,192,102986,1,0,0:0:0:0:
402,192,102986,1,0,0:0:0:0:
475,192,102986,1,0,0:0:0:0:
109,192,103111,1,0,0:0:0:0:
329,192,103236,1,0,0:0:0:0:
475,192,103361,128,0,103736:0:0:0:0:
256,192,103361,1,0,0:0:0:0:
109,192,103486,1,0,0:0:0:0:
182,192,103486,1,0,0:0:0:0:
402,192,103486,1,0,0:0:0:0:
329,192,103611,1,0,0:0:0:0:
256,192,103736,128,0,103986:0:0:0:0:
109,192,103736,1,0,0:0:0:0:
182,192,103861,1,0,0:0:0:0:
36,192,103986,128,0,104361:0:0:0:0:
475,192,103986,1,0,0:0:0:0:
109,192,103986,1,0,0:0:0:0:
402,192,104111,1,0,0:0:0:0:
329,192,104111,1,0,0:0:0:0:
182,192,104111,1,0,0:0:0:0:
256,192,104236,1,0,0:0:0:0:
329,192,104361,128,0,104736:0:0:0:0:
109,192,104361,1,0,0:0:0:0:
256,192,104486,1,0,0:0:0:0:
402,192,104486,1,0,0:0:0:0:
475,192,104486,1,0,0:0:0:0:
36,192,104611,1,0,0:0:0:0:
182,192,104736,128,0,104986:0:0:0:0:
109,192,104736,1,0,0:0:0:0:
475,192,104861,1,0,0:0:0:0:
36,192,104986,128,0,105361:0:0:0:0:
402,192,104986,1,0,0:0:0:0:
256,192,104986,1,0,0:0:0:0:
109,192,105111,1,0,0:0:0:0:
329,192,105236,1,0,0:0:0:0:
475,192,105361,128,0,105736:0:0:0:0:
182,192,105361,1,0,0:0:0:0:
402,192,105486,1,0,0:0:0:0:
256,192,105486,1,0,0:0:0:0:
109,192,105486,1,0,0:0:0:0:
36,192,105611,1,0,0:0:0:0:
256,192,105736,128,0,105986:0:0:0:0:
182,192,105736,1,0,0:0:0:0:
402,192,105861,1,0,0:0:0:0:
36,192,105986,1,0,0:0:0:0:
182,192,105986,1,0,0:0:0:0:
329,192,105986,1,0,0:0:0:0:
475,192,105986,1,0,0:0:0:0:
329,192,106111,1,0,0:0:0:0:
182,192,106111,1,0,0:0:0:0:
36,192,106111,1,0,0:0:0:0:
475,192,106111,1,0,0:0:0:0:
109,192,106236,1,0,0:0:0:0:
36,192,106361,1,0,0:0:0:0:
182,192,106361,1,0,0:0:0:0:
329,192,106361,1,0,0:0:0:0:
475,192,106361,1,0,0:0:0:0:
402,192,106486,1,0,0:0:0:0:
36,192,106611,1,0,0:0:0:0:
182,192,106611,1,0,0:0:0:0:
329,192,106611,1,0,0:0:0:0:
475,192,106611,1,0,0:0:0:0:
475,192,106736,1,0,0:0:0:0:
329,192,106736,1,0,0:0:0:0:
182,192,106736,1,0,0:0:0:0:
36,192,106736,1,0,0:0:0:0:
36,192,106861,1,0,0:0:0:0:
182,192,106861,1,0,0:0:0:0:
329,192,106861,1,0,0:0:0:0:
475,192,106861,1,0,0:0:0:0:
475,192,106986,128,0,107361:0:0:0:0:
36,192,106986,128,0,107361:0:0:0:0:
182,192,106986,1,0,0:0:0:0:
329,192,106986,1,0,0:0:0:0:
256,192,106986,1,0,0:0:0:0:
402,192,107111,1,0,0:0:0:0:
182,192,107236,1,0,0:0:0:0:
329,192,107361,128,0,107736:0:0:0:0:
109,192,107361,128,0,107736:0:0:0:0:
256,192,107361,1,0,0:0:0:0:
475,192,107486,1,0,0:0:0:0:
402,192,107486,1,0,0:0:0:0:
182,192,107486,1,0,0:0:0:0:
36,192,107611,1,0,0:0:0:0:
402,192,107736,128,0,107986:0:0:0:0:
182,192,107736,128,0,107986:0:0:0:0:
256,192,107736,1,0,0:0:0:0:
36,192,107861,1,0,0:0:0:0:
475,192,107986,128,0,108361:0:0:0:0:
109,192,107986,128,0,108361:0:0:0:0:
329,192,107986,1,0,0:0:0:0:
256,192,107986,1,0,0:0:0:0:
36,192,108111,1,0,0:0:0:0:
182,192,108111,1,0,0:0:0:0:
402,192,108111,1,0,0:0:0:0:
256,192,108236,1,0,0:0:0:0:
329,192,108361,128,0,108736:0:0:0:0:
182,192,108361,128,0,108736:0:0:0:0:
402,192,108361,1,0,0:0:0:0:
36,192,108486,1,0,0:0:0:0:
475,192,108486,1,0,0:0:0:0:
256,192,108486,1,0,0:0:0:0:
109,192,108611,1,0,0:0:0:0:
402,192,108736,128,0,108986:0:0:0:0:
256,192,108736,128,0,108986:0:0:0:0:
36,192,108736,1,0,0:0:0:0:
329,192,108861,1,0,0:0:0:0:
475,192,108986,128,0,109361:0:0:0:0:
109,192,108986,128,0,109361:0:0:0:0:
182,192,108986,1,0,0:0:0:0:
36,192,108986,1,0,0:0:0:0:
329,192,109111,1,0,0:0:0:0:
256,192,109236,1,0,0:0:0:0:
329,192,109361,128,0,109736:0:0:0:0:
182,192,109361,128,0,109736:0:0:0:0:
402,192,109361,1,0,0:0:0:0:
36,192,109486,1,0,0:0:0:0:
109,192,109486,1,0,0:0:0:0:
256,192,109486,1,0,0:0:0:0:
475,192,109611,1,0,0:0:0:0:
402,192,109736,128,0,109986:0:0:0:0:
256,192,109736,128,0,109986:0:0:0:0:
36,192,109736,1,0,0:0:0:0:
329,192,109861,1,0,0:0:0:0:
475,192,109986,128,0,110361:0:0:0:0:
182,192,109986,128,0,110361:0:0:0:0:
36,192,109986,1,0,0:0:0:0:
109,192,109986,1,0,0:0:0:0:
256,192,110111,1,0,0:0:0:0:
402,192,110111,1,0,0:0:0:0:
329,192,110111,1,0,0:0:0:0:
36,192,110236,1,0,0:0:0:0:
329,192,110361,128,0,110736:0:0:0:0:
109,192,110361,128,0,110736:0:0:0:0:
402,192,110361,1,0,0:0:0:0:
256,192,110486,1,0,0:0:0:0:
182,192,110486,1,0,0:0:0:0:
475,192,110486,1,0,0:0:0:0:
36,192,110611,1,0,0:0:0:0:
402,192,110736,128,0,110986:0:0:0:0:
182,192,110736,128,0,110986:0:0:0:0:
256,192,110736,1,0,0:0:0:0:
475,192,110861,1,0,0:0:0:0:
475,192,110986,128,0,111361:0:0:0:0:
36,192,110986,128,0,111361:0:0:0:0:
109,192,110986,1,0,0:0:0:0:
256,192,110986,1,0,0:0:0:0:
329,192,110986,1,0,0:0:0:0:
182,192,111111,1,0,0:0:0:0:
256,192,111236,1,0,0:0:0:0:
329,192,111361,128,0,111736:0:0:0:0:
182,192,111361,128,0,111486:0:0:0:0:
402,192,111361,1,0,0:0:0:0:
256,192,111486,1,0,0:0:0:0:
109,192,111486,1,0,0:0:0:0:
475,192,111486,1,0,0:0:0:0:
182,192,111611,1,0,0:0:0:0:
402,192,111736,128,0,111986:0:0:0:0:
36,192,111736,128,0,111986:0:0:0:0:
256,192,111736,1,0,0:0:0:0:
182,192,111861,1,0,0:0:0:0:
475,192,111986,128,0,112361:0:0:0:0:
109,192,111986,128,0,112361:0:0:0:0:
329,192,111986,1,0,0:0:0:0:
256,192,111986,1,0,0:0:0:0:
182,192,112111,1,0,0:0:0:0:
36,192,112111,1,0,0:0:0:0:
402,192,112111,1,0,0:0:0:0:
256,192,112236,1,0,0:0:0:0:
329,192,112361,128,0,112736:0:0:0:0:
182,192,112361,128,0,112736:0:0:0:0:
402,192,112361,1,0,0:0:0:0:
36,192,112486,1,0,0:0:0:0:
109,192,112486,1,0,0:0:0:0:
256,192,112486,1,0,0:0:0:0:
475,192,112611,1,0,0:0:0:0:
402,192,112736,128,0,112986:0:0:0:0:
256,192,112736,128,0,112986:0:0:0:0:
109,192,112736,1,0,0:0:0:0:
182,192,112861,1,0,0:0:0:0:
475,192,112986,128,0,113361:0:0:0:0:
36,192,112986,128,0,113986:0:0:0:0:
329,192,112986,1,0,0:0:0:0:
109,192,112986,1,0,0:0:0:0:
182,192,113111,1,0,0:0:0:0:
402,192,113236,1,0,0:0:0:0:
329,192,113361,128,0,113736:0:0:0:0:
182,192,113361,1,0,0:0:0:0:
109,192,113486,1,0,0:0:0:0:
256,192,113486,1,0,0:0:0:0:
475,192,113486,1,0,0:0:0:0:
182,192,113611,1,0,0:0:0:0:
402,192,113736,128,0,113986:0:0:0:0:
256,192,113736,1,0,0:0:0:0:
475,192,113861,1,0,0:0:0:0:
329,192,113986,1,0,0:0:0:0:
256,192,113986,1,0,0:0:0:0:
182,192,113986,1,0,0:0:0:0:
109,192,113986,1,0,0:0:0:0:
109,192,114111,1,0,0:0:0:0:
182,192,114111,1,0,0:0:0:0:
256,192,114111,1,0,0:0:0:0:
329,192,114111,1,0,0:0:0:0:
475,192,114236,1,0,0:0:0:0:
329,192,114361,1,0,0:0:0:0:
256,192,114361,1,0,0:0:0:0:
182,192,114361,1,0,0:0:0:0:
109,192,114361,1,0,0:0:0:0:
36,192,114486,1,0,0:0:0:0:
109,192,114611,1,0,0:0:0:0:
182,192,114611,1,0,0:0:0:0:
256,192,114611,1,0,0:0:0:0:
329,192,114611,1,0,0:0:0:0:
109,192,114736,1,0,0:0:0:0:
182,192,114736,1,0,0:0:0:0:
256,192,114736,1,0,0:0:0:0:
329,192,114736,1,0,0:0:0:0:
329,192,114861,1,0,0:0:0:0:
256,192,114861,1,0,0:0:0:0:
182,192,114861,1,0,0:0:0:0:
109,192,114861,1,0,0:0:0:0:
109,192,114986,1,0,0:0:0:0:
256,192,114986,1,0,0:0:0:0:
329,192,114986,1,0,0:0:0:0:
475,192,114986,1,0,0:0:0:0:
36,192,114986,128,0,115986:0:0:0:0:
402,192,114986,1,0,0:0:0:0:
182,192,115111,1,0,0:0:0:0:
109,192,115236,128,0,115361:0:0:0:0:
256,192,115236,1,0,0:0:0:0:
182,192,115361,128,0,115486:0:0:0:0:
329,192,115361,1,0,0:0:0:0:
256,192,115486,128,0,115611:0:0:0:0:
475,192,115486,1,0,0:0:0:0:
402,192,115486,1,0,0:0:0:0:
109,192,115486,1,0,0:0:0:0:
329,192,115611,128,0,115736:0:0:0:0:
256,192,115736,128,0,115861:0:0:0:0:
475,192,115736,1,0,0:0:0:0:
182,192,115861,128,0,115986:0:0:0:0:
109,192,115861,1,0,0:0:0:0:
475,192,115986,128,0,116986:0:0:0:0:
329,192,115986,1,0,0:0:0:0:
36,192,116111,1,0,0:0:0:0:
109,192,116111,1,0,0:0:0:0:
182,192,116111,1,0,0:0:0:0:
402,192,116236,128,0,116361:0:0:0:0:
256,192,116236,1,0,0:0:0:0:
329,192,116361,128,0,116486:0:0:0:0:
109,192,116361,1,0,0:0:0:0:
256,192,116486,128,0,116611:0:0:0:0:
36,192,116486,1,0,0:0:0:0:
402,192,116486,1,0,0:0:0:0:
182,192,116611,128,0,116736:0:0:0:0:
329,192,116611,1,0,0:0:0:0:
109,192,116611,1,0,0:0:0:0:
256,192,116736,128,0,116861:0:0:0:0:
36,192,116736,1,0,0:0:0:0:
402,192,116736,1,0,0:0:0:0:
329,192,116861,128,0,116986:0:0:0:0:
182,192,116861,1,0,0:0:0:0:
109,192,116986,128,0,117986:0:0:0:0:
36,192,116986,1,0,0:0:0:0:
256,192,116986,1,0,0:0:0:0:
402,192,116986,1,0,0:0:0:0:
329,192,117111,1,0,0:0:0:0:
182,192,117236,128,0,117361:0:0:0:0:
475,192,117236,1,0,0:0:0:0:
256,192,117361,128,0,117486:0:0:0:0:
402,192,117361,1,0,0:0:0:0:
329,192,117486,128,0,117611:0:0:0:0:
36,192,117486,1,0,0:0:0:0:
182,192,117486,1,0,0:0:0:0:
475,192,117486,1,0,0:0:0:0:
402,192,117611,128,0,117736:0:0:0:0:
329,192,117736,128,0,117861:0:0:0:0:
36,192,117736,1,0,0:0:0:0:
256,192,117861,128,0,117986:0:0:0:0:
182,192,117861,1,0,0:0:0:0:
402,192,117986,128,0,118986:0:0:0:0:
475,192,117986,1,0,0:0:0:0:
329,192,117986,1,0,0:0:0:0:
36,192,118111,1,0,0:0:0:0:
182,192,118111,1,0,0:0:0:0:
109,192,118111,1,0,0:0:0:0:
329,192,118236,128,0,118361:0:0:0:0:
475,192,118236,1,0,0:0:0:0:
256,192,118361,128,0,118486:0:0:0:0:
109,192,118361,1,0,0:0:0:0:
182,192,118486,128,0,118611:0:0:0:0:
475,192,118486,1,0,0:0:0:0:
329,192,118486,1,0,0:0:0:0:
36,192,118486,1,0,0:0:0:0:
109,192,118611,128,0,118736:0:0:0:0:
256,192,118611,1,0,0:0:0:0:
182,192,118736,128,0,118861:0:0:0:0:
329,192,118736,1,0,0:0:0:0:
256,192,118861,128,0,118986:0:0:0:0:
475,192,118861,1,0,0:0:0:0:
329,192,118986,128,0,119986:0:0:0:0:
36,192,118986,1,0,0:0:0:0:
109,192,118986,1,0,0:0:0:0:
182,192,118986,1,0,0:0:0:0:
256,192,119111,1,0,0:0:0:0:
36,192,119236,128,0,119361:0:0:0:0:
475,192,119236,1,0,0:0:0:0:
109,192,119361,128,0,119486:0:0:0:0:
256,192,119361,1,0,0:0:0:0:
182,192,119486,128,0,119611:0:0:0:0:
402,192,119486,1,0,0:0:0:0:
36,192,119486,1,0,0:0:0:0:
475,192,119486,1,0,0:0:0:0:
256,192,119611,128,0,119736:0:0:0:0:
182,192,119736,128,0,119861:0:0:0:0:
475,192,119736,1,0,0:0:0:0:
109,192,119861,128,0,119986:0:0:0:0:
36,192,119861,1,0,0:0:0:0:
182,192,119986,128,0,120986:0:0:0:0:
256,192,119986,1,0,0:0:0:0:
402,192,119986,1,0,0:0:0:0:
36,192,120111,1,0,0:0:0:0:
109,192,120111,1,0,0:0:0:0:
329,192,120111,1,0,0:0:0:0:
475,192,120236,128,0,120361:0:0:0:0:
256,192,120236,1,0,0:0:0:0:
402,192,120361,128,0,120486:0:0:0:0:
36,192,120361,1,0,0:0:0:0:
329,192,120486,128,0,120611:0:0:0:0:
109,192,120486,1,0,0:0:0:0:
475,192,120486,1,0,0:0:0:0:
256,192,120611,128,0,120736:0:0:0:0:
36,192,120611,1,0,0:0:0:0:
402,192,120611,1,0,0:0:0:0:
329,192,120736,128,0,120861:0:0:0:0:
109,192,120736,1,0,0:0:0:0:
475,192,120736,1,0,0:0:0:0:
402,192,120861,128,0,120986:0:0:0:0:
256,192,120861,1,0,0:0:0:0:
475,192,120986,128,0,121986:0:0:0:0:
36,192,120986,1,0,0:0:0:0:
329,192,120986,1,0,0:0:0:0:
109,192,121111,1,0,0:0:0:0:
36,192,121236,128,0,121361:0:0:0:0:
256,192,121236,1,0,0:0:0:0:
182,192,121361,128,0,121486:0:0:0:0:
402,192,121361,1,0,0:0:0:0:
329,192,121486,128,0,121611:0:0:0:0:
256,192,121486,1,0,0:0:0:0:
109,192,121486,1,0,0:0:0:0:
36,192,121486,1,0,0:0:0:0:
402,192,121611,128,0,121736:0:0:0:0:
329,192,121736,128,0,121861:0:0:0:0:
182,192,121861,128,0,121986:0:0:0:0:
402,192,121861,1,0,0:0:0:0:
109,192,121924,1,0,0:0:0:0:
36,192,121986,128,0,122736:0:0:0:0:
329,192,121986,1,0,0:0:0:0:
256,192,121986,1,0,0:0:0:0:
475,192,122111,1,0,0:0:0:0:
402,192,122111,1,0,0:0:0:0:
182,192,122111,1,0,0:0:0:0:
109,192,122236,128,0,122361:0:0:0:0:
329,192,122236,1,0,0:0:0:0:
256,192,122361,128,0,122486:0:0:0:0:
475,192,122361,1,0,0:0:0:0:
402,192,122486,128,0,122611:0:0:0:0:
109,192,122486,1,0,0:0:0:0:
329,192,122486,1,0,0:0:0:0:
182,192,122486,1,0,0:0:0:0:
475,192,122611,128,0,122736:0:0:0:0:
256,192,122611,1,0,0:0:0:0:
329,192,122736,128,0,122861:0:0:0:0:
109,192,122736,1,0,0:0:0:0:
182,192,122736,1,0,0:0:0:0:
402,192,122736,1,0,0:0:0:0:
182,192,122861,1,0,0:0:0:0:
256,192,122861,1,0,0:0:0:0:
475,192,122861,1,0,0:0:0:0:
36,192,122986,128,0,123986:0:0:0:0:
109,192,122986,1,0,0:0:0:0:
256,192,122986,1,0,0:0:0:0:
329,192,122986,1,0,0:0:0:0:
475,192,122986,1,0,0:0:0:0:
402,192,123111,1,0,0:0:0:0:
475,192,123236,128,0,123361:0:0:0:0:
182,192,123236,1,0,0:0:0:0:
402,192,123361,128,0,123486:0:0:0:0:
256,192,123361,1,0,0:0:0:0:
329,192,123486,128,0,123611:0:0:0:0:
109,192,123486,1,0,0:0:0:0:
182,192,123486,1,0,0:0:0:0:
475,192,123486,1,0,0:0:0:0:
256,192,123611,128,0,123736:0:0:0:0:
402,192,123611,1,0,0:0:0:0:
329,192,123736,128,0,123861:0:0:0:0:
109,192,123736,1,0,0:0:0:0:
402,192,123861,128,0,123986:0:0:0:0:
182,192,123861,1,0,0:0:0:0:
475,192,123986,128,0,124986:0:0:0:0:
329,192,123986,1,0,0:0:0:0:
256,192,123986,1,0,0:0:0:0:
109,192,124111,1,0,0:0:0:0:
36,192,124236,128,0,124361:0:0:0:0:
402,192,124236,1,0,0:0:0:0:
109,192,124361,128,0,124486:0:0:0:0:
256,192,124361,1,0,0:0:0:0:
182,192,124486,128,0,124611:0:0:0:0:
402,192,124486,1,0,0:0:0:0:
36,192,124486,1,0,0:0:0:0:
329,192,124486,1,0,0:0:0:0:
256,192,124611,128,0,124736:0:0:0:0:
109,192,124611,1,0,0:0:0:0:
182,192,124736,128,0,124861:0:0:0:0:
402,192,124736,1,0,0:0:0:0:
109,192,124861,128,0,124986:0:0:0:0:
256,192,124861,1,0,0:0:0:0:
329,192,124986,128,0,125486:0:0:0:0:
36,192,124986,1,0,0:0:0:0:
402,192,124986,1,0,0:0:0:0:
182,192,125111,1,0,0:0:0:0:
36,192,125236,128,0,125361:0:0:0:0:
256,192,125236,1,0,0:0:0:0:
109,192,125361,128,0,125486:0:0:0:0:
475,192,125361,1,0,0:0:0:0:
182,192,125486,128,0,125986:0:0:0:0:
402,192,125486,128,0,125611:0:0:0:0:
256,192,125486,1,0,0:0:0:0:
36,192,125486,1,0,0:0:0:0:
475,192,125611,128,0,125736:0:0:0:0:
329,192,125611,1,0,0:0:0:0:
402,192,125736,128,0,125861:0:0:0:0:
109,192,125736,1,0,0:0:0:0:
329,192,125861,128,0,125986:0:0:0:0:
256,192,125861,1,0,0:0:0:0:
475,192,125986,128,0,126486:0:0:0:0:
36,192,125986,1,0,0:0:0:0:
109,192,125986,1,0,0:0:0:0:
182,192,126111,1,0,0:0:0:0:
256,192,126111,1,0,0:0:0:0:
329,192,126111,1,0,0:0:0:0:
402,192,126236,128,0,126361:0:0:0:0:
109,192,126236,1,0,0:0:0:0:
182,192,126361,128,0,126486:0:0:0:0:
36,192,126361,1,0,0:0:0:0:
329,192,126486,128,0,126986:0:0:0:0:
109,192,126486,128,0,126611:0:0:0:0:
256,192,126486,1,0,0:0:0:0:
402,192,126486,1,0,0:0:0:0:
36,192,126611,128,0,126736:0:0:0:0:
182,192,126611,1,0,0:0:0:0:
109,192,126736,128,0,126861:0:0:0:0:
475,192,126736,1,0,0:0:0:0:
182,192,126861,128,0,126986:0:0:0:0:
256,192,126861,1,0,0:0:0:0:
402,192,126861,1,0,0:0:0:0:
475,192,126986,128,0,127736:0:0:0:0:
402,192,126986,1,0,0:0:0:0:
109,192,126986,1,0,0:0:0:0:
36,192,126986,1,0,0:0:0:0:
256,192,127111,1,0,0:0:0:0:
109,192,127236,128,0,127361:0:0:0:0:
329,192,127236,1,0,0:0:0:0:
182,192,127361,128,0,127486:0:0:0:0:
402,192,127361,1,0,0:0:0:0:
329,192,127486,128,0,127611:0:0:0:0:
256,192,127486,1,0,0:0:0:0:
109,192,127486,1,0,0:0:0:0:
36,192,127486,1,0,0:0:0:0:
402,192,127611,128,0,127736:0:0:0:0:
182,192,127611,1,0,0:0:0:0:
256,192,127736,128,0,127986:0:0:0:0:
329,192,127736,128,0,127861:0:0:0:0:
36,192,127736,1,0,0:0:0:0:
182,192,127861,128,0,127986:0:0:0:0:
402,192,127861,1,0,0:0:0:0:
36,192,127986,128,0,128986:0:0:0:0:
475,192,127986,1,0,0:0:0:0:
329,192,127986,1,0,0:0:0:0:
109,192,128111,1,0,0:0:0:0:
402,192,128236,128,0,128361:0:0:0:0:
256,192,128236,1,0,0:0:0:0:
329,192,128361,128,0,128486:0:0:0:0:
109,192,128361,1,0,0:0:0:0:
182,192,128486,128,0,128611:0:0:0:0:
256,192,128486,1,0,0:0:0:0:
402,192,128486,1,0,0:0:0:0:
475,192,128486,1,0,0:0:0:0:
109,192,128611,128,0,128736:0:0:0:0:
329,192,128611,1,0,0:0:0:0:
182,192,128736,128,0,128861:0:0:0:0:
475,192,128736,1,0,0:0:0:0:
329,192,128861,128,0,128986:0:0:0:0:
402,192,128861,1,0,0:0:0:0:
256,192,128924,1,0,0:0:0:0:
109,192,128986,128,0,129111:0:0:0:0:
402,192,128986,1,0,0:0:0:0:
475,192,128986,1,0,0:0:0:0:
329,192,129049,1,0,0:0:0:0:
256,192,129049,1,0,0:0:0:0:
182,192,129111,128,0,129236:0:0:0:0:
402,192,129111,1,0,0:0:0:0:
475,192,129174,1,0,0:0:0:0:
256,192,129236,128,0,129361:0:0:0:0:
402,192,129236,1,0,0:0:0:0:
36,192,129299,1,0,0:0:0:0:
329,192,129361,128,0,129486:0:0:0:0:
109,192,129361,1,0,0:0:0:0:
182,192,129424,1,0,0:0:0:0:
402,192,129486,128,0,129611:0:0:0:0:
256,192,129486,1,0,0:0:0:0:
109,192,129486,1,0,0:0:0:0:
182,192,129549,1,0,0:0:0:0:
36,192,129549,1,0,0:0:0:0:
329,192,129611,128,0,129736:0:0:0:0:
109,192,129611,1,0,0:0:0:0:
475,192,129674,1,0,0:0:0:0:
256,192,129736,128,0,129861:0:0:0:0:
402,192,129736,1,0,0:0:0:0:
36,192,129799,1,0,0:0:0:0:
182,192,129861,128,0,129986:0:0:0:0:
109,192,129861,1,0,0:0:0:0:
329,192,129924,1,0,0:0:0:0:
109,192,129986,1,0,0:0:0:0:
256,192,129986,1,0,0:0:0:0:
402,192,129986,1,0,0:0:0:0:
36,192,130986,1,0,0:0:0:0:
182,192,130986,1,0,0:0:0:0:
256,192,130986,1,0,0:0:0:0:
329,192,130986,1,0,0:0:0:0:
109,192,130986,128,0,132986:0:0:0:0:
475,192,130986,128,0,131236:0:0:0:0:
402,192,131236,128,0,131486:0:0:0:0:
256,192,131236,1,0,0:0:0:0:
182,192,131361,1,0,0:0:0:0:
329,192,131486,128,0,131736:0:0:0:0:
36,192,131486,1,0,0:0:0:0:
256,192,131486,1,0,0:0:0:0:
475,192,131486,1,0,0:0:0:0:
402,192,131611,1,0,0:0:0:0:
256,192,131736,128,0,132236:0:0:0:0:
182,192,131861,1,0,0:0:0:0:
475,192,131986,1,0,0:0:0:0:
402,192,131986,1,0,0:0:0:0:
329,192,131986,1,0,0:0:0:0:
402,192,132236,128,0,132486:0:0:0:0:
182,192,132236,1,0,0:0:0:0:
329,192,132361,1,0,0:0:0:0:
256,192,132486,128,0,132736:0:0:0:0:
36,192,132486,1,0,0:0:0:0:
182,192,132486,1,0,0:0:0:0:
475,192,132486,1,0,0:0:0:0:
329,192,132611,1,0,0:0:0:0:
36,192,132736,128,0,133236:0:0:0:0:
402,192,132861,1,0,0:0:0:0:
182,192,132986,128,0,134986:0:0:0:0:
256,192,132986,1,0,0:0:0:0:
329,192,132986,1,0,0:0:0:0:
475,192,132986,1,0,0:0:0:0:
109,192,133236,128,0,133486:0:0:0:0:
475,192,133236,1,0,0:0:0:0:
402,192,133361,1,0,0:0:0:0:
256,192,133486,128,0,133736:0:0:0:0:
475,192,133486,1,0,0:0:0:0:
329,192,133486,1,0,0:0:0:0:
36,192,133486,1,0,0:0:0:0:
109,192,133611,1,0,0:0:0:0:
329,192,133736,128,0,133986:0:0:0:0:
36,192,133861,1,0,0:0:0:0:
402,192,133986,128,0,134236:0:0:0:0:
109,192,133986,1,0,0:0:0:0:
256,192,133986,1,0,0:0:0:0:
475,192,133986,1,0,0:0:0:0:
329,192,134236,128,0,134486:0:0:0:0:
475,192,134236,1,0,0:0:0:0:
36,192,134361,1,0,0:0:0:0:
256,192,134486,128,0,134736:0:0:0:0:
475,192,134486,1,0,0:0:0:0:
402,192,134486,1,0,0:0:0:0:
109,192,134486,1,0,0:0:0:0:
329,192,134611,1,0,0:0:0:0:
109,192,134736,128,0,134986:0:0:0:0:
475,192,134736,1,0,0:0:0:0:
329,192,134861,128,0,134986:0:0:0:0:
402,192,134861,1,0,0:0:0:0:
36,192,134986,128,0,136986:0:0:0:0:
475,192,134986,128,0,135486:0:0:0:0:
256,192,134986,1,0,0:0:0:0:
402,192,134986,1,0,0:0:0:0:
109,192,135236,1,0,0:0:0:0:
182,192,135361,1,0,0:0:0:0:
402,192,135486,128,0,135736:0:0:0:0:
329,192,135486,1,0,0:0:0:0:
256,192,135486,1,0,0:0:0:0:
109,192,135486,1,0,0:0:0:0:
182,192,135611,1,0,0:0:0:0:
329,192,135736,128,0,136236:0:0:0:0:
475,192,135861,1,0,0:0:0:0:
402,192,135986,1,0,0:0:0:0:
256,192,135986,1,0,0:0:0:0:
109,192,135986,1,0,0:0:0:0:
256,192,136236,128,0,136486:0:0:0:0:
182,192,136236,1,0,0:0:0:0:
402,192,136361,1,0,0:0:0:0:
109,192,136486,128,0,136736:0:0:0:0:
475,192,136486,1,0,0:0:0:0:
329,192,136486,1,0,0:0:0:0:
182,192,136486,1,0,0:0:0:0:
256,192,136611,1,0,0:0:0:0:
402,192,136736,128,0,137236:0:0:0:0:
109,192,136861,1,0,0:0:0:0:
256,192,136986,128,0,137986:0:0:0:0:
182,192,136986,1,0,0:0:0:0:
329,192,136986,1,0,0:0:0:0:
475,192,136986,1,0,0:0:0:0:
182,192,137236,128,0,137736:0:0:0:0:
36,192,137236,1,0,0:0:0:0:
329,192,137361,1,0,0:0:0:0:
475,192,137486,1,0,0:0:0:0:
402,192,137486,1,0,0:0:0:0:
109,192,137486,1,0,0:0:0:0:
329,192,137611,1,0,0:0:0:0:
36,192,137736,128,0,137986:0:0:0:0:
402,192,137861,1,0,0:0:0:0:
109,192,137986,128,0,138986:0:0:0:0:
475,192,137986,1,0,0:0:0:0:
329,192,137986,1,0,0:0:0:0:
182,192,137986,1,0,0:0:0:0:
182,192,138236,128,0,138736:0:0:0:0:
256,192,138236,1,0,0:0:0:0:
402,192,138361,1,0,0:0:0:0:
475,192,138486,1,0,0:0:0:0:
36,192,138486,1,0,0:0:0:0:
402,192,138549,1,0,0:0:0:0:
256,192,138549,1,0,0:0:0:0:
329,192,138611,1,0,0:0:0:0:
402,192,138674,1,0,0:0:0:0:
329,192,138736,128,0,138986:0:0:0:0:
475,192,138736,1,0,0:0:0:0:
402,192,138799,1,0,0:0:0:0:
256,192,138861,1,0,0:0:0:0:
182,192,138924,1,0,0:0:0:0:
36,192,138986,128,0,140986:0:0:0:0:
475,192,138986,128,0,139236:0:0:0:0:
256,192,138986,1,0,0:0:0:0:
402,192,138986,1,0,0:0:0:0:
329,192,139236,128,0,139486:0:0:0:0:
109,192,139236,1,0,0:0:0:0:
256,192,139361,1,0,0:0:0:0:
182,192,139486,128,0,139736:0:0:0:0:
475,192,139486,1,0,0:0:0:0:
402,192,139486,1,0,0:0:0:0:
109,192,139486,1,0,0:0:0:0:
256,192,139611,1,0,0:0:0:0:
109,192,139736,128,0,140236:0:0:0:0:
402,192,139861,1,0,0:0:0:0:
182,192,139986,1,0,0:0:0:0:
256,192,139986,1,0,0:0:0:0:
329,192,139986,1,0,0:0:0:0:
402,192,140236,128,0,140361:0:0:0:0:
182,192,140236,1,0,0:0:0:0:
256,192,140361,128,0,140486:0:0:0:0:
329,192,140361,1,0,0:0:0:0:
475,192,140486,1,0,0:0:0:0:
402,192,140486,1,0,0:0:0:0:
109,192,140486,1,0,0:0:0:0:
182,192,140611,1,0,0:0:0:0:
109,192,140736,128,0,141236:0:0:0:0:
256,192,140861,1,0,0:0:0:0:
182,192,140986,128,0,142986:0:0:0:0:
329,192,140986,1,0,0:0:0:0:
402,192,140986,1,0,0:0:0:0:
475,192,140986,1,0,0:0:0:0:
256,192,141236,128,0,141486:0:0:0:0:
475,192,141236,1,0,0:0:0:0:
402,192,141361,1,0,0:0:0:0:
329,192,141486,128,0,141736:0:0:0:0:
36,192,141486,1,0,0:0:0:0:
109,192,141486,1,0,0:0:0:0:
475,192,141486,1,0,0:0:0:0:
256,192,141611,1,0,0:0:0:0:
402,192,141736,128,0,141861:0:0:0:0:
329,192,141861,128,0,141986:0:0:0:0:
36,192,141861,1,0,0:0:0:0:
475,192,141986,128,0,142236:0:0:0:0:
109,192,141986,1,0,0:0:0:0:
256,192,141986,1,0,0:0:0:0:
402,192,141986,1,0,0:0:0:0:
402,192,142236,128,0,142486:0:0:0:0:
36,192,142236,1,0,0:0:0:0:
109,192,142361,1,0,0:0:0:0:
329,192,142486,128,0,142736:0:0:0:0:
475,192,142486,1,0,0:0:0:0:
256,192,142486,1,0,0:0:0:0:
36,192,142486,1,0,0:0:0:0:
109,192,142611,1,0,0:0:0:0:
36,192,142736,128,0,142986:0:0:0:0:
475,192,142736,1,0,0:0:0:0:
402,192,142861,1,0,0:0:0:0:
256,192,142986,128,0,144986:0:0:0:0:
475,192,142986,128,0,143486:0:0:0:0:
109,192,142986,1,0,0:0:0:0:
329,192,142986,1,0,0:0:0:0:
402,192,142986,1,0,0:0:0:0:
109,192,143236,1,0,0:0:0:0:
402,192,143361,1,0,0:0:0:0:
182,192,143486,128,0,143611:0:0:0:0:
329,192,143486,1,0,0:0:0:0:
109,192,143486,1,0,0:0:0:0:
36,192,143486,1,0,0:0:0:0:
402,192,143611,1,0,0:0:0:0:
182,192,143736,128,0,143861:0:0:0:0:
36,192,143861,1,0,0:0:0:0:
475,192,143986,1,0,0:0:0:0:
402,192,143986,1,0,0:0:0:0:
329,192,143986,1,0,0:0:0:0:
475,192,144236,128,0,144736:0:0:0:0:
36,192,144236,1,0,0:0:0:0:
182,192,144361,1,0,0:0:0:0:
109,192,144486,1,0,0:0:0:0:
329,192,144486,1,0,0:0:0:0:
402,192,144486,1,0,0:0:0:0:
36,192,144611,1,0,0:0:0:0:
402,192,144736,128,0,145236:0:0:0:0:
109,192,144861,1,0,0:0:0:0:
475,192,144986,128,0,145986:0:0:0:0:
182,192,144986,1,0,0:0:0:0:
329,192,144986,1,0,0:0:0:0:
36,192,144986,1,0,0:0:0:0:
329,192,145236,128,0,145486:0:0:0:0:
256,192,145236,1,0,0:0:0:0:
109,192,145361,1,0,0:0:0:0:
182,192,145486,1,0,0:0:0:0:
256,192,145486,1,0,0:0:0:0:
402,192,145486,1,0,0:0:0:0:
36,192,145486,1,0,0:0:0:0:
329,192,145611,1,0,0:0:0:0:
109,192,145736,128,0,145986:0:0:0:0:
182,192,145861,1,0,0:0:0:0:
36,192,145986,128,0,146486:0:0:0:0:
402,192,145986,128,0,146111:0:0:0:0:
329,192,145986,1,0,0:0:0:0:
256,192,145986,1,0,0:0:0:0:
182,192,145986,1,0,0:0:0:0:
329,192,146236,128,0,146361:0:0:0:0:
109,192,146299,1,0,0:0:0:0:
256,192,146361,128,0,146486:0:0:0:0:
182,192,146361,1,0,0:0:0:0:
402,192,146424,1,0,0:0:0:0:
182,192,146486,128,0,146986:0:0:0:0:
329,192,146486,128,0,146611:0:0:0:0:
109,192,146486,1,0,0:0:0:0:
475,192,146486,1,0,0:0:0:0:
109,192,146611,128,0,146861:0:0:0:0:
402,192,146861,128,0,147236:0:0:0:0:
256,192,146986,128,0,147361:0:0:0:0:
329,192,146986,1,0,0:0:0:0:
475,192,146986,1,0,0:0:0:0:
36,192,146986,128,0,150736:0:0:0:0:
109,192,147111,1,0,0:0:0:0:
182,192,147236,1,0,0:0:0:0:
475,192,147361,128,0,147736:0:0:0:0:
109,192,147361,1,0,0:0:0:0:
329,192,147486,128,0,148486:0:0:0:0:
256,192,147486,1,0,0:0:0:0:
109,192,147611,1,0,0:0:0:0:
402,192,147736,128,0,147986:0:0:0:0:
256,192,147736,1,0,0:0:0:0:
182,192,147861,1,0,0:0:0:0:
109,192,147986,128,0,148361:0:0:0:0:
475,192,147986,1,0,0:0:0:0:
182,192,148111,1,0,0:0:0:0:
475,192,148236,1,0,0:0:0:0:
402,192,148361,128,0,148736:0:0:0:0:
256,192,148361,1,0,0:0:0:0:
182,192,148361,1,0,0:0:0:0:
109,192,148486,1,0,0:0:0:0:
182,192,148611,1,0,0:0:0:0:
256,192,148736,128,0,148986:0:0:0:0:
475,192,148736,1,0,0:0:0:0:
109,192,148736,1,0,0:0:0:0:
329,192,148861,1,0,0:0:0:0:
109,192,148986,128,0,149361:0:0:0:0:
182,192,148986,1,0,0:0:0:0:
475,192,148986,1,0,0:0:0:0:
329,192,149111,1,0,0:0:0:0:
402,192,149236,1,0,0:0:0:0:
475,192,149361,128,0,149736:0:0:0:0:
182,192,149361,1,0,0:0:0:0:
256,192,149486,1,0,0:0:0:0:
109,192,149611,1,0,0:0:0:0:
329,192,149736,128,0,149986:0:0:0:0:
402,192,149736,1,0,0:0:0:0:
256,192,149861,1,0,0:0:0:0:
182,192,149986,128,0,150361:0:0:0:0:
475,192,149986,1,0,0:0:0:0:
402,192,150111,1,0,0:0:0:0:
256,192,150236,1,0,0:0:0:0:
329,192,150361,128,0,150736:0:0:0:0:
475,192,150361,1,0,0:0:0:0:
402,192,150361,1,0,0:0:0:0:
109,192,150486,1,0,0:0:0:0:
256,192,150611,1,0,0:0:0:0:
182,192,150736,128,0,150986:0:0:0:0:
475,192,150736,1,0,0:0:0:0:
402,192,150736,1,0,0:0:0:0:
329,192,150861,1,0,0:0:0:0:
36,192,150986,128,0,151361:0:0:0:0:
256,192,150986,1,0,0:0:0:0:
475,192,150986,1,0,0:0:0:0:
109,192,151111,1,0,0:0:0:0:
182,192,151236,1,0,0:0:0:0:
475,192,151361,128,0,151736:0:0:0:0:
402,192,151361,1,0,0:0:0:0:
329,192,151486,1,0,0:0:0:0:
109,192,151611,1,0,0:0:0:0:
256,192,151736,128,0,151986:0:0:0:0:
402,192,151736,1,0,0:0:0:0:
182,192,151861,1,0,0:0:0:0:
109,192,151986,128,0,152361:0:0:0:0:
329,192,151986,1,0,0:0:0:0:
36,192,152111,1,0,0:0:0:0:
475,192,152236,1,0,0:0:0:0:
329,192,152361,128,0,152736:0:0:0:0:
182,192,152361,1,0,0:0:0:0:
256,192,152361,1,0,0:0:0:0:
402,192,152486,1,0,0:0:0:0:
36,192,152611,1,0,0:0:0:0:
475,192,152611,1,0,0:0:0:0:
182,192,152736,128,0,152986:0:0:0:0:
256,192,152736,1,0,0:0:0:0:
36,192,152986,128,0,153361:0:0:0:0:
475,192,152986,1,0,0:0:0:0:
109,192,152986,1,0,0:0:0:0:
402,192,153111,1,0,0:0:0:0:
256,192,153236,1,0,0:0:0:0:
475,192,153361,128,0,153736:0:0:0:0:
109,192,153361,1,0,0:0:0:0:
402,192,153361,1,0,0:0:0:0:
182,192,153486,1,0,0:0:0:0:
329,192,153611,1,0,0:0:0:0:
182,192,153736,128,0,153986:0:0:0:0:
402,192,153736,1,0,0:0:0:0:
109,192,153736,1,0,0:0:0:0:
256,192,153861,1,0,0:0:0:0:
36,192,153986,1,0,0:0:0:0:
109,192,153986,1,0,0:0:0:0:
402,192,153986,1,0,0:0:0:0:
475,192,153986,1,0,0:0:0:0:
36,192,154111,1,0,0:0:0:0:
109,192,154111,1,0,0:0:0:0:
402,192,154111,1,0,0:0:0:0:
475,192,154111,1,0,0:0:0:0:
182,192,154236,1,0,0:0:0:0:
329,192,154236,1,0,0:0:0:0:
475,192,154361,1,0,0:0:0:0:
402,192,154361,1,0,0:0:0:0:
109,192,154361,1,0,0:0:0:0:
36,192,154361,1,0,0:0:0:0:
256,192,154361,1,0,0:0:0:0:
256,192,154486,1,0,0:0:0:0:
402,192,154549,128,0,154986:0:0:0:0:
36,192,154611,1,0,0:0:0:0:
182,192,154611,1,0,0:0:0:0:
329,192,154611,1,0,0:0:0:0:
475,192,154611,1,0,0:0:0:0:
36,192,154736,1,0,0:0:0:0:
182,192,154736,1,0,0:0:0:0:
329,192,154736,1,0,0:0:0:0:
475,192,154736,1,0,0:0:0:0:
475,192,154861,1,0,0:0:0:0:
329,192,154861,1,0,0:0:0:0:
182,192,154861,1,0,0:0:0:0:
36,192,154861,1,0,0:0:0:0:
329,192,154986,128,0,157986:0:0:0:0:
109,192,154986,1,0,0:0:0:0:
256,192,154986,1,0,0:0:0:0:
36,192,154986,128,0,155361:0:0:0:0:
475,192,154986,1,0,0:0:0:0:
402,192,155236,1,0,0:0:0:0:
182,192,155236,1,0,0:0:0:0:
256,192,155236,1,0,0:0:0:0:
475,192,155361,128,0,155736:0:0:0:0:
109,192,155361,1,0,0:0:0:0:
182,192,155486,1,0,0:0:0:0:
36,192,155611,1,0,0:0:0:0:
256,192,155736,128,0,155986:0:0:0:0:
109,192,155736,1,0,0:0:0:0:
182,192,155736,1,0,0:0:0:0:
402,192,155736,1,0,0:0:0:0:
36,192,155986,128,0,156361:0:0:0:0:
475,192,155986,1,0,0:0:0:0:
182,192,155986,1,0,0:0:0:0:
109,192,156236,1,0,0:0:0:0:
182,192,156236,1,0,0:0:0:0:
475,192,156236,1,0,0:0:0:0:
402,192,156361,128,0,156736:0:0:0:0:
256,192,156361,1,0,0:0:0:0:
109,192,156486,1,0,0:0:0:0:
256,192,156611,1,0,0:0:0:0:
182,192,156736,128,0,156986:0:0:0:0:
36,192,156736,1,0,0:0:0:0:
109,192,156736,1,0,0:0:0:0:
475,192,156736,1,0,0:0:0:0:
36,192,156986,128,0,157361:0:0:0:0:
256,192,156986,1,0,0:0:0:0:
402,192,156986,1,0,0:0:0:0:
109,192,157236,1,0,0:0:0:0:
182,192,157236,1,0,0:0:0:0:
256,192,157236,1,0,0:0:0:0:
475,192,157361,128,0,157736:0:0:0:0:
402,192,157361,1,0,0:0:0:0:
109,192,157486,1,0,0:0:0:0:
402,192,157611,1,0,0:0:0:0:
256,192,157736,128,0,157986:0:0:0:0:
182,192,157736,1,0,0:0:0:0:
36,192,157736,1,0,0:0:0:0:
109,192,157736,1,0,0:0:0:0:
475,192,157986,128,0,158361:0:0:0:0:
109,192,157986,128,0,158361:0:0:0:0:
402,192,157986,1,0,0:0:0:0:
36,192,157986,1,0,0:0:0:0:
329,192,158236,1,0,0:0:0:0:
36,192,158236,1,0,0:0:0:0:
402,192,158236,1,0,0:0:0:0:
182,192,158361,128,0,158736:0:0:0:0:
256,192,158361,128,0,158736:0:0:0:0:
402,192,158361,1,0,0:0:0:0:
402,192,158611,1,0,0:0:0:0:
329,192,158736,128,0,158861:0:0:0:0:
109,192,158736,128,0,158986:0:0:0:0:
475,192,158736,1,0,0:0:0:0:
402,192,158736,1,0,0:0:0:0:
36,192,158736,1,0,0:0:0:0:
329,192,158986,128,0,159736:0:0:0:0:
36,192,158986,128,0,159361:0:0:0:0:
182,192,158986,1,0,0:0:0:0:
256,192,158986,1,0,0:0:0:0:
402,192,158986,1,0,0:0:0:0:
475,192,158986,1,0,0:0:0:0:
109,192,159236,1,0,0:0:0:0:
182,192,159236,1,0,0:0:0:0:
402,192,159236,1,0,0:0:0:0:
475,192,159361,128,0,159736:0:0:0:0:
256,192,159361,1,0,0:0:0:0:
109,192,159486,1,0,0:0:0:0:
182,192,159611,1,0,0:0:0:0:
182,192,159736,128,0,161986:0:0:0:0:
256,192,159736,128,0,159986:0:0:0:0:
36,192,159736,1,0,0:0:0:0:
109,192,159736,1,0,0:0:0:0:
402,192,159736,1,0,0:0:0:0:
109,192,159986,128,0,160361:0:0:0:0:
329,192,159986,1,0,0:0:0:0:
475,192,159986,1,0,0:0:0:0:
475,192,160236,1,0,0:0:0:0:
402,192,160236,1,0,0:0:0:0:
256,192,160236,1,0,0:0:0:0:
329,192,160361,128,0,160736:0:0:0:0:
36,192,160361,1,0,0:0:0:0:
475,192,160486,1,0,0:0:0:0:
109,192,160611,1,0,0:0:0:0:
256,192,160736,128,0,160986:0:0:0:0:
475,192,160736,1,0,0:0:0:0:
402,192,160736,1,0,0:0:0:0:
36,192,160736,1,0,0:0:0:0:
36,192,160986,128,0,161361:0:0:0:0:
109,192,160986,1,0,0:0:0:0:
329,192,160986,1,0,0:0:0:0:
402,192,161236,1,0,0:0:0:0:
329,192,161236,1,0,0:0:0:0:
256,192,161236,1,0,0:0:0:0:
475,192,161361,128,0,161736:0:0:0:0:
109,192,161361,1,0,0:0:0:0:
402,192,161486,1,0,0:0:0:0:
36,192,161611,1,0,0:0:0:0:
256,192,161736,128,0,161986:0:0:0:0:
109,192,161736,1,0,0:0:0:0:
402,192,161736,1,0,0:0:0:0:
329,192,161736,1,0,0:0:0:0:
36,192,161861,1,0,0:0:0:0:
475,192,161924,1,0,0:0:0:0:
36,192,161986,1,0,0:0:0:0:
109,192,161986,1,0,0:0:0:0:
329,192,161986,1,0,0:0:0:0:
402,192,161986,1,0,0:0:0:0:
402,192,162111,1,0,0:0:0:0:
329,192,162111,1,0,0:0:0:0:
109,192,162111,1,0,0:0:0:0:
36,192,162111,1,0,0:0:0:0:
182,192,162236,1,0,0:0:0:0:
36,192,162361,1,0,0:0:0:0:
109,192,162361,1,0,0:0:0:0:
329,192,162361,1,0,0:0:0:0:
402,192,162361,1,0,0:0:0:0:
256,192,162486,1,0,0:0:0:0:
36,192,162611,1,0,0:0:0:0:
109,192,162611,1,0,0:0:0:0:
329,192,162611,1,0,0:0:0:0:
402,192,162611,1,0,0:0:0:0:
402,192,162736,1,0,0:0:0:0:
329,192,162736,1,0,0:0:0:0:
109,192,162736,1,0,0:0:0:0:
36,192,162736,1,0,0:0:0:0:
36,192,162861,1,0,0:0:0:0:
109,192,162861,1,0,0:0:0:0:
329,192,162861,1,0,0:0:0:0:
402,192,162861,1,0,0:0:0:0:
256,192,162986,5,0,0:0:0:0:
182,192,162986,1,0,0:0:0:0:
402,192,162986,1,0,0:0:0:0:
475,192,162986,1,0,0:0:0:0:
36,192,162986,1,0,0:0:0:0:
109,192,163111,1,0,0:0:0:0:
329,192,163111,1,0,0:0:0:0:
475,192,163236,1,0,0:0:0:0:
182,192,163236,1,0,0:0:0:0:
402,192,163236,1,0,0:0:0:0:
329,192,163361,1,0,0:0:0:0:
109,192,163361,1,0,0:0:0:0:
256,192,163486,1,0,0:0:0:0:
475,192,163486,1,0,0:0:0:0:
36,192,163486,1,0,0:0:0:0:
402,192,163611,1,0,0:0:0:0:
182,192,163611,1,0,0:0:0:0:
36,192,163736,1,0,0:0:0:0:
256,192,163736,1,0,0:0:0:0:
329,192,163736,1,0,0:0:0:0:
109,192,163861,1,0,0:0:0:0:
182,192,163861,1,0,0:0:0:0:
475,192,163986,1,0,0:0:0:0:
256,192,163986,1,0,0:0:0:0:
402,192,163986,1,0,0:0:0:0:
36,192,164111,1,0,0:0:0:0:
329,192,164111,1,0,0:0:0:0:
109,192,164236,1,0,0:0:0:0:
256,192,164236,1,0,0:0:0:0:
475,192,164236,1,0,0:0:0:0:
182,192,164361,1,0,0:0:0:0:
329,192,164361,1,0,0:0:0:0:
36,192,164486,1,0,0:0:0:0:
475,192,164486,1,0,0:0:0:0:
402,192,164486,1,0,0:0:0:0:
109,192,164611,1,0,0:0:0:0:
256,192,164611,1,0,0:0:0:0:
475,192,164736,1,0,0:0:0:0:
402,192,164736,1,0,0:0:0:0:
329,192,164736,1,0,0:0:0:0:
182,192,164861,1,0,0:0:0:0:
109,192,164861,1,0,0:0:0:0:
36,192,164861,1,0,0:0:0:0:
256,192,164986,1,0,0:0:0:0:
402,192,164986,1,0,0:0:0:0:
475,192,164986,1,0,0:0:0:0:
36,192,165111,1,0,0:0:0:0:
182,192,165111,1,0,0:0:0:0:
109,192,165236,1,0,0:0:0:0:
329,192,165236,1,0,0:0:0:0:
402,192,165236,1,0,0:0:0:0:
36,192,165361,1,0,0:0:0:0:
475,192,165361,1,0,0:0:0:0:
109,192,165486,1,0,0:0:0:0:
329,192,165486,1,0,0:0:0:0:
182,192,165486,1,0,0:0:0:0:
475,192,165611,1,0,0:0:0:0:
256,192,165611,1,0,0:0:0:0:
402,192,165736,1,0,0:0:0:0:
36,192,165736,1,0,0:0:0:0:
182,192,165736,1,0,0:0:0:0:
109,192,165861,1,0,0:0:0:0:
329,192,165861,1,0,0:0:0:0:
182,192,165986,1,0,0:0:0:0:
256,192,165986,1,0,0:0:0:0:
475,192,165986,1,0,0:0:0:0:
402,192,166111,1,0,0:0:0:0:
36,192,166111,1,0,0:0:0:0:
109,192,166236,1,0,0:0:0:0:
182,192,166236,1,0,0:0:0:0:
329,192,166236,1,0,0:0:0:0:
36,192,166361,1,0,0:0:0:0:
475,192,166361,1,0,0:0:0:0:
402,192,166486,1,0,0:0:0:0:
256,192,166486,1,0,0:0:0:0:
182,192,166486,1,0,0:0:0:0:
36,192,166611,1,0,0:0:0:0:
109,192,166611,1,0,0:0:0:0:
182,192,166736,1,0,0:0:0:0:
329,192,166736,1,0,0:0:0:0:
475,192,166736,1,0,0:0:0:0:
109,192,166861,1,0,0:0:0:0:
256,192,166861,1,0,0:0:0:0:
402,192,166861,1,0,0:0:0:0:
36,192,166986,1,0,0:0:0:0:
182,192,166986,1,0,0:0:0:0:
329,192,166986,1,0,0:0:0:0:
256,192,167111,1,0,0:0:0:0:
475,192,167111,1,0,0:0:0:0:
36,192,167236,1,0,0:0:0:0:
109,192,167236,1,0,0:0:0:0:
329,192,167236,1,0,0:0:0:0:
182,192,167361,1,0,0:0:0:0:
402,192,167361,1,0,0:0:0:0:
475,192,167486,1,0,0:0:0:0:
256,192,167486,1,0,0:0:0:0:
36,192,167486,1,0,0:0:0:0:
109,192,167611,1,0,0:0:0:0:
329,192,167611,1,0,0:0:0:0:
475,192,167736,1,0,0:0:0:0:
256,192,167736,1,0,0:0:0:0:
36,192,167736,1,0,0:0:0:0:
402,192,167861,1,0,0:0:0:0:
182,192,167861,1,0,0:0:0:0:
36,192,167986,1,0,0:0:0:0:
329,192,167986,1,0,0:0:0:0:
256,192,167986,1,0,0:0:0:0:
109,192,168111,1,0,0:0:0:0:
402,192,168111,1,0,0:0:0:0:
475,192,168236,1,0,0:0:0:0:
329,192,168236,1,0,0:0:0:0:
182,192,168236,1,0,0:0:0:0:
36,192,168361,1,0,0:0:0:0:
256,192,168361,1,0,0:0:0:0:
109,192,168486,1,0,0:0:0:0:
329,192,168486,1,0,0:0:0:0:
475,192,168486,1,0,0:0:0:0:
256,192,168611,1,0,0:0:0:0:
402,192,168611,1,0,0:0:0:0:
36,192,168736,1,0,0:0:0:0:
109,192,168736,1,0,0:0:0:0:
329,192,168736,1,0,0:0:0:0:
182,192,168861,1,0,0:0:0:0:
256,192,168861,1,0,0:0:0:0:
475,192,168861,1,0,0:0:0:0:
402,192,168986,1,0,0:0:0:0:
109,192,168986,1,0,0:0:0:0:
36,192,169111,1,0,0:0:0:0:
182,192,169111,1,0,0:0:0:0:
256,192,169111,1,0,0:0:0:0:
475,192,169236,1,0,0:0:0:0:
109,192,169236,1,0,0:0:0:0:
256,192,169361,1,0,0:0:0:0:
329,192,169361,1,0,0:0:0:0:
402,192,169361,1,0,0:0:0:0:
36,192,169486,1,0,0:0:0:0:
109,192,169486,1,0,0:0:0:0:
182,192,169486,1,0,0:0:0:0:
402,192,169611,1,0,0:0:0:0:
256,192,169611,1,0,0:0:0:0:
329,192,169736,1,0,0:0:0:0:
475,192,169736,1,0,0:0:0:0:
109,192,169736,1,0,0:0:0:0:
402,192,169861,5,0,0:0:0:0:
256,192,169861,1,0,0:0:0:0:
182,192,169861,1,0,0:0:0:0:
475,192,169986,1,0,0:0:0:0:
329,192,169986,1,0,0:0:0:0:
36,192,169986,1,0,0:0:0:0:
109,192,170236,5,0,0:0:0:0:
256,192,170236,1,0,0:0:0:0:
402,192,170236,1,0,0:0:0:0:
256,192,170486,1,0,0:0:0:0:
109,192,170486,1,0,0:0:0:0:
402,192,170486,1,0,0:0:0:0:
109,192,170736,1,0,0:0:0:0:
256,192,170736,1,0,0:0:0:0:
402,192,170736,1,0,0:0:0:0:
256,192,170986,5,0,0:0:0:0:
475,192,170986,1,0,0:0:0:0:
402,192,170986,1,0,0:0:0:0:
109,192,170986,1,0,0:0:0:0:
36,192,170986,1,0,0:0:0:0:
36,192,171236,1,0,0:0:0:0:
109,192,171236,1,0,0:0:0:0:
182,192,171236,1,0,0:0:0:0:
256,192,171298,1,0,0:0:0:0:
329,192,171361,1,0,0:0:0:0:
475,192,171423,1,0,0:0:0:0:
256,192,171486,1,0,0:0:0:0:
402,192,171486,1,0,0:0:0:0:
36,192,171486,1,0,0:0:0:0:
329,192,171548,1,0,0:0:0:0:
182,192,171611,1,0,0:0:0:0:
36,192,171673,1,0,0:0:0:0:
109,192,171736,1,0,0:0:0:0:
256,192,171736,1,0,0:0:0:0:
475,192,171736,1,0,0:0:0:0:
182,192,171798,1,0,0:0:0:0:
402,192,171861,1,0,0:0:0:0:
256,192,171861,1,0,0:0:0:0:
36,192,171861,1,0,0:0:0:0:
109,192,171861,1,0,0:0:0:0:
329,192,171923,1,0,0:0:0:0:
475,192,171986,1,0,0:0:0:0:
182,192,171986,1,0,0:0:0:0:
36,192,172048,1,0,0:0:0:0:
182,192,172111,1,0,0:0:0:0:
402,192,172173,1,0,0:0:0:0:
256,192,172236,1,0,0:0:0:0:
329,192,172236,1,0,0:0:0:0:
109,192,172236,1,0,0:0:0:0:
182,192,172298,1,0,0:0:0:0:
402,192,172361,1,0,0:0:0:0:
329,192,172423,1,0,0:0:0:0:
36,192,172486,1,0,0:0:0:0:
182,192,172486,1,0,0:0:0:0:
475,192,172486,1,0,0:0:0:0:
109,192,172548,1,0,0:0:0:0:
256,192,172611,1,0,0:0:0:0:
182,192,172673,1,0,0:0:0:0:
329,192,172736,1,0,0:0:0:0:
475,192,172736,1,0,0:0:0:0:
402,192,172736,1,0,0:0:0:0:
36,192,172798,1,0,0:0:0:0:
182,192,172861,1,0,0:0:0:0:
329,192,172923,1,0,0:0:0:0:
36,192,172986,1,0,0:0:0:0:
182,192,172986,1,0,0:0:0:0:
256,192,172986,1,0,0:0:0:0:
402,192,172986,1,0,0:0:0:0:
475,192,172986,1,0,0:0:0:0:
109,192,173048,1,0,0:0:0:0:
256,192,173111,1,0,0:0:0:0:
402,192,173173,1,0,0:0:0:0:
329,192,173236,1,0,0:0:0:0:
475,192,173236,1,0,0:0:0:0:
182,192,173236,1,0,0:0:0:0:
36,192,173298,1,0,0:0:0:0:
256,192,173361,1,0,0:0:0:0:
182,192,173423,1,0,0:0:0:0:
36,192,173486,1,0,0:0:0:0:
109,192,173486,1,0,0:0:0:0:
329,192,173486,1,0,0:0:0:0:
475,192,173548,1,0,0:0:0:0:
402,192,173611,1,0,0:0:0:0:
182,192,173673,1,0,0:0:0:0:
109,192,173736,1,0,0:0:0:0:
256,192,173736,1,0,0:0:0:0:
475,192,173736,1,0,0:0:0:0:
36,192,173798,1,0,0:0:0:0:
475,192,173861,1,0,0:0:0:0:
402,192,173861,1,0,0:0:0:0:
329,192,173861,1,0,0:0:0:0:
182,192,173861,1,0,0:0:0:0:
109,192,173923,1,0,0:0:0:0:
256,192,173986,1,0,0:0:0:0:
36,192,173986,1,0,0:0:0:0:
402,192,174048,1,0,0:0:0:0:
182,192,174111,1,0,0:0:0:0:
36,192,174173,1,0,0:0:0:0:
109,192,174236,1,0,0:0:0:0:
475,192,174236,1,0,0:0:0:0:
329,192,174236,1,0,0:0:0:0:
402,192,174298,1,0,0:0:0:0:
256,192,174298,1,0,0:0:0:0:
182,192,174298,1,0,0:0:0:0:
329,192,174361,1,0,0:0:0:0:
109,192,174361,1,0,0:0:0:0:
36,192,174423,1,0,0:0:0:0:
256,192,174423,1,0,0:0:0:0:
475,192,174486,1,0,0:0:0:0:
109,192,174486,1,0,0:0:0:0:
182,192,174548,1,0,0:0:0:0:
402,192,174548,1,0,0:0:0:0:
109,192,174611,1,0,0:0:0:0:
329,192,174611,1,0,0:0:0:0:
256,192,174673,1,0,0:0:0:0:
475,192,174673,1,0,0:0:0:0:
36,192,174736,1,0,0:0:0:0:
109,192,174736,1,0,0:0:0:0:
402,192,174736,1,0,0:0:0:0:
256,192,174798,1,0,0:0:0:0:
329,192,174798,1,0,0:0:0:0:
475,192,174798,1,0,0:0:0:0:
182,192,174861,1,0,0:0:0:0:
109,192,174861,1,0,0:0:0:0:
36,192,174861,1,0,0:0:0:0:
402,192,174923,1,0,0:0:0:0:
475,192,174923,1,0,0:0:0:0:
256,192,174923,1,0,0:0:0:0:
36,192,174986,1,0,0:0:0:0:
109,192,174986,1,0,0:0:0:0:
182,192,174986,1,0,0:0:0:0:
329,192,174986,1,0,0:0:0:0:
475,192,175236,1,0,0:0:0:0:
109,192,175236,1,0,0:0:0:0:
256,192,175236,1,0,0:0:0:0:
329,192,175236,1,0,0:0:0:0:
182,192,175361,1,0,0:0:0:0:
256,192,175423,1,0,0:0:0:0:
36,192,175486,1,0,0:0:0:0:
182,192,175486,1,0,0:0:0:0:
402,192,175486,1,0,0:0:0:0:
475,192,175486,1,0,0:0:0:0:
36,192,175611,1,0,0:0:0:0:
475,192,175673,1,0,0:0:0:0:
109,192,175736,1,0,0:0:0:0:
256,192,175736,1,0,0:0:0:0:
329,192,175736,1,0,0:0:0:0:
402,192,175736,1,0,0:0:0:0:
36,192,175861,1,0,0:0:0:0:
109,192,175861,1,0,0:0:0:0:
182,192,175861,1,0,0:0:0:0:
329,192,175861,1,0,0:0:0:0:
475,192,175861,1,0,0:0:0:0:
109,192,176111,1,0,0:0:0:0:
256,192,176111,1,0,0:0:0:0:
475,192,176236,1,0,0:0:0:0:
402,192,176236,1,0,0:0:0:0:
36,192,176236,1,0,0:0:0:0:
329,192,176361,1,0,0:0:0:0:
256,192,176423,1,0,0:0:0:0:
36,192,176486,1,0,0:0:0:0:
182,192,176486,1,0,0:0:0:0:
475,192,176486,1,0,0:0:0:0:
109,192,176611,1,0,0:0:0:0:
256,192,176611,1,0,0:0:0:0:
402,192,176611,1,0,0:0:0:0:
36,192,176736,1,0,0:0:0:0:
182,192,176736,1,0,0:0:0:0:
329,192,176736,1,0,0:0:0:0:
475,192,176861,1,0,0:0:0:0:
402,192,176861,1,0,0:0:0:0:
256,192,176861,1,0,0:0:0:0:
182,192,176861,1,0,0:0:0:0:
109,192,176861,1,0,0:0:0:0:
36,192,177111,1,0,0:0:0:0:
182,192,177111,1,0,0:0:0:0:
182,192,177236,1,0,0:0:0:0:
329,192,177236,1,0,0:0:0:0:
475,192,177236,1,0,0:0:0:0:
402,192,177236,1,0,0:0:0:0:
36,192,177486,1,0,0:0:0:0:
109,192,177486,1,0,0:0:0:0:
256,192,177486,1,0,0:0:0:0:
402,192,177486,1,0,0:0:0:0:
182,192,177736,1,0,0:0:0:0:
329,192,177736,1,0,0:0:0:0:
256,192,177736,1,0,0:0:0:0:
36,192,177986,1,0,0:0:0:0:
182,192,177986,1,0,0:0:0:0:
402,192,177986,1,0,0:0:0:0:
109,192,178111,1,0,0:0:0:0:
256,192,178111,1,0,0:0:0:0:
329,192,178111,1,0,0:0:0:0:
475,192,178111,1,0,0:0:0:0:
36,192,178236,1,0,0:0:0:0:
182,192,178236,1,0,0:0:0:0:
329,192,178236,1,0,0:0:0:0:
182,192,178486,1,0,0:0:0:0:
256,192,178486,1,0,0:0:0:0:
475,192,178486,1,0,0:0:0:0:
329,192,178611,1,0,0:0:0:0:
109,192,178611,1,0,0:0:0:0:
36,192,178611,1,0,0:0:0:0:
402,192,178611,1,0,0:0:0:0:
36,192,178861,1,0,0:0:0:0:
109,192,178861,1,0,0:0:0:0:
182,192,178861,1,0,0:0:0:0:
329,192,178861,1,0,0:0:0:0:
182,192,179236,1,0,0:0:0:0:
256,192,179236,1,0,0:0:0:0:
329,192,179236,1,0,0:0:0:0:
475,192,179236,1,0,0:0:0:0:
36,192,179361,1,0,0:0:0:0:
109,192,179423,1,0,0:0:0:0:
182,192,179486,1,0,0:0:0:0:
256,192,179486,1,0,0:0:0:0:
402,192,179486,1,0,0:0:0:0:
475,192,179486,1,0,0:0:0:0:
329,192,179611,1,0,0:0:0:0:
256,192,179673,1,0,0:0:0:0:
36,192,179736,1,0,0:0:0:0:
109,192,179736,1,0,0:0:0:0:
402,192,179736,1,0,0:0:0:0:
475,192,179736,1,0,0:0:0:0:
109,192,179861,1,0,0:0:0:0:
182,192,179861,1,0,0:0:0:0:
256,192,179861,1,0,0:0:0:0:
329,192,179861,1,0,0:0:0:0:
402,192,179861,1,0,0:0:0:0:
109,192,180111,1,0,0:0:0:0:
329,192,180111,1,0,0:0:0:0:
182,192,180236,1,0,0:0:0:0:
256,192,180236,1,0,0:0:0:0:
475,192,180236,1,0,0:0:0:0:
36,192,180236,1,0,0:0:0:0:
402,192,180361,1,0,0:0:0:0:
329,192,180423,1,0,0:0:0:0:
256,192,180486,1,0,0:0:0:0:
182,192,180486,1,0,0:0:0:0:
109,192,180486,1,0,0:0:0:0:
475,192,180486,1,0,0:0:0:0:
36,192,180611,1,0,0:0:0:0:
109,192,180673,1,0,0:0:0:0:
182,192,180736,1,0,0:0:0:0:
329,192,180736,1,0,0:0:0:0:
402,192,180736,1,0,0:0:0:0:
475,192,180736,1,0,0:0:0:0:
36,192,180861,1,0,0:0:0:0:
109,192,180861,1,0,0:0:0:0:
256,192,180861,1,0,0:0:0:0:
475,192,180861,1,0,0:0:0:0:
402,192,180861,1,0,0:0:0:0:
182,192,181111,1,0,0:0:0:0:
256,192,181111,1,0,0:0:0:0:
475,192,181236,1,0,0:0:0:0:
402,192,181236,1,0,0:0:0:0:
36,192,181236,1,0,0:0:0:0:
329,192,181236,1,0,0:0:0:0:
256,192,181361,1,0,0:0:0:0:
182,192,181423,1,0,0:0:0:0:
109,192,181486,1,0,0:0:0:0:
36,192,181486,1,0,0:0:0:0:
329,192,181486,1,0,0:0:0:0:
402,192,181486,1,0,0:0:0:0:
329,192,181611,1,0,0:0:0:0:
402,192,181673,1,0,0:0:0:0:
475,192,181736,1,0,0:0:0:0:
256,192,181736,1,0,0:0:0:0:
182,192,181736,1,0,0:0:0:0:
36,192,181736,1,0,0:0:0:0:
36,192,181861,1,0,0:0:0:0:
109,192,181861,1,0,0:0:0:0:
256,192,181861,1,0,0:0:0:0:
402,192,181861,1,0,0:0:0:0:
475,192,181861,1,0,0:0:0:0:
36,192,182111,1,0,0:0:0:0:
329,192,182111,1,0,0:0:0:0:
109,192,182236,1,0,0:0:0:0:
182,192,182236,1,0,0:0:0:0:
402,192,182236,1,0,0:0:0:0:
475,192,182236,1,0,0:0:0:0:
329,192,182361,1,0,0:0:0:0:
256,192,182423,1,0,0:0:0:0:
182,192,182486,1,0,0:0:0:0:
109,192,182486,1,0,0:0:0:0:
402,192,182486,1,0,0:0:0:0:
36,192,182486,1,0,0:0:0:0:
256,192,182611,1,0,0:0:0:0:
329,192,182673,1,0,0:0:0:0:
109,192,182736,1,0,0:0:0:0:
36,192,182736,1,0,0:0:0:0:
475,192,182736,1,0,0:0:0:0:
402,192,182736,1,0,0:0:0:0:
329,192,182861,1,0,0:0:0:0:
256,192,182923,1,0,0:0:0:0:
36,192,182986,1,0,0:0:0:0:
182,192,182986,1,0,0:0:0:0:
329,192,182986,1,0,0:0:0:0:
475,192,182986,1,0,0:0:0:0:
402,192,183048,1,0,0:0:0:0:
256,192,183048,1,0,0:0:0:0:
109,192,183048,1,0,0:0:0:0:
182,192,183111,1,0,0:0:0:0:
36,192,183111,1,0,0:0:0:0:
475,192,183173,1,0,0:0:0:0:
256,192,183173,1,0,0:0:0:0:
402,192,183236,1,0,0:0:0:0:
182,192,183236,1,0,0:0:0:0:
36,192,183298,1,0,0:0:0:0:
256,192,183298,1,0,0:0:0:0:
109,192,183361,1,0,0:0:0:0:
329,192,183361,1,0,0:0:0:0:
182,192,183423,1,0,0:0:0:0:
402,192,183423,1,0,0:0:0:0:
36,192,183486,1,0,0:0:0:0:
109,192,183486,1,0,0:0:0:0:
256,192,183486,1,0,0:0:0:0:
329,192,183486,1,0,0:0:0:0:
475,192,183486,1,0,0:0:0:0:
182,192,183611,1,0,0:0:0:0:
402,192,183611,1,0,0:0:0:0:
36,192,183736,1,0,0:0:0:0:
329,192,183736,1,0,0:0:0:0:
475,192,183736,1,0,0:0:0:0:
182,192,183736,1,0,0:0:0:0:
109,192,183861,1,0,0:0:0:0:
182,192,183861,1,0,0:0:0:0:
256,192,183861,1,0,0:0:0:0:
329,192,183861,1,0,0:0:0:0:
402,192,183861,1,0,0:0:0:0:
36,192,185986,1,0,0:0:0:0:
475,192,185986,1,0,0:0:0:0:
36,192,186236,1,0,0:0:0:0:
475,192,186236,1,0,0:0:0:0:
475,192,186486,1,0,0:0:0:0:
182,192,186486,1,0,0:0:0:0:
329,192,186486,1,0,0:0:0:0:
36,192,186486,1,0,0:0:0:0:
36,192,186611,1,0,0:0:0:0:
182,192,186611,1,0,0:0:0:0:
329,192,186611,1,0,0:0:0:0:
475,192,186611,1,0,0:0:0:0:
475,192,186736,1,0,0:0:0:0:
329,192,186736,1,0,0:0:0:0:
182,192,186736,1,0,0:0:0:0:
36,192,186736,1,0,0:0:0:0:
36,192,186861,1,0,0:0:0:0:
109,192,186861,1,0,0:0:0:0:
182,192,186861,1,0,0:0:0:0:
329,192,186861,1,0,0:0:0:0:
402,192,186861,1,0,0:0:0:0:
475,192,186861,1,0,0:0:0:0:
36,192,187111,1,0,0:0:0:0:
109,192,187111,1,0,0:0:0:0:
182,192,187111,1,0,0:0:0:0:
109,192,187236,1,0,0:0:0:0:
182,192,187236,1,0,0:0:0:0:
475,192,187236,1,0,0:0:0:0:
329,192,187236,1,0,0:0:0:0:
256,192,187236,1,0,0:0:0:0:
182,192,187486,1,0,0:0:0:0:
256,192,187486,1,0,0:0:0:0:
402,192,187486,1,0,0:0:0:0:
475,192,187486,1,0,0:0:0:0:
36,192,187486,1,0,0:0:0:0:
36,192,187736,1,0,0:0:0:0:
109,192,187736,1,0,0:0:0:0:
256,192,187736,1,0,0:0:0:0:
329,192,187736,1,0,0:0:0:0:
182,192,187736,1,0,0:0:0:0:
475,192,187986,1,0,0:0:0:0:
402,192,187986,1,0,0:0:0:0:
256,192,187986,1,0,0:0:0:0:
182,192,187986,1,0,0:0:0:0:
36,192,187986,1,0,0:0:0:0:
109,192,188111,1,0,0:0:0:0:
329,192,188111,1,0,0:0:0:0:
475,192,188111,1,0,0:0:0:0:
182,192,188111,1,0,0:0:0:0:
36,192,188236,1,0,0:0:0:0:
402,192,188236,1,0,0:0:0:0:
256,192,188236,1,0,0:0:0:0:
109,192,188236,1,0,0:0:0:0:
109,192,188486,1,0,0:0:0:0:
256,192,188486,1,0,0:0:0:0:
329,192,188486,1,0,0:0:0:0:
475,192,188486,1,0,0:0:0:0:
475,192,188611,1,0,0:0:0:0:
402,192,188611,1,0,0:0:0:0:
329,192,188611,1,0,0:0:0:0:
256,192,188611,1,0,0:0:0:0:
182,192,188611,1,0,0:0:0:0:
36,192,188611,1,0,0:0:0:0:
36,192,188861,1,0,0:0:0:0:
109,192,188861,1,0,0:0:0:0:
329,192,188861,1,0,0:0:0:0:
182,192,189111,1,0,0:0:0:0:
256,192,189173,1,0,0:0:0:0:
475,192,189236,1,0,0:0:0:0:
402,192,189236,1,0,0:0:0:0:
182,192,189236,1,0,0:0:0:0:
329,192,189236,1,0,0:0:0:0:
109,192,189298,1,0,0:0:0:0:
36,192,189361,1,0,0:0:0:0:
109,192,189423,1,0,0:0:0:0:
182,192,189486,1,0,0:0:0:0:
256,192,189486,1,0,0:0:0:0:
329,192,189486,1,0,0:0:0:0:
475,192,189486,1,0,0:0:0:0:
402,192,189548,1,0,0:0:0:0:
329,192,189611,1,0,0:0:0:0:
256,192,189673,1,0,0:0:0:0:
36,192,189736,1,0,0:0:0:0:
182,192,189736,1,0,0:0:0:0:
329,192,189736,1,0,0:0:0:0:
475,192,189736,1,0,0:0:0:0:
109,192,189798,1,0,0:0:0:0:
182,192,189861,1,0,0:0:0:0:
256,192,189923,1,0,0:0:0:0:
475,192,189986,1,0,0:0:0:0:
402,192,189986,1,0,0:0:0:0:
329,192,189986,1,0,0:0:0:0:
182,192,189986,1,0,0:0:0:0:
109,192,189986,1,0,0:0:0:0:
36,192,189986,1,0,0:0:0:0:
