osu file format v14

[General]
AudioFilename: audio.mp3
AudioLeadIn: 0
PreviewTime: -1
Countdown: 1
SampleSet: Normal
StackLeniency: 0.7
Mode: 0
LetterboxInBreaks: 0
WidescreenStoryboard: 0

[Editor]
DistanceSpacing: 2
BeatDivisor: 4
GridSize: 4
TimelineZoom: 1.9

[Metadata]
Title:Saturday [Nightcore Mix]
TitleUnicode:Saturday [Nightcore Mix]
Artist:BassHunter
ArtistUnicode:BassHunter
Creator:GAMEINSTALLER
Version:Normal
Source:
Tags:
BeatmapID:1669361
BeatmapSetID:794782

[Difficulty]
HPDrainRate:4
CircleSize:3
OverallDifficulty:4
ApproachRate:5
SliderMultiplier:1.5
SliderTickRate:1

[Events]
//Background and Video events
0,0,"Saturday.png",0,0
//Break Periods
2,60190,65780
2,110672,120145
//Storyboard Layer 0 (Background)
//Storyboard Layer 1 (Fail)
//Storyboard Layer 2 (Pass)
//Storyboard Layer 3 (Foreground)
//Storyboard Sound Samples

[TimingPoints]
3295.86649325285,388.3226740803,4,1,1,100,1,0
34361,-100,4,1,1,100,0,1
46788,-100,4,1,1,100,0,0
59214,-100,4,1,1,100,0,0
85620,-100,4,1,1,100,0,1
98046,-100,4,1,1,100,0,0
110445,-100,4,1,1,100,0,0
122899,-100,4,1,1,100,0,1
135325,-100,4,1,1,100,0,0

[HitObjects]
216,184,3295,6,0,B|420:216|312:140|312:140,1,150,2|8,0:0|0:0,0:0:0:0:
280,80,4072,1,0,0:0:0:0:
196,52,4460,2,0,L|92:68,1,75,8|0,0:0|0:0,0:0:0:0:
76,72,4849,1,0,0:0:0:0:
112,196,5237,1,8,0:0:0:0:
212,228,5625,2,0,L|368:232,1,150,0|8,0:0|0:0,0:0:0:0:
328,152,6402,5,4,0:0:0:0:
404,136,6790,2,0,P|480:136|508:216,1,150,8|0,0:0|0:0,0:0:0:0:
460,268,7567,2,0,L|360:304,1,75,8|0,0:0|0:0,0:0:0:0:
360,304,7955,1,0,0:0:0:0:
264,252,8344,1,8,0:0:0:0:
184,196,8732,2,0,P|104:236|104:316,1,150,0|8,0:0|0:0,0:0:0:0:
184,304,9509,5,4,0:0:0:0:
260,224,9897,1,2,0:0:0:0:
328,296,10285,1,0,0:0:0:0:
388,216,10673,1,2,0:0:0:0:
396,104,11062,6,0,L|256:164,1,150,0|2,0:0|0:0,0:0:0:0:
180,100,11838,2,0,L|8:60,1,150,0|2,0:0|0:0,0:0:0:0:
40,188,12615,5,4,0:0:0:0:
80,288,13003,1,2,0:0:0:0:
136,196,13392,1,0,0:0:0:0:
248,168,13780,1,2,0:0:0:0:
248,64,14168,6,0,L|408:64,1,150,4|2,0:0|0:0,0:0:0:0:
488,80,14945,2,0,L|488:248,1,150,0|2,0:0|0:0,0:0:0:0:
464,336,15722,5,0,0:0:0:0:
416,236,16110,1,2,0:0:0:0:
332,160,16498,1,0,0:0:0:0:
276,76,16887,1,2,0:0:0:0:
188,72,17275,6,0,B|84:72|84:72|84:148,1,150,0|2,0:0|0:0,0:0:0:0:
84,204,18052,2,0,B|136:204|136:204|212:132,1,150,0|2,0:0|0:0,0:0:0:0:
268,56,18828,2,0,L|448:56,1,150,4|2,0:0|0:0,0:0:0:0:
424,144,19605,2,0,L|248:144,1,150,0|2,0:0|0:0,0:0:0:0:
184,140,20382,2,0,P|8:140|12:140,1,150,4|2,0:0|0:0,0:0:0:0:
40,236,21158,2,0,B|40:340|40:340|108:340,1,150,0|2,0:0|0:0,0:0:0:0:
152,328,21935,6,0,P|328:328|324:328,2,150,0|2|0,0:0|0:0|0:0,0:0:0:0:
156,240,23100,1,2,0:0:0:0:
160,152,23488,2,0,B|160:72|160:72|228:112,1,150,0|2,0:0|0:0,0:0:0:0:
252,180,24265,2,0,B|252:260|252:260|320:220,1,150,0|2,0:0|0:0,0:0:0:0:
360,144,25041,5,0,0:0:0:0:
448,188,25430,1,2,0:0:0:0:
464,288,25818,1,0,0:0:0:0:
384,356,26206,1,2,0:0:0:0:
336,260,26595,1,0,0:0:0:0:
280,168,26983,1,2,0:0:0:0:
180,104,27371,1,0,0:0:0:0:
64,56,27760,1,2,0:0:0:0:
48,164,28148,6,0,B|48:268|48:268|120:296,1,150,0|2,0:0|0:0,0:0:0:0:
168,288,28925,2,0,B|252:264|252:264|332:312|332:312|332:312,1,150,0|2,0:0|0:0,0:0:0:0:
400,312,29701,2,0,P|484:240|484:204,1,150,0|2,0:0|0:0,0:0:0:0:
432,132,30478,2,0,B|364:88|364:88|368:168|368:168,1,150,0|2,0:0|0:0,0:0:0:0:
304,192,31255,5,0,0:0:0:0:
212,272,31643,1,2,0:0:0:0:
124,172,32031,1,0,0:0:0:0:
256,192,32420,1,2,0:0:0:0:
256,192,32808,12,4,34361,0:0:0:0:
352,188,34750,5,8,0:0:0:0:
356,288,35138,2,0,L|196:288,1,150,0|8,0:0|0:0,0:0:0:0:
112,208,35914,2,0,L|256:96,1,150,0|8,0:0|0:0,0:0:0:0:
324,76,36691,2,0,P|412:76|456:148,1,150,0|8,0:0|0:0,0:0:0:0:
444,216,37468,6,0,P|268:216|264:216,3,150,0|8|0|8,0:0|0:0|0:0|0:0,0:0:0:0:
304,104,39021,2,0,P|128:104|124:104,3,150,0|8|0|8,0:0|0:0|0:0|0:0,0:0:0:0:
80,56,40574,5,4,0:0:0:0:
160,140,40963,1,8,0:0:0:0:
152,240,41351,1,0,0:0:0:0:
240,320,41739,1,8,0:0:0:0:
356,308,42128,5,0,0:0:0:0:
444,236,42516,1,8,0:0:0:0:
440,124,42904,1,0,0:0:0:0:
348,56,43293,1,8,0:0:0:0:
276,48,43681,6,0,L|132:140,1,150,0|8,0:0|0:0,0:0:0:0:
240,184,44458,2,0,L|392:280,1,150,0|8,0:0|0:0,0:0:0:0:
288,288,45234,2,0,L|132:352,1,150,0|8,0:0|0:0,0:0:0:0:
132,236,46011,2,0,L|132:64,1,150,0|8,0:0|0:0,0:0:0:0:
204,80,46788,6,0,L|380:80,1,150,4|8,0:0|0:0,0:0:0:0:
460,88,47564,2,0,L|456:252,1,150,0|8,0:0|0:0,0:0:0:0:
456,320,48341,2,0,L|288:320,1,150,0|8,0:0|0:0,0:0:0:0:
372,272,49117,2,0,L|256:164,1,150,0|8,0:0|0:0,0:0:0:0:
336,192,49894,6,0,L|476:72,1,150,0|8,0:0|0:0,0:0:0:0:
320,56,50671,2,0,L|160:56,1,150,0|8,0:0|0:0,0:0:0:0:
232,100,51447,2,0,P|120:224|120:224,1,150,0|8,0:0|0:0,0:0:0:0:
104,236,52224,2,0,L|232:328,1,150,0|8,0:0|0:0,0:0:0:0:
300,228,53001,6,0,L|300:56,1,150,4|8,0:0|0:0,0:0:0:0:
216,68,53777,2,0,L|52:68,1,150,0|8,0:0|0:0,0:0:0:0:
144,112,54554,2,0,L|216:256,1,150,0|8,0:0|0:0,0:0:0:0:
316,240,55331,2,0,L|484:240,1,150,0|8,0:0|0:0,0:0:0:0:
412,128,56107,6,0,P|416:280|416:284,1,150,0|8,0:0|0:0,0:0:0:0:
376,216,56884,2,0,L|212:216,1,150,0|8,0:0|0:0,0:0:0:0:
284,160,57661,2,0,L|284:4,1,150,0|8,0:0|0:0,0:0:0:0:
232,76,58437,2,0,L|72:76,1,150,0|8,0:0|0:0,0:0:0:0:
28,96,59214,2,0,B|28:176|28:176|104:176|104:176,2,150
256,148,66980,5,4,0:0:0:0:
336,68,67369,1,2,0:0:0:0:
436,112,67757,1,0,0:0:0:0:
476,216,68145,1,2,0:0:0:0:
400,312,68534,5,0,0:0:0:0:
356,200,68922,1,2,0:0:0:0:
284,276,69310,1,0,0:0:0:0:
240,176,69699,1,2,0:0:0:0:
128,184,70087,5,0,0:0:0:0:
184,80,70475,1,2,0:0:0:0:
308,56,70864,1,0,0:0:0:0:
384,152,71252,1,2,0:0:0:0:
360,248,71640,5,0,0:0:0:0:
256,304,72028,1,2,0:0:0:0:
144,296,72417,1,0,0:0:0:0:
172,204,72805,1,2,0:0:0:0:
96,152,73193,5,4,0:0:0:0:
152,84,73582,1,2,0:0:0:0:
220,136,73970,1,0,0:0:0:0:
256,60,74358,1,2,0:0:0:0:
360,128,74747,5,0,0:0:0:0:
348,64,75135,1,2,0:0:0:0:
296,40,75523,1,0,0:0:0:0:
228,36,75912,1,2,0:0:0:0:
112,40,76300,5,0,0:0:0:0:
28,120,76688,1,2,0:0:0:0:
132,140,77077,1,0,0:0:0:0:
120,228,77465,1,2,0:0:0:0:
228,240,77853,5,0,0:0:0:0:
340,240,78242,1,2,0:0:0:0:
344,148,78630,1,0,0:0:0:0:
256,100,79018,1,2,0:0:0:0:
352,44,79407,5,4,0:0:0:0:
440,144,79795,1,2,0:0:0:0:
296,104,80183,1,0,0:0:0:0:
332,200,80572,1,2,0:0:0:0:
204,196,80960,5,0,0:0:0:0:
84,176,81348,1,2,0:0:0:0:
156,96,81737,1,0,0:0:0:0:
172,220,82125,1,2,0:0:0:0:
220,112,82513,5,0,0:0:0:0:
360,140,82902,1,2,0:0:0:0:
280,216,83290,1,0,0:0:0:0:
180,224,83678,1,2,0:0:0:0:
256,192,84066,12,4,85231,0:0:0:0:
332,180,85620,6,0,P|404:144|480:188,1,150,0|8,0:0|0:0,0:0:0:0:
404,252,86396,2,0,P|324:300|256:300,1,150,0|8,0:0|0:0,0:0:0:0:
304,212,87173,2,0,P|288:120|216:88,1,150,0|8,0:0|0:0,0:0:0:0:
168,56,87950,2,0,P|184:112|112:136,1,150,0|8,0:0|0:0,0:0:0:0:
32,96,88726,6,0,P|100:72|168:124,1,150,0|8,0:0|0:0,0:0:0:0:
260,104,89503,2,0,P|348:80|408:128,1,150,0|8,0:0|0:0,0:0:0:0:
332,172,90280,2,0,B|332:260|332:264|332:264|396:264,1,150,0|8,0:0|0:0,0:0:0:0:
482,172,91056,2,0,L|314:172,1,150,0|8,0:0|0:0,0:0:0:0:
292,80,91833,6,0,L|172:176,1,150,4|8,0:0|0:0,0:0:0:0:
184,80,92610,2,0,P|92:88|96:160,1,150,0|8,0:0|0:0,0:0:0:0:
160,176,93386,2,0,P|208:244|152:280,1,150,0|8,0:0|0:0,0:0:0:0:
120,224,94163,2,0,L|276:224,1,150,0|8,0:0|0:0,0:0:0:0:
388,240,94940,6,0,B|388:328|388:328|304:328,1,150,0|8,0:0|0:0,0:0:0:0:
304,240,95716,2,0,B|304:152|304:152|384:152|384:152,1,150,0|8,0:0|0:0,0:0:0:0:
368,68,96493,2,0,L|192:68,1,150,0|8,0:0|0:0,0:0:0:0:
96,64,97269,2,0,L|96:224,1,150,0|8,0:0|0:0,0:0:0:0:
200,132,98046,5,4,0:0:0:0:
316,132,98434,1,8,0:0:0:0:
324,228,98823,1,0,0:0:0:0:
192,228,99211,1,8,0:0:0:0:
64,236,99599,6,0,L|64:64,1,150,0|8,0:0|0:0,0:0:0:0:
160,88,100376,2,0,L|336:88,1,150,0|8,0:0|0:0,0:0:0:0:
400,108,101153,6,0,L|400:276,3,150,0|8|0|8,0:0|0:0|0:0|0:0,0:0:0:0:
280,256,102706,2,0,L|103:256,3,150,0|8|0|8,0:0|0:0|0:0|0:0,0:0:0:0:
88,160,104259,5,0,0:0:0:0:
132,60,104648,1,8,0:0:0:0:
256,56,105036,1,0,0:0:0:0:
376,152,105424,1,8,0:0:0:0:
392,252,105813,2,0,L|220:252,1,150,0|8,0:0|0:0,0:0:0:0:
104,256,106589,2,0,B|104:168|104:168|168:168|168:168|160:168,1,150,0|8,0:0|0:0,0:0:0:0:
272,172,107366,5,0,0:0:0:0:
384,176,107754,1,8,0:0:0:0:
272,72,108142,1,0,0:0:0:0:
140,72,108531,1,8,0:0:0:0:
44,108,108919,2,0,P|44:208|108:228,1,150,0|8,0:0|0:0,0:0:0:0:
112,152,109696,2,0,B|200:144|260:200|260:200|392:144,1,300
256,192,121345,12,4,122899,0:0:0:0:
460,212,123287,5,8,0:0:0:0:
364,272,123675,1,0,0:0:0:0:
244,296,124064,1,8,0:0:0:0:
148,264,124452,1,0,0:0:0:0:
228,204,124840,1,8,0:0:0:0:
348,216,125229,1,0,0:0:0:0:
344,132,125617,1,8,0:0:0:0:
272,136,126005,6,0,P|196:108|136:152,1,150,0|8,0:0|0:0,0:0:0:0:
144,208,126782,2,0,P|220:240|288:200,1,150,0|8,0:0|0:0,0:0:0:0:
368,172,127559,2,0,P|416:240|372:304,1,150,0|8,0:0|0:0,0:0:0:0:
312,248,128335,2,0,P|232:188|256:140,1,150,0|8,0:0|0:0,0:0:0:0:
412,192,129112,5,4,0:0:0:0:
396,76,129500,1,8,0:0:0:0:
244,80,129889,1,0,0:0:0:0:
88,72,130277,1,8,0:0:0:0:
72,176,130665,2,0,B|72:276|72:276|140:276|140:276|140:280,1,150,0|8,0:0|0:0,0:0:0:0:
200,280,131442,2,0,B|200:172|200:172|252:172|252:172|248:172,1,150,0|8,0:0|0:0,0:0:0:0:
272,256,132218,6,0,L|432:256,1,150,0|8,0:0|0:0,0:0:0:0:
472,168,132995,2,0,B|472:92|472:92|384:92|384:92,1,150,0|8,0:0|0:0,0:0:0:0:
320,120,133772,5,0,0:0:0:0:
204,120,134160,1,8,0:0:0:0:
80,116,134548,1,0,0:0:0:0:
128,208,134937,1,8,0:0:0:0:
260,232,135325,6,0,P|360:224|372:184,1,150,4|8,0:0|0:0,0:0:0:0:
368,108,136102,2,0,P|240:188|240:188,1,150,0|8,0:0|0:0,0:0:0:0:
236,268,136878,2,0,L|96:160,1,150,0|8,0:0|0:0,0:0:0:0:
216,160,137655,2,0,B|192:48|192:48|224:64|224:64,1,150,0|8,0:0|0:0,0:0:0:0:
356,108,138432,5,0,0:0:0:0:
444,152,138820,1,8,0:0:0:0:
436,240,139208,1,0,0:0:0:0:
324,260,139597,1,8,0:0:0:0:
212,248,139985,6,0,L|52:248,3,150,0|8|0|8,0:0|0:0|0:0|0:0,0:0:0:0:
176,156,141538,5,0,0:0:0:0:
280,152,141927,1,8,0:0:0:0:
384,168,142315,1,0,0:0:0:0:
396,264,142703,1,8,0:0:0:0:
288,300,143092,1,0,0:0:0:0:
296,200,143480,1,8,0:0:0:0:
224,112,143868,1,0,0:0:0:0:
112,72,144256,1,8,0:0:0:0:
100,176,144645,6,0,B|104:268|104:268|188:268|188:268|184:272,1,150,0|8,0:0|0:0,0:0:0:0:
176,188,145421,2,0,B|272:184|272:184|272:268|272:268,1,150,0|8,0:0|0:0,0:0:0:0:
348,232,146198,2,0,L|344:80,1,150,0|8,0:0|0:0,0:0:0:0:
232,76,146975,2,0,L|72:76,1,150,0|8,0:0|0:0,0:0:0:0:
256,192,147460,12,0,149693,0:0:0:0:
