osu file format v14

[General]
AudioFilename: audio.mp3
AudioLeadIn: 0
PreviewTime: 46596
Countdown: 0
SampleSet: Normal
StackLeniency: 0.7
Mode: 0
LetterboxInBreaks: 0
WidescreenStoryboard: 1

[Editor]
Bookmarks: 17076,43956,59316,61956,62196
DistanceSpacing: 1.3
BeatDivisor: 2
GridSize: 4
TimelineZoom: 1.750001

[Metadata]
Title:Hands On Your Body
TitleUnicode:Hands On Your Body
Artist:Basixx
ArtistUnicode:Basixx
Creator:Rush69
Version:Normal
Source:
Tags:
BeatmapID:1799986
BeatmapSetID:859491

[Difficulty]
HPDrainRate:3
CircleSize:3
OverallDifficulty:3
ApproachRate:5
SliderMultiplier:1.1
SliderTickRate:1

[Events]
//Background and Video events
0,0,"thumb-1920-949729.jpg",0,0
//Break Periods
//Storyboard Layer 0 (Background)
//Storyboard Layer 1 (Fail)
//Storyboard Layer 2 (Pass)
//Storyboard Layer 3 (Foreground)
//Storyboard Sound Samples

[TimingPoints]
1716,480,4,1,0,10,1,0
4356,-100,4,1,0,20,0,0
17076,-100,4,1,0,25,0,0
63156,-100,4,1,0,50,0,1
68916,-100,4,1,0,20,0,0
70836,-100,4,1,0,50,0,1
76596,-100,4,1,0,30,0,0
78516,-100,4,1,0,50,0,1
84276,-100,4,1,0,30,0,0
86196,-100,4,1,0,50,0,1
91956,-100,4,1,0,30,0,0
95556,-100,4,1,0,5,0,0

[Colours]
Combo1 : 23,45,232
Combo2 : 6,97,151
Combo3 : 174,98,167
Combo4 : 210,189,202

[HitObjects]
42,273,1716,6,0,P|33:216|44:161,1,110
83,106,2436,1,0,0:0:0:0:
142,65,2676,2,0,P|243:75|255:192,1,220
162,277,4116,1,0,0:0:0:0:
33,214,4596,2,0,P|42:145|78:115,1,110
204,71,5556,6,0,L|276:71,1,55
278,139,6036,2,0,L|350:139,1,55
355,206,6516,2,0,L|427:206,1,55
444,268,6996,2,0,P|418:303|348:303,1,110
166,205,8196,5,0,0:0:0:0:
166,205,8436,2,0,P|116:162|123:108,1,110
222,43,9396,1,0,0:0:0:0:
363,64,9876,2,0,L|402:133,1,55
338,161,10356,2,0,L|393:248,1,55
400,271,10836,2,0,P|368:321|300:348,1,110
112,310,12036,5,0,0:0:0:0:
112,310,12276,2,0,P|53:268|49:205,1,110
89,101,13236,2,0,P|151:67|226:70,1,110
257,85,13956,1,0,0:0:0:0:
316,124,14196,2,0,L|391:173,1,55
359,225,14676,2,0,P|372:284|338:347,1,110
140,343,15876,5,0,0:0:0:0:
140,343,16116,2,0,P|70:340|32:293,1,110
2,177,17076,6,0,P|16:109|69:82,1,110
112,60,17796,1,0,0:0:0:0:
181,44,18036,2,0,L|264:41,1,55
275,101,18516,2,0,P|343:117|379:145,1,110
361,205,19236,2,0,L|374:291,1,55
325,315,19716,1,0,0:0:0:0:
265,354,19956,2,0,P|185:363|135:363,1,110
106,311,20676,5,0,0:0:0:0:
106,311,20916,2,0,P|74:253|104:207,1,110
127,156,21636,2,0,L|171:112,1,55
289,44,22356,2,0,P|368:33|434:58,1,110
473,160,23316,5,0,0:0:0:0:
414,201,23556,1,0,0:0:0:0:
397,270,23796,1,0,0:0:0:0:
275,345,24276,1,0,0:0:0:0:
211,312,24516,1,0,0:0:0:0:
140,325,24756,6,0,P|73:317|31:276,1,110
31,220,25476,2,0,L|37:151,1,55
106,40,26196,2,0,P|174:40|199:94,1,110
209,140,26916,2,0,P|221:202|259:230,1,110
327,235,27636,5,0,0:0:0:0:
437,325,28116,1,0,0:0:0:0:
473,186,28596,6,0,P|447:113|421:89,1,110
361,125,29316,2,0,L|296:108,1,55
165,95,30036,2,0,P|81:84|31:119,1,110
43,235,30996,1,0,0:0:0:0:
87,291,31236,1,0,0:0:0:0:
157,300,31476,1,0,0:0:0:0:
202,355,31716,6,0,P|271:360|330:351,1,110
379,334,32436,2,0,P|442:291|444:247,1,110
424,194,33156,1,0,0:0:0:0:
381,136,33396,2,0,P|320:125|247:132,1,110
134,217,35076,6,0,L|79:216,2,55
197,250,35796,1,0,0:0:0:0:
111,135,36276,6,0,P|137:101|169:86,1,55
198,144,36756,2,0,P|229:115|263:105,1,55,0|0,0:3|0:3,0:3:0:0:
274,173,37236,2,0,P|310:149|379:144,1,110,0|0,0:3|0:3,0:3:0:0:
351,210,37956,2,0,P|413:205|479:286,1,165
266,312,39396,5,0,0:0:0:0:
237,246,39636,1,0,0:0:0:0:
255,175,39876,1,0,0:0:0:0:
188,149,40116,2,0,P|216:83|260:55,1,110
388,71,41076,2,0,P|458:98|496:142,1,110
202,344,42756,6,0,P|118:332|85:291,1,110
106,246,43476,1,0,0:0:0:0:
134,105,43956,2,0,L|205:57,1,55
238,113,44436,2,0,L|316:78,1,55
328,149,44916,2,0,L|411:128,1,55
438,179,45396,1,0,0:0:0:0:
498,217,45636,2,0,P|481:281|431:315,1,110
312,264,46596,6,0,L|259:222,1,55
169,126,47316,2,0,P|119:100|43:135,1,110
60,253,48276,2,0,L|18:304,2,55
203,253,49236,2,0,L|245:304,2,55
136,126,50196,2,0,L|136:51,1,55
198,36,50676,2,0,P|269:40|389:103,1,165
376,143,51636,1,0,0:0:0:0:
288,256,52116,6,0,L|239:320,2,55
376,143,53076,1,0,0:0:0:0:
417,200,53316,2,0,L|469:256,2,55
376,143,54036,2,0,P|322:112|229:97,1,110
133,110,54996,2,0,L|64:180,1,55
73,217,55476,1,0,0:0:0:0:
121,351,55956,6,0,L|207:332,2,55
73,217,56916,1,0,0:0:0:0:
93,75,57396,2,0,L|160:41,1,55
174,113,57876,2,0,L|245:91,1,55
264,157,58356,2,0,L|338:147,2,55
213,207,59076,1,0,0:0:0:0:
256,192,59316,12,0,62196,0:0:0:0:
256,40,63156,5,0,0:0:0:0:
376,120,63636,2,0,L|472:120,2,55
256,196,64596,1,0,0:0:0:0:
112,192,65076,2,0,L|44:276,1,55
144,260,65556,2,0,L|140:336,1,55
212,332,66036,6,0,L|304:348,2,55
76,292,66996,1,0,0:0:0:0:
16,164,67476,2,0,L|16:80,2,55
24,308,68436,1,0,0:0:0:0:
84,348,68676,2,0,L|168:364,1,55
280,356,69396,5,0,0:0:0:0:
424,348,69876,2,0,L|468:296,1,55
392,276,70356,2,0,L|392:180,1,55
344,168,70836,5,0,0:0:0:0:
212,116,71316,2,0,L|116:116,2,55
344,64,72276,1,0,0:0:0:0:
428,180,72756,2,0,L|452:272,1,55
376,256,73236,2,0,L|380:332,1,55
312,332,73716,6,0,L|220:348,2,55
436,292,74676,1,0,0:0:0:0:
496,164,75156,2,0,L|496:80,2,55
488,308,76116,1,0,0:0:0:0:
428,348,76356,2,0,L|344:364,1,55
232,356,77076,5,0,0:0:0:0:
88,348,77556,2,0,L|44:296,1,55
120,276,78036,2,0,L|120:180,1,55
168,168,78516,5,0,0:0:0:0:
300,116,78996,2,0,L|396:116,2,55
168,64,79956,1,0,0:0:0:0:
84,180,80436,2,0,L|60:272,1,55
136,256,80916,2,0,L|132:332,1,55
200,332,81396,6,0,L|292:348,2,55
76,292,82356,1,0,0:0:0:0:
16,164,82836,2,0,L|16:80,2,55
24,308,83796,1,0,0:0:0:0:
84,348,84036,2,0,L|168:364,1,55
280,356,84756,5,0,0:0:0:0:
424,348,85236,2,0,L|468:296,1,55
392,276,85716,2,0,L|300:280,1,55
344,168,86196,5,0,0:0:0:0:
212,116,86676,2,0,L|116:116,2,55
344,64,87636,1,0,0:0:0:0:
428,180,88116,2,0,L|452:272,1,55
376,256,88596,2,0,L|380:332,1,55
312,332,89076,6,0,L|220:348,2,55
436,292,90036,1,0,0:0:0:0:
496,164,90516,2,0,L|496:80,2,55
488,308,91476,1,0,0:0:0:0:
428,348,91716,2,0,L|344:364,1,55
232,356,92436,5,0,0:0:0:0:
88,348,92916,2,0,L|44:296,1,55
120,276,93396,2,0,L|120:180,1,55
256,192,93876,12,0,95796,0:0:0:0:
