osu file format v14

[General]
AudioFilename: audio.mp3
AudioLeadIn: 0
PreviewTime: 51333
Countdown: 0
SampleSet: Soft
StackLeniency: 0.7
Mode: 0
LetterboxInBreaks: 0
EpilepsyWarning: 1
WidescreenStoryboard: 1

[Editor]
DistanceSpacing: 0.8
BeatDivisor: 4
GridSize: 4
TimelineZoom: 1.9

[Metadata]
Title:Carol of the Bells (Nightstep Mix)
TitleUnicode:Carol of the Bells (Nightstep Mix)
Artist:BarlowGirl
ArtistUnicode:BarlowGirl
Creator:Nuvolina
Version:Normal
Source:
Tags:dubstep MaridiuS Anto [_Kuro_Usagi_] [ Kuro Usagi ] Home for Christmas sing we now electronic english nightcore merry xmas Spaced Out Studio & Vizzwar
BeatmapID:1787949
BeatmapSetID:842355

[Difficulty]
HPDrainRate:3
CircleSize:3
OverallDifficulty:4
ApproachRate:6
SliderMultiplier:2.88
SliderTickRate:1

[Events]
//Background and Video events
0,0,"carolBG.jpg",0,0
//Break Periods
//Storyboard Layer 0 (Background)
//Storyboard Layer 1 (Fail)
//Storyboard Layer 2 (Pass)
//Storyboard Layer 3 (Foreground)
//Storyboard Layer 4 (Overlay)
//Storyboard Sound Samples

[TimingPoints]
780,845.070422535211,4,2,1,25,1,0
1625,869.565217391304,4,2,1,25,1,0
2494,857.142857142857,4,2,1,25,1,0
3351,845.070422535211,4,2,1,25,1,0
4196,833.333333333333,4,2,1,25,1,0
5029,845.070422535211,4,2,1,25,1,0
5874,833.333333333333,4,2,1,25,1,0
6707,810.810810810811,4,2,1,25,1,0
6707,-108.695652173913,4,2,1,25,0,0
6977,967.741935483871,4,2,1,25,1,0
7517,857.142857142857,4,2,1,25,1,0
9231,845.070422535211,4,2,1,25,1,0
10921,839.160839160839,4,2,1,25,1,0
12599,845.070422535211,4,2,1,25,1,0
14285,845.070422535211,4,2,2,45,1,0
15130,875.912408759124,4,2,2,45,1,0
16005,816.326530612245,4,2,2,45,1,0
16820,882.35294117647,4,2,2,45,1,0
17699,821.917808219178,4,2,2,45,1,0
18520,857.142857142857,4,2,2,45,1,0
19380,869.565217391304,4,2,2,45,1,0
20249,833.333333333333,4,2,2,45,1,0
21079,857.142857142857,4,2,2,45,1,0
22793,810.810810810811,4,2,2,45,1,0
23603,845.070422535211,4,2,2,45,1,0
24450,845.070422535211,4,2,1,45,1,0
26140,895.522388059701,4,2,1,45,1,0
27034,810.810810810811,4,2,1,45,1,0
27843,821.917808219178,4,2,1,45,1,0
28664,869.565217391304,4,2,1,45,1,0
29533,833.333333333333,4,2,1,45,1,0
30366,882.35294117647,4,2,1,45,1,0
31180,845.070422535211,4,2,1,45,1,0
37945,845.070422535211,4,2,1,80,1,1
51456,845.30853761623,4,2,1,60,1,0
64997,845.070422535211,4,2,1,80,1,1
78503,845.30853761623,4,2,1,45,1,0
92034,821.917808219178,4,2,1,60,1,0
92855,857.142857142857,4,2,1,60,1,0
93712,845.070422535211,4,2,1,60,1,0
94557,833.333333333333,4,2,1,60,1,0
95390,857.142857142857,4,2,1,60,1,0
96247,845.070422535211,4,2,1,60,1,0
97092,833.333333333333,4,2,1,60,1,0
97925,869.565217391304,4,2,1,60,1,0
98784,845.070422535211,4,2,1,60,1,0
98784,-120.0000048,4,2,1,60,0,0
112325,827.586206896552,4,2,1,45,1,0
113150,923.076923076923,4,2,1,45,1,0
114073,888.888888888889,4,2,1,35,1,0
114958,1111.11111111111,4,2,1,35,1,0
115330,1200,4,2,1,35,1,0
115730,1176.47058823529,4,2,1,35,1,0
120435,1043.47826086957,4,2,1,15,1,0
122513,1025.64102564103,4,2,1,15,1,0
124564,1052.63157894737,4,2,1,15,1,0
126669,1142.85714285714,4,2,1,15,1,0

[Colours]
Combo1 : 255,255,166
Combo2 : 223,223,223
Combo3 : 255,30,30
Combo4 : 218,148,71

[HitObjects]
135,112,780,6,0,P|148:65|122:19,2,96,2|2|2,3:0|0:0|0:0,0:0:0:0:
67,179,1625,1,2,3:0:0:0:
148,229,1914,2,0,P|196:236|241:206,1,96,2|2,0:0|0:0,0:0:0:0:
270,123,2494,38,0,P|331:100|424:189,1,192,2|2,3:0|0:0,0:0:0:0:
371,254,3351,1,2,3:0:0:0:
280,285,3632,2,0,P|267:334|283:382,1,96,2|2,0:0|0:0,0:0:0:0:
184,358,4196,6,0,P|138:368|83:352,2,96,2|2|2,3:0|0:0|0:0,0:0:0:0:
241,280,5029,2,0,P|247:231|229:177,1,96,2|2,3:0|0:0,0:0:0:0:
185,104,5592,1,2,0:0:0:0:
279,87,5874,38,0,P|343:29|400:99,1,192,2|2,3:0|0:0,0:0:0:0:
396,189,6707,2,0,P|332:247|274:180,1,193.91999615332,2|2,3:0|0:0,0:0:0:0:
338,138,7517,5,2,0:0:0:0:
339,138,9231,37,2,3:0:0:0:
339,138,10921,5,2,0:0:0:0:
339,138,12599,37,2,3:0:0:0:
339,138,14285,5,2,3:0:0:0:
371,228,14566,2,0,P|387:263|360:325,1,96,2|2,0:0|0:0,0:0:0:0:
277,323,15130,2,0,P|233:304|187:313,1,96,2|2,3:0|0:0,0:0:0:0:
113,367,15713,1,8,0:0:0:0:
27,323,16005,37,2,3:0:0:0:
105,267,16277,2,0,P|111:220|86:172,1,96,2|2,0:0|0:0,0:0:0:0:
37,103,16821,1,2,3:0:0:0:
130,84,17114,2,0,P|176:70|223:91,1,96,2|8,0:0|0:0,0:0:0:0:
285,156,17699,5,2,3:0:0:0:
380,163,17972,2,0,L|390:218,2,48,2|0|2,0:0|0:0|0:0,0:0:0:0:
456,104,18520,1,2,3:0:0:0:
384,40,18805,2,0,P|332:51|297:20,1,96,2|8,0:0|0:0,0:0:0:0:
205,37,19377,37,2,3:0:0:0:
128,95,19669,2,0,L|71:95,2,48,2|0|2,0:0|0:0|0:0,0:0:0:0:
198,161,20249,2,0,P|216:204|208:251,1,96,2|2,3:0|0:0,0:0:0:0:
131,309,20804,1,8,0:0:0:0:
213,374,21079,5,2,3:0:0:0:
285,311,21364,2,0,L|337:309,2,48,2|0|8,0:0|0:0|0:0,0:0:0:0:
208,251,21936,1,2,3:0:0:0:
283,191,22221,2,0,L|282:141,2,48,2|0|8,0:0|0:0|0:0,0:0:0:0:
371,228,22793,37,2,3:0:0:0:
447,285,23063,2,0,L|510:286,2,48,2|0|8,0:0|0:0|0:0,0:0:0:0:
371,228,23603,1,2,3:0:0:0:
445,167,23884,2,0,L|504:167,2,48,2|0|8,0:0|0:0|0:0,0:0:0:0:
370,106,24448,5,2,3:0:0:0:
302,37,24731,2,0,L|252:40,1,48,2|0,0:0|0:0,0:0:0:0:
206,48,25013,1,2,0:0:0:0:
133,110,25295,1,2,3:0:0:0:
44,73,25576,2,0,L|44:136,1,48,2|0,0:0|0:0,0:0:0:0:
46,169,25858,1,2,0:0:0:0:
111,239,26140,37,2,3:0:0:0:
45,308,26438,2,0,L|44:366,2,48,2|0|2,0:0|0:0|0:0,0:0:0:0:
111,238,27034,2,0,P|155:220|202:227,1,96,2|2,3:0|0:0,0:0:0:0:
221,266,27439,2,0,P|244:270|267:264,1,48,0|2,0:0|0:0,0:0:0:0:
337,190,27844,5,2,3:0:0:0:
304,99,28116,1,2,3:0:0:0:
384,47,28390,1,2,3:0:0:0:
417,137,28664,1,2,3:0:0:0:
337,190,28953,2,0,P|326:240|344:297,1,96,4|4,0:0|0:0,0:0:0:0:
399,354,29533,37,2,3:0:0:0:
306,379,29810,1,2,3:0:0:0:
239,310,30088,1,2,3:0:0:0:
155,358,30366,1,2,3:0:0:0:
78,300,30660,2,0,P|69:250|86:199,1,96,4|4,0:0|0:0,0:0:0:0:
143,147,31180,5,0,1:0:0:0:
143,147,32870,37,0,1:0:0:0:
256,192,34560,12,0,37095,3:0:0:0:
148,141,37945,38,0,P|203:150|256:80,1,143.999995605469,0|0,1:0|1:0,0:0:0:0:
357,11,38790,1,8,3:2:0:0:
385,44,39001,1,0,3:0:0:0:
374,100,39212,2,0,P|366:133|389:186,1,72,0|0,3:0|3:0,0:0:0:0:
425,198,39635,2,0,B|449:256|390:282|436:344,1,144,4|4,3:0|3:0,0:0:0:0:
338,377,40480,1,4,3:0:0:0:
338,377,40902,1,4,3:0:0:0:
308,265,41325,38,0,P|241:245|176:293,1,144,0|0,1:0|1:0,0:0:0:0:
71,314,42170,2,0,L|30:380,2,72,8|0|0,3:2|3:0|3:0,0:0:0:0:
65,254,42804,1,0,3:0:0:0:
109,212,43015,2,0,P|125:151|74:88,1,144,4|4,3:0|3:0,0:0:0:0:
0,15,43860,1,4,3:0:0:0:
0,15,44283,1,4,3:0:0:0:
115,19,44705,6,0,L|268:29,1,144,0|0,1:0|1:0,0:0:0:0:
341,109,45550,1,8,3:2:0:0:
307,155,45761,1,0,3:0:0:0:
256,182,45973,2,0,P|246:212|259:261,1,72,0|0,3:0|3:0,0:0:0:0:
304,279,46395,2,0,B|366:290|366:290|450:275,1,144,4|4,3:0|3:0,0:0:0:0:
484,174,47240,1,4,3:0:0:0:
484,174,47663,1,4,3:0:0:0:
424,75,48085,38,0,P|363:88|298:38,1,144,0|0,1:0|1:0,0:0:0:0:
185,37,48930,2,0,B|160:21|160:21|111:15,2,72,8|0|0,3:2|3:0|3:0,0:0:0:0:
167,92,49564,1,0,3:0:0:0:
128,135,49775,2,0,B|104:197|170:210|117:288,1,144,4|4,3:0|3:0,0:0:0:0:
198,366,50621,1,4,3:0:0:0:
198,366,51043,1,4,3:0:0:0:
249,263,51456,37,0,1:0:0:0:
329,314,51737,2,0,P|325:341|331:364,2,48,2|0|2,0:0|0:0|0:0,0:0:0:0:
409,260,52301,1,8,0:0:0:0:
347,187,52583,2,0,P|337:142|355:92,1,96,2|2,0:0|0:0,0:0:0:0:
442,60,53146,37,0,0:0:0:0:
352,95,53428,2,0,L|288:85,2,48,2|0|2,0:0|1:0|0:0,0:0:0:0:
423,159,53991,1,8,0:0:0:0:
372,240,54273,2,0,P|328:253|273:223,1,96,2|2,0:0|0:0,0:0:0:0:
208,173,54837,5,0,1:0:0:0:
133,232,55119,2,0,L|135:290,2,48,2|0|2,0:0|0:0|0:0,0:0:0:0:
55,174,55682,1,8,0:0:0:0:
94,86,55964,2,0,P|136:72|193:92,1,96,2|2,0:0|0:0,0:0:0:0:
251,154,56527,37,0,0:0:0:0:
331,102,56809,2,0,P|349:98|385:103,2,48,2|0|2,0:0|1:0|0:0,0:0:0:0:
251,154,57373,1,8,0:0:0:0:
173,210,57654,2,0,P|161:259|179:306,1,96,2|2,0:0|0:0,0:0:0:0:
247,363,58218,5,0,1:0:0:0:
316,297,58500,2,0,P|341:291|377:302,1,48,2|0,0:0|0:0,0:0:0:0:
405,327,58782,1,2,0:0:0:0:
491,285,59063,2,0,L|480:174,1,96,8|2,0:0|0:0,0:0:0:0:
478,141,59486,1,0,0:0:0:0:
470,93,59627,1,2,0:0:0:0:
387,44,59909,37,0,0:0:0:0:
296,77,60190,2,0,L|230:68,1,48,2|0,0:0|1:0,0:0:0:0:
200,68,60472,1,2,0:0:0:0:
110,102,60754,2,0,L|107:208,1,96,8|2,0:0|0:0,0:0:0:0:
81,238,61177,1,0,0:0:0:0:
96,283,61317,1,2,0:0:0:0:
180,266,61599,5,0,1:0:0:0:
283,343,62022,1,0,1:0:0:0:
410,321,62445,1,0,1:0:0:0:
374,202,62867,1,0,1:0:0:0:
275,118,63290,38,0,P|284:93|272:46,2,72,0|0|0,1:0|1:0|1:0,0:0:0:0:
228,163,63924,1,0,1:0:0:0:
175,200,64135,2,0,L|198:293,1,72,0|0,3:0|3:0,0:0:0:0:
270,294,64558,2,0,L|290:363,1,72,0|0,3:0|3:0,0:0:0:0:
371,345,64997,38,0,P|438:367|501:323,1,143.999995605469,0|0,1:0|1:0,0:0:0:0:
492,219,65842,1,8,3:2:0:0:
467,166,66053,1,0,3:0:0:0:
501,119,66264,2,0,P|506:89|487:37,1,71.9999978027344,0|0,3:0|3:0,0:0:0:0:
434,41,66687,2,0,B|376:17|360:88|285:24,1,143.999995605469,4|4,3:0|3:0,0:0:0:0:
191,67,67532,1,4,3:0:0:0:
191,67,67954,1,4,3:0:0:0:
64,23,68377,38,0,P|34:83|91:154,1,143.999995605469,0|0,1:0|1:0,0:0:0:0:
139,236,69222,2,0,P|158:260|153:311,2,71.9999978027344,8|0|0,3:2|3:0|3:0,0:0:0:0:
175,191,69856,1,0,3:0:0:0:
225,164,70067,2,0,B|286:149|286:149|376:176,1,143.999995605469,4|4,3:0|3:0,0:0:0:0:
447,261,70912,1,4,3:0:0:0:
447,261,71335,1,4,3:0:0:0:
365,341,71757,6,0,P|299:349|248:287,1,143.999995605469,0|0,1:0|1:0,0:0:0:0:
199,192,72602,1,8,3:2:0:0:
142,183,72813,1,0,3:0:0:0:
100,223,73025,2,0,P|66:234|25:199,1,71.9999978027344,0|0,3:0|3:0,0:0:0:0:
20,161,73447,2,0,B|23:114|23:114|40:83|40:83|35:18,1,143.999995605469,4|4,3:0|3:0,0:0:0:0:
145,20,74292,1,4,3:0:0:0:
145,20,74715,1,4,3:0:0:0:
219,108,75137,38,0,P|271:152|348:122,1,143.999995605469,0|0,1:0|1:0,0:0:0:0:
440,79,75982,2,0,P|451:52|426:2,2,71.9999978027344,8|0|0,3:2|3:0|3:0,0:0:0:0:
471,127,76616,1,0,3:0:0:0:
442,176,76827,2,0,B|427:239|427:239|470:314,1,143.999995605469,4|4,3:0|3:0,0:0:0:0:
356,368,77673,1,4,3:0:0:0:
356,368,78095,1,4,3:0:0:0:
265,257,78503,37,0,1:0:0:0:
188,319,78784,2,0,P|146:299|88:320,1,96,2|2,0:0|0:0,0:0:0:0:
23,369,79348,1,8,0:0:0:0:
99,310,79630,2,0,P|89:265|107:215,1,96,2|2,0:0|0:0,0:0:0:0:
181,160,80193,37,0,0:0:0:0:
108,96,80475,2,0,L|44:86,2,48,2|0|2,0:0|0:0|0:0,0:0:0:0:
185,35,81038,1,8,0:0:0:0:
268,81,81320,2,0,L|266:176,1,96,2|2,0:0|0:0,0:0:0:0:
201,249,81884,5,0,1:0:0:0:
125,304,82166,2,0,P|96:305|76:280,2,48,2|0|2,0:0|0:0|0:0,0:0:0:0:
201,249,82729,1,8,0:0:0:0:
265,320,83011,2,0,P|307:334|364:314,1,96,2|2,0:0|0:0,0:0:0:0:
450,306,83574,37,0,0:0:0:0:
464,211,83856,2,0,L|518:212,2,48,2|0|2,0:0|0:0|0:0,0:0:0:0:
384,156,84420,1,8,0:0:0:0:
289,175,84701,2,0,P|277:126|295:79,1,96,2|2,0:0|0:0,0:0:0:0:
377,42,85265,5,0,1:0:0:0:
469,67,85547,2,0,L|467:120,1,48,2|0,0:0|0:0,0:0:0:0:
464,162,85829,1,2,0:0:0:0:
410,242,86110,2,0,P|361:258|306:230,1,96,8|2,0:0|0:0,0:0:0:0:
273,231,86533,1,0,0:0:0:0:
232,205,86674,1,2,0:0:0:0:
139,235,86956,37,0,0:0:0:0:
82,157,87237,2,0,L|96:103,1,48,2|0,0:0|0:0,0:0:0:0:
111,65,87519,1,2,0:0:0:0:
206,71,87801,2,0,P|253:64|317:88,1,96,8|2,0:0|0:0,0:0:0:0:
327,115,88224,1,0,0:0:0:0:
373,113,88364,1,2,0:0:0:0:
472,91,88646,5,0,1:0:0:0:
511,194,89069,1,0,1:0:0:0:
452,282,89492,1,0,1:0:0:0:
364,235,89914,1,0,1:0:0:0:
263,275,90337,38,0,L|258:364,2,72,0|0|0,1:0|1:0|1:0,0:0:0:0:
212,239,90971,1,0,1:0:0:0:
165,193,91182,2,0,P|158:164|173:111,1,72,0|0,3:0|3:0,0:0:0:0:
229,70,91605,2,0,P|256:66|302:80,1,72,0|0,3:0|3:0,0:0:0:0:
355,138,92034,5,2,3:0:0:0:
448,121,92307,1,2,3:0:0:0:
494,205,92581,1,2,3:0:0:0:
460,294,92855,1,2,3:0:0:0:
364,298,93140,2,0,P|319:284|267:314,1,96,4|4,0:0|0:0,0:0:0:0:
189,346,93712,37,2,3:0:0:0:
97,318,93993,1,2,3:0:0:0:
81,223,94275,1,2,3:0:0:0:
156,165,94557,1,2,3:0:0:0:
245,199,94834,2,0,P|258:161|234:90,1,96,4|4,0:0|0:0,0:0:0:0:
213,17,95390,5,2,3:0:0:0:
308,17,95675,1,2,3:0:0:0:
379,81,95961,1,2,3:0:0:0:
468,46,96247,1,2,3:0:0:0:
468,142,96528,2,0,L|462:242,1,96,4|4,0:0|0:0,0:0:0:0:
401,311,97092,37,2,3:0:0:0:
316,265,97369,1,2,3:0:0:0:
323,169,97647,1,2,3:0:0:0:
267,90,97925,1,2,3:0:0:0:
176,122,98214,2,0,P|126:136|77:114,1,96,4|4,0:0|0:0,0:0:0:0:
11,182,98784,6,0,P|-6:244|19:309,1,120,0|0,1:0|0:0,0:0:0:0:
96,347,99629,1,8,0:0:0:0:
222,286,100262,1,0,1:0:0:0:
222,286,100474,38,0,P|289:277|343:295,1,120,0|0,1:0|1:0,0:0:0:0:
427,257,101319,1,8,0:0:0:0:
427,257,101530,1,0,1:0:0:0:
451,115,102164,6,0,P|388:128|315:106,1,120,0|0,1:0|0:0,0:0:0:0:
251,67,103009,1,8,0:0:0:0:
112,105,103643,1,0,1:0:0:0:
112,105,103854,38,0,P|102:163|120:240,1,120,0|0,1:0|1:0,0:0:0:0:
153,309,104699,1,8,0:0:0:0:
153,309,104910,1,0,1:0:0:0:
246,286,105333,1,0,1:0:0:0:
246,286,105544,6,0,P|263:228|238:161,1,120,0|0,1:0|0:0,0:0:0:0:
154,145,106389,1,8,0:0:0:0:
20,199,107023,1,0,1:0:0:0:
20,199,107234,38,0,P|9:134|34:81,1,120,0|0,1:0|1:0,0:0:0:0:
114,40,108079,1,8,0:0:0:0:
114,40,108291,1,0,1:0:0:0:
256,60,108924,6,0,P|312:43|372:66,1,120,0|0,1:0|0:0,0:0:0:0:
438,127,109769,1,8,0:0:0:0:
400,265,110403,1,0,1:0:0:0:
400,265,110614,38,0,P|332:250|282:268,1,120,0|0,1:0|1:0,0:0:0:0:
202,313,111460,1,8,0:0:0:0:
202,313,111671,1,0,1:0:0:0:
82,194,112325,5,4,0:0:0:0:
28,114,112600,2,0,L|25:57,2,48,2|0|2,0:0|0:0|0:0,0:0:0:0:
82,194,113150,1,2,0:0:0:0:
28,274,113457,2,0,L|22:338,2,48,2|0|2,0:0|0:0|0:0,0:0:0:0:
123,283,114073,38,0,P|168:308|246:291,1,96,2|2,0:0|0:0,0:0:0:0:
285,246,114665,1,2,0:0:0:0:
369,307,114958,1,2,0:0:0:0:
435,224,115330,1,2,0:0:0:0:
256,192,115730,12,2,120435,0:0:0:0:
