osu file format v14

[General]
AudioFilename: audio.mp3
AudioLeadIn: 0
PreviewTime: 51333
Countdown: 0
SampleSet: Soft
StackLeniency: 0.3
Mode: 0
LetterboxInBreaks: 0
EpilepsyWarning: 1
WidescreenStoryboard: 1

[Editor]
DistanceSpacing: 1.3
BeatDivisor: 6
GridSize: 4
TimelineZoom: 1.699999

[Metadata]
Title:Carol of the Bells (Nightstep Mix)
TitleUnicode:Carol of the Bells (Nightstep Mix)
Artist:BarlowGirl
ArtistUnicode:BarlowGirl
Creator:Nuvolina
Version:Insane
Source:
Tags:dubstep MaridiuS Anto [_Kuro_Usagi_] [ Kuro Usagi ] Home for Christmas sing we now electronic english nightcore merry xmas Spaced Out Studio & Vizzwar
BeatmapID:1850120
BeatmapSetID:842355

[Difficulty]
HPDrainRate:5
CircleSize:4
OverallDifficulty:6
ApproachRate:8
SliderMultiplier:2.8
SliderTickRate:2

[Events]
//Background and Video events
0,0,"carolBG.jpg",0,0
//Break Periods
//Storyboard Layer 0 (Background)
//Storyboard Layer 1 (Fail)
//Storyboard Layer 2 (Pass)
//Storyboard Layer 3 (Foreground)
//Storyboard Layer 4 (Overlay)
//Storyboard Sound Samples

[TimingPoints]
780,845.070422535211,4,2,1,25,1,0
1625,869.565217391304,4,2,1,25,1,0
2494,857.142857142857,4,2,1,25,1,0
3351,845.070422535211,4,2,1,25,1,0
4196,833.333333333333,4,2,1,25,1,0
5029,845.070422535211,4,2,1,25,1,0
5874,833.333333333333,4,2,1,25,1,0
6707,810.810810810811,4,2,1,25,1,0
6977,967.741935483871,4,2,1,25,1,0
7517,857.142857142857,4,2,1,25,1,0
7517,-142.857142857143,4,2,1,25,0,0
9231,845.070422535211,4,2,1,25,1,0
9231,-142.857142857143,4,2,1,25,0,0
10921,839.160839160839,4,2,1,25,1,0
10921,-142.857142857143,4,2,1,25,0,0
12599,845.070422535211,4,2,1,25,1,0
12599,-142.857142857143,4,2,1,25,0,0
14285,845.070422535211,4,2,2,45,1,0
14285,-76.9230769230769,4,2,2,45,0,0
15130,875.912408759124,4,2,2,45,1,0
15130,-76.9230769230769,4,2,2,45,0,0
16005,816.326530612245,4,2,2,45,1,0
16005,-76.9230769230769,4,2,2,45,0,0
16820,882.35294117647,4,2,2,45,1,0
16820,-76.9230769230769,4,2,2,45,0,0
17699,821.917808219178,4,2,2,45,1,0
17699,-76.9230769230769,4,2,2,45,0,0
18520,857.142857142857,4,2,2,45,1,0
18520,-76.9230769230769,4,2,2,45,0,0
19380,869.565217391304,4,2,2,45,1,0
19380,-76.9230769230769,4,2,2,45,0,0
20249,833.333333333333,4,2,2,45,1,0
20249,-76.9230769230769,4,2,2,45,0,0
21079,857.142857142857,4,2,2,45,1,0
21079,-60.6060606060606,4,2,2,45,0,0
22793,810.810810810811,4,2,2,45,1,0
22793,-60.6060606060606,4,2,2,45,0,0
23603,845.070422535211,4,2,2,45,1,0
23603,-60.6060606060606,4,2,2,45,0,0
24450,845.070422535211,4,2,1,45,1,0
24450,-60.6060606060606,4,2,1,45,0,0
26140,895.522388059701,4,2,1,45,1,0
26140,-60.6060606060606,4,2,1,45,0,0
27034,810.810810810811,4,2,1,45,1,0
27034,-60.6060606060606,4,2,1,45,0,0
27843,821.917808219178,4,2,1,45,1,0
27843,-55.5555555555556,3,2,1,45,0,0
28664,869.565217391304,4,2,1,45,1,0
28664,-55.5555555555556,3,2,1,45,0,0
29533,833.333333333333,4,2,1,45,1,0
29533,-55.5555555555556,3,2,1,45,0,0
30366,882.35294117647,4,2,1,45,1,0
30366,-55.5555555555556,3,2,1,45,0,0
31180,845.070422535211,4,2,1,45,1,0
31180,-142.857142857143,4,2,1,45,0,0
34560,-83.3333333333333,4,2,1,45,0,0
37945,845.070422535211,4,2,1,80,1,1
37945,-66.6666666666667,4,2,1,80,0,1
38261,-66.6666666666667,4,2,1,5,0,1
38367,-66.6666666666667,4,2,1,80,0,1
38684,-66.6666666666667,4,2,1,5,0,1
38790,-66.6666666666667,4,2,1,80,0,1
41642,-66.6666666666667,4,2,1,5,0,1
41747,-66.6666666666667,4,2,1,80,0,1
42064,-66.6666666666667,4,2,1,5,0,1
42170,-66.6666666666667,4,2,1,80,0,1
45022,-66.6666666666667,4,2,1,5,0,1
45128,-66.6666666666667,4,2,1,80,0,1
45445,-66.6666666666667,4,2,1,5,0,1
45550,-66.6666666666667,4,2,1,80,0,1
48402,-66.6666666666667,4,2,1,5,0,1
48508,-66.6666666666667,4,2,1,80,0,1
48825,-66.6666666666667,4,2,1,5,0,1
48930,-66.6666666666667,4,2,1,80,0,1
51456,845.30853761623,4,2,1,60,1,0
51456,-76.9230769230769,4,2,1,60,0,0
64997,845.070422535211,4,2,1,80,1,1
64997,-66.6666666666667,4,2,1,80,0,1
65313,-66.6666666666667,4,2,1,5,0,1
65419,-66.6666666666667,4,2,1,80,0,1
65736,-66.6666666666667,4,2,1,5,0,1
65842,-66.6666666666667,4,2,1,80,0,1
68694,-66.6666666666667,4,2,1,5,0,1
68799,-66.6666666666667,4,2,1,80,0,1
69116,-66.6666666666667,4,2,1,5,0,1
69222,-66.6666666666667,4,2,1,80,0,1
72074,-66.6666666666667,4,2,1,5,0,1
72180,-66.6666666666667,4,2,1,80,0,1
72497,-66.6666666666667,4,2,1,5,0,1
72602,-66.6666666666667,4,2,1,80,0,1
75454,-66.6666666666667,4,2,1,5,0,1
75560,-66.6666666666667,4,2,1,80,0,1
75877,-66.6666666666667,4,2,1,5,0,1
75982,-66.6666666666667,4,2,1,80,0,1
78503,845.30853761623,4,2,1,45,1,0
78503,-76.9230769230769,4,2,1,45,0,0
92034,821.917808219178,4,2,1,60,1,0
92034,-60.6060606060606,4,2,1,60,0,0
92855,857.142857142857,4,2,1,60,1,0
92855,-60.6060606060606,4,2,1,60,0,0
93712,845.070422535211,4,2,1,60,1,0
93712,-60.6060606060606,4,2,1,60,0,0
94557,833.333333333333,4,2,1,60,1,0
94557,-60.6060606060606,4,2,1,60,0,0
95390,857.142857142857,4,2,1,60,1,0
95390,-60.6060606060606,4,2,1,60,0,0
96247,845.070422535211,4,2,1,60,1,0
96247,-60.6060606060606,4,2,1,60,0,0
97092,833.333333333333,4,2,1,60,1,0
97092,-60.6060606060606,4,2,1,60,0,0
97925,869.565217391304,4,2,1,60,1,0
97925,-60.6060606060606,4,2,1,60,0,0
98784,845.070422535211,4,2,1,60,1,0
98784,-117.647058823529,4,2,1,60,0,0
112325,827.586206896552,4,2,1,45,1,0
113150,923.076923076923,4,2,1,45,1,0
114073,888.888888888889,4,2,1,35,1,0
114958,1111.11111111111,4,2,1,35,1,0
115330,1200,4,2,1,35,1,0
115730,1176.47058823529,4,2,1,35,1,0
120435,1043.47826086957,4,2,1,15,1,0
122513,1025.64102564103,4,2,1,15,1,0
124564,1052.63157894737,4,2,1,15,1,0
126669,1142.85714285714,4,2,1,15,1,0

[Colours]
Combo1 : 255,255,166
Combo2 : 223,223,223
Combo3 : 255,30,30
Combo4 : 218,148,71

[HitObjects]
64,44,780,5,2,3:0:0:0:
155,123,1061,2,0,P|203:130|261:99,1,93.3333333333333,2|2,0:0|0:0,0:0:0:0:
340,46,1625,1,2,3:0:0:0:
443,107,1914,2,0,P|459:147|436:218,1,93.3333333333333,2|2,0:0|0:0,0:0:0:0:
358,277,2494,37,2,3:0:0:0:
254,213,2779,2,0,L|186:211,2,46.6666666666667,2|0|2,0:0|0:0|0:0,0:0:0:0:
326,112,3351,1,2,3:0:0:0:
219,54,3632,2,0,L|221:-18,2,46.6666666666667,2|0|2,0:0|0:0|0:0,0:0:0:0:
127,137,4196,5,2,3:0:0:0:
177,246,4473,1,2,0:0:0:0:
123,273,4612,2,0,L|129:339,1,46.6666666666667,0|2,0:0|0:0,0:0:0:0:
240,360,5029,1,2,3:0:0:0:
348,307,5310,1,2,0:0:0:0:
407,311,5451,2,0,L|395:245,1,46.6666666666667,0|2,0:0|0:0,0:0:0:0:
362,145,5874,37,2,3:0:0:0:
426,42,6151,1,2,0:0:0:0:
426,42,6290,1,0,0:0:0:0:
426,42,6429,1,2,0:0:0:0:
305,52,6707,1,2,3:0:0:0:
260,171,6977,1,2,0:0:0:0:
260,171,7138,1,0,0:0:0:0:
260,171,7299,1,2,0:0:0:0:
296,272,7517,6,0,P|140:275|124:117,1,342.999989532471,2|0,0:0|0:0,0:0:0:0:
52,34,9231,38,0,B|221:-40|221:102|386:33,1,342.999989532471,2|0,3:0|0:0,0:0:0:0:
450,125,10921,6,0,P|485:225|294:255,1,342.999989532471,2|0,0:0|0:0,0:0:0:0:
339,181,12599,38,0,B|183:244|183:88|6:192,1,342.999989532471,2|0,3:0|0:0,0:0:0:0:
74,282,14285,5,2,3:0:0:0:
185,316,14566,2,0,P|186:349|179:393,2,60.6666638895672,2|0|2,0:0|0:0|0:0,0:0:0:0:
286,236,15130,1,2,3:0:0:0:
414,200,15421,2,0,P|416:173|403:123,2,60.6666638895672,2|0|8,0:0|0:0|0:0,0:0:0:0:
478,328,16005,37,2,3:0:0:0:
347,308,16277,2,0,P|313:319|278:307,2,60.6666638895672,2|0|2,0:0|0:0|0:0,0:0:0:0:
356,185,16820,1,2,3:0:0:0:
228,145,17114,2,0,L|160:141,2,60.6666638895672,2|0|8,0:0|0:0|0:0,0:0:0:0:
322,41,17699,5,2,3:0:0:0:
423,126,17972,1,2,0:0:0:0:
491,100,18109,2,0,P|497:132|488:172,1,60.6666638895672,0|2,0:0|0:0,0:0:0:0:
429,271,18520,1,2,3:0:0:0:
314,205,18805,1,2,0:0:0:0:
239,220,18948,2,0,P|233:254|254:305,1,60.6666638895672,0|8,0:0|0:0,0:0:0:0:
332,373,19380,37,2,3:0:0:0:
198,381,19669,1,2,0:0:0:0:
156,314,19814,2,0,L|84:321,1,60.6666638895672,0|2,0:0|0:0,0:0:0:0:
175,205,20249,1,2,3:0:0:0:
70,132,20526,1,2,0:0:0:0:
98,59,20665,2,0,L|173:72,1,60.6666638895672,0|8,0:0|0:0,0:0:0:0:
315,26,21079,5,2,3:0:0:0:
381,140,21364,1,2,0:0:0:0:
381,140,21507,1,0,0:0:0:0:
381,140,21650,1,8,0:0:0:0:
285,223,21936,1,2,3:0:0:0:
342,338,22221,1,2,0:0:0:0:
342,338,22364,1,0,0:0:0:0:
342,338,22507,1,8,0:0:0:0:
462,287,22793,37,2,3:0:0:0:
499,169,23063,1,2,0:0:0:0:
436,124,23198,1,0,0:0:0:0:
484,61,23333,1,8,0:0:0:0:
378,7,23603,1,2,3:0:0:0:
296,98,23884,1,2,0:0:0:0:
233,53,24025,1,0,0:0:0:0:
177,108,24166,1,8,0:0:0:0:
66,51,24450,6,0,P|38:123|61:193,1,154.000001468658,2|2,3:0|0:0,0:0:0:0:
135,217,24872,1,0,0:0:0:0:
204,249,25013,2,0,P|212:294|195:332,1,77.0000007343292,2|0,0:0|0:0,0:0:0:0:
133,363,25295,1,2,3:0:0:0:
27,299,25576,1,2,0:0:0:0:
0,231,25717,1,0,0:0:0:0:
61,193,25858,2,0,P|65:157|51:115,1,77.0000007343292,2|0,0:0|0:0,0:0:0:0:
13,58,26140,37,2,3:0:0:0:
126,11,26438,1,2,0:0:0:0:
171,71,26587,2,0,P|212:79|245:71,1,77.0000007343292,0|2,0:0|0:0,0:0:0:0:
378,40,27035,2,0,P|404:107|352:183,1,154.000001468658,2|2,3:0|0:0,0:0:0:0:
295,158,27439,1,0,0:0:0:0:
233,202,27574,2,0,P|222:238|246:289,1,77.0000023498536,2|0,0:0|0:0,0:0:0:0:
292,341,27844,6,0,P|328:354|385:333,1,83.9999974365235,2|0,3:0|0:0,0:0:0:0:
355,260,28116,2,0,P|384:253|466:280,1,83.9999974365235,2|0,3:0|0:0,0:0:0:0:
503,216,28390,2,0,P|511:186|491:128,1,83.9999974365235,2|0,3:0|0:0,0:0:0:0:
414,156,28664,2,0,P|406:121|423:76,1,83.9999974365235,2|0,3:0|0:0,0:0:0:0:
487,23,28953,1,4,0:0:0:0:
339,19,29243,1,4,0:0:0:0:
182,90,29533,38,0,P|138:102|97:90,1,83.9999974365235,2|0,3:0|0:0,0:0:0:0:
12,142,29810,2,0,P|2:183|32:230,1,83.9999974365235,2|0,3:0|0:0,0:0:0:0:
102,208,30088,2,0,P|116:236|102:285,1,83.9999974365235,2|0,3:0|0:0,0:0:0:0:
17,291,30366,2,0,P|20:333|58:371,1,83.9999974365235,2|0,3:0|0:0,0:0:0:0:
130,363,30660,1,4,0:0:0:0:
256,300,30954,1,4,0:0:0:0:
256,300,31180,6,0,P|355:228|217:230,1,342.999989532471,0|0,1:0|0:0,0:0:0:0:
132,217,32870,38,0,P|8:252|91:154,1,342.999989532471,0|0,1:0|0:0,0:0:0:0:
171,92,34560,5,0,1:0:0:0:
171,92,34982,37,0,1:0:0:0:
171,92,35405,5,0,1:0:0:0:
171,92,35827,37,0,1:0:0:0:
300,35,36250,5,0,1:0:0:0:
404,91,36461,1,0,1:0:0:0:
338,180,36672,1,0,1:0:0:0:
412,274,36884,1,0,1:0:0:0:
344,348,37095,2,0,L|294:357,3,41.9999987182618,0|0|0|0,3:0|3:0|3:0|3:0,0:0:0:0:
275,312,37518,2,0,L|225:321,3,41.9999987182618,0|0|0|0,3:0|3:0|3:0|3:0,0:0:0:0:
167,348,37945,6,0,P|95:376|33:302,1,157.500006008148,0|0,1:0|0:0,0:0:0:0:
71,283,38367,2,0,P|100:214|53:140,1,157.500006008148,0|0,1:0|0:0,0:0:0:0:
40,75,38790,2,0,P|65:72|110:86,3,52.5000020027161,8|0|0|0,3:2|3:0|3:0|3:0,0:0:0:0:
139,104,39212,2,0,P|161:108|190:104,3,52.5000020027161,0|0|0|0,3:0|3:0|3:0|3:0,0:0:0:0:
250,59,39635,5,4,3:0:0:0:
327,118,39775,1,4,3:0:0:0:
272,199,39916,1,4,3:0:0:0:
176,206,40057,2,0,P|160:273|207:333,1,140.000005340576,4|0,3:0|0:0,0:0:0:0:
291,369,40480,1,4,3:0:0:0:
475,303,40761,1,4,3:0:0:0:
384,266,40902,2,0,P|361:199|401:126,1,140.000005340576,4|0,3:0|0:0,0:0:0:0:
403,40,41325,38,0,P|336:10|263:59,1,157.500006008148,0|0,1:0|0:0,0:0:0:0:
281,107,41747,2,0,P|224:128|153:63,1,157.500006008148,0|0,1:0|0:0,0:0:0:0:
100,21,42170,1,8,3:2:0:0:
57,47,42275,1,0,3:0:0:0:
44,98,42381,1,0,3:0:0:0:
60,146,42487,1,0,3:0:0:0:
85,188,42592,2,0,L|75:263,3,52.5000020027161,0|0|0|0,3:0|3:0|3:0|3:0,0:0:0:0:
69,314,43015,5,4,3:0:0:0:
145,375,43156,1,4,3:0:0:0:
232,323,43297,1,4,3:0:0:0:
324,352,43437,2,0,P|340:299|304:220,1,140.000005340576,4|0,3:0|0:0,0:0:0:0:
238,153,43860,1,4,3:0:0:0:
393,33,44142,1,4,3:0:0:0:
484,68,44283,2,0,P|508:128|467:205,1,140.000005340576,4|0,3:0|0:0,0:0:0:0:
389,157,44705,38,0,L|399:321,1,157.500006008148,0|0,1:0|0:0,0:0:0:0:
372,345,45128,2,0,P|299:367|214:308,1,157.500006008148,0|0,1:0|0:0,0:0:0:0:
216,259,45550,2,0,L|216:199,3,52.5000020027161,8|0|0|0,3:2|3:0|3:0|3:0,0:0:0:0:
184,167,45973,2,0,L|186:114,3,52.5000020027161,0|0|0|0,3:0|3:0|3:0|3:0,0:0:0:0:
184,40,46395,5,4,3:0:0:0:
87,22,46536,1,4,3:0:0:0:
20,94,46677,1,4,3:0:0:0:
89,163,46818,2,0,B|100:219|100:219|34:296,1,140.000005340576,4|0,3:0|0:0,0:0:0:0:
2,354,47240,1,4,3:0:0:0:
181,274,47522,1,4,3:0:0:0:
262,218,47663,2,0,B|262:147|262:147|210:94,1,140.000005340576,4|0,3:0|0:0,0:0:0:0:
161,14,48085,38,0,P|219:-9|313:54,1,157.500006008148,0|0,1:0|0:0,0:0:0:0:
301,72,48508,2,0,P|357:93|445:39,1,157.500006008148,0|0,1:0|0:0,0:0:0:0:
494,7,48930,1,8,3:2:0:0:
512,67,49036,1,0,3:0:0:0:
512,122,49142,1,0,3:0:0:0:
496,173,49247,1,0,3:0:0:0:
453,203,49353,2,0,L|453:264,3,52.5000020027161,0|0|0|0,3:0|3:0|3:0|3:0,0:0:0:0:
454,329,49775,5,4,3:0:0:0:
361,295,49916,1,4,3:0:0:0:
275,343,50057,1,4,3:0:0:0:
176,345,50198,2,0,P|163:289|200:208,1,140.000005340576,4|0,3:0|0:0,0:0:0:0:
239,127,50621,1,4,3:0:0:0:
404,231,50902,1,4,3:0:0:0:
499,210,51043,2,0,P|514:153|481:78,1,140.000005340576,4|0,3:0|0:0,0:0:0:0:
387,58,51456,21,0,1:0:0:0:
264,161,51737,2,0,L|262:226,2,60.6666638895672,2|0|2,0:0|0:0|0:0,0:0:0:0:
158,42,52301,1,8,0:0:0:0:
59,164,52583,2,0,L|-8:162,2,60.6666638895672,2|0|2,0:0|0:0|0:0,0:0:0:0:
133,301,53146,37,0,0:0:0:0:
262,221,53428,2,0,L|261:161,2,60.6666638895672,2|0|2,0:0|1:0|0:0,0:0:0:0:
322,367,53991,1,8,0:0:0:0:
432,255,54273,2,0,L|487:231,2,60.6666638895672,2|0|2,0:0|0:0|0:0,0:0:0:0:
322,367,54837,5,0,1:0:0:0:
215,250,55119,1,2,0:0:0:0:
136,257,55259,2,0,P|129:224|152:184,1,60.6666638895672,0|2,0:0|0:0,0:0:0:0:
272,116,55682,1,8,0:0:0:0:
364,244,55964,1,2,0:0:0:0:
440,237,56105,2,0,P|445:205|424:160,1,60.6666638895672,0|2,0:0|0:0,0:0:0:0:
379,30,56527,37,0,0:0:0:0:
235,96,56809,1,2,0:0:0:0:
171,50,56950,2,0,P|138:46|111:55,1,60.6666638895672,0|2,1:0|0:0,0:0:0:0:
11,176,57373,1,8,0:0:0:0:
78,318,57654,1,2,0:0:0:0:
147,279,57795,2,0,P|171:278|213:296,1,60.6666638895672,0|2,0:0|0:0,0:0:0:0:
352,346,58218,5,0,1:0:0:0:
286,202,58500,1,2,0:0:0:0:
339,144,58641,1,0,0:0:0:0:
287,88,58782,1,2,0:0:0:0:
429,19,59063,1,8,0:0:0:0:
498,160,59345,1,2,0:0:0:0:
444,217,59486,1,0,0:0:0:0:
487,298,59627,1,2,0:0:0:0:
344,365,59909,37,0,0:0:0:0:
188,338,60190,1,2,0:0:0:0:
110,351,60331,1,0,1:0:0:0:
32,369,60472,1,2,0:0:0:0:
95,225,60754,1,8,0:0:0:0:
250,250,61036,1,2,0:0:0:0:
250,171,61177,1,0,0:0:0:0:
246,92,61317,1,2,0:0:0:0:
66,44,61599,6,0,P|51:78|71:127,1,90.9999958343508,0|0,1:0|0:0,0:0:0:0:
154,209,62022,2,0,P|169:243|149:292,1,90.9999958343508,0|0,1:0|0:0,0:0:0:0:
32,289,62445,2,0,P|17:255|37:206,1,90.9999958343508,0|0,1:0|0:0,0:0:0:0:
121,124,62867,2,0,P|136:90|116:41,1,90.9999958343508,0|0,1:0|0:0,0:0:0:0:
3,11,63290,37,0,1:0:0:0:
30,126,63501,1,0,1:0:0:0:
6,241,63712,1,0,1:0:0:0:
81,331,63924,1,0,1:0:0:0:
185,274,64135,6,0,L|188:208,3,45.4999979171754,0|0|0|0,3:0|3:0|3:0|3:0,0:0:0:0:
235,219,64558,2,0,L|236:160,3,45.4999979171754,0|0|0|0,3:0|3:0|3:0|3:0,0:0:0:0:
215,99,64997,6,0,P|287:71|349:145,1,157.500006008148,0|0,1:0|0:0,0:0:0:0:
327,164,65419,2,0,P|396:193|470:146,1,157.500006008148,0|0,1:0|0:0,0:0:0:0:
437,86,65842,2,0,P|434:61|448:16,3,52.5000020027161,8|0|0|0,3:2|3:0|3:0|3:0,0:0:0:0:
390,16,66264,2,0,P|368:20|339:16,3,52.5000020027161,0|0|0|0,3:0|3:0|3:0|3:0,0:0:0:0:
264,22,66687,5,4,3:0:0:0:
186,80,66827,1,4,3:0:0:0:
96,38,66968,1,4,3:0:0:0:
0,31,67109,2,0,P|-16:98|34:161,1,140.000005340576,4|0,3:0|0:0,0:0:0:0:
120,187,67532,1,4,3:0:0:0:
4,344,67813,1,4,3:0:0:0:
100,327,67954,2,0,P|167:304|240:344,1,140.000005340576,4|0,3:0|0:0,0:0:0:0:
320,363,68377,38,0,P|350:296|301:223,1,157.500006008148,0|0,1:0|0:0,0:0:0:0:
269,228,68799,2,0,P|248:171|313:100,1,157.500006008148,0|0,1:0|0:0,0:0:0:0:
363,146,69222,1,8,3:2:0:0:
397,173,69327,1,0,3:0:0:0:
442,179,69433,1,0,3:0:0:0:
484,170,69539,1,0,3:0:0:0:
512,132,69644,2,0,L|502:57,3,52.5000020027161,0|0|0|0,3:0|3:0|3:0|3:0,0:0:0:0:
486,7,70067,5,4,3:0:0:0:
400,55,70208,1,4,3:0:0:0:
305,28,70349,1,4,3:0:0:0:
233,94,70489,2,0,P|180:110|101:74,1,140.000005340576,4|0,3:0|0:0,0:0:0:0:
21,25,70912,1,4,3:0:0:0:
97,205,71194,1,4,3:0:0:0:
6,167,71335,2,0,P|-18:227|23:304,1,140.000005340576,4|0,3:0|0:0,0:0:0:0:
107,300,71757,38,0,P|173:272|255:318,1,157.500006008148,0|0,1:0|0:0,0:0:0:0:
242,346,72180,2,0,P|315:368|400:309,1,157.500006008148,0|0,1:0|0:0,0:0:0:0:
360,262,72602,2,0,P|353:244|360:202,3,52.5000020027161,8|0|0|0,3:2|3:0|3:0|3:0,0:0:0:0:
401,183,73025,2,0,P|406:161|387:128,3,52.5000020027161,0|0|0|0,3:0|3:0|3:0|3:0,0:0:0:0:
334,91,73447,5,4,3:0:0:0:
245,48,73588,1,4,3:0:0:0:
176,117,73729,1,4,3:0:0:0:
204,210,73870,2,0,B|215:266|215:266|149:343,1,140.000005340576,4|0,3:0|0:0,0:0:0:0:
66,353,74292,1,4,3:0:0:0:
87,157,74574,1,4,3:0:0:0:
8,167,74715,2,0,B|8:96|8:96|60:43,1,140.000005340576,4|0,3:0|0:0,0:0:0:0:
151,24,75137,38,0,P|209:1|303:64,1,157.500006008148,0|0,1:0|0:0,0:0:0:0:
255,88,75560,2,0,P|311:109|399:55,1,157.500006008148,0|0,1:0|0:0,0:0:0:0:
451,21,75982,1,8,3:2:0:0:
483,53,76088,1,0,3:0:0:0:
495,102,76194,1,0,3:0:0:0:
474,147,76299,1,0,3:0:0:0:
438,185,76405,2,0,L|438:246,3,52.5000020027161,0|0|0|0,3:0|3:0|3:0|3:0,0:0:0:0:
439,311,76827,5,4,3:0:0:0:
345,280,76968,1,4,3:0:0:0:
256,322,77109,1,4,3:0:0:0:
212,233,77250,2,0,P|156:220|75:257,1,140.000005340576,4|0,3:0|0:0,0:0:0:0:
21,328,77673,1,4,3:0:0:0:
209,379,77954,1,4,3:0:0:0:
300,344,78095,2,0,P|322:287|289:207,1,140.000005340576,4|0,3:0|0:0,0:0:0:0:
244,151,78503,21,0,1:0:0:0:
108,227,78784,2,0,P|100:253|110:292,2,60.6666638895672,2|0|2,0:0|0:0|0:0,0:0:0:0:
78,71,79348,1,8,0:0:0:0:
225,27,79630,2,0,P|244:18|288:33,2,60.6666638895672,2|0|2,0:0|0:0|0:0,0:0:0:0:
331,144,80193,37,0,0:0:0:0:
445,252,80475,2,0,P|455:277|446:312,2,60.6666638895672,2|0|2,0:0|0:0|0:0,0:0:0:0:
331,144,81038,1,8,0:0:0:0:
471,72,81320,2,0,P|478:49|458:2,2,60.6666638895672,2|0|2,0:0|0:0|0:0,0:0:0:0:
331,144,81884,5,0,1:0:0:0:
274,290,82166,1,2,0:0:0:0:
329,345,82306,2,0,P|362:352|402:329,1,60.6666638895672,0|2,0:0|0:0,0:0:0:0:
498,231,82729,1,8,0:0:0:0:
428,89,83011,1,2,0:0:0:0:
372,34,83152,2,0,P|340:29|295:50,1,60.6666638895672,0|2,0:0|0:0,0:0:0:0:
217,159,83574,37,0,0:0:0:0:
126,288,83856,1,2,0:0:0:0:
47,287,83997,2,0,P|43:254|52:227,1,60.6666638895672,0|2,0:0|0:0,0:0:0:0:
121,86,84420,1,8,0:0:0:0:
277,105,84701,1,2,0:0:0:0:
355,114,84842,2,0,P|356:90|338:48,1,60.6666638895672,0|2,0:0|0:0,0:0:0:0:
301,208,85265,5,0,1:0:0:0:
145,179,85547,1,2,0:0:0:0:
91,236,85688,1,0,0:0:0:0:
144,293,85829,1,2,0:0:0:0:
293,345,86110,1,8,0:0:0:0:
438,284,86392,1,2,0:0:0:0:
493,227,86533,1,0,0:0:0:0:
444,164,86674,1,2,0:0:0:0:
292,205,86956,37,0,0:0:0:0:
238,56,87237,1,2,0:0:0:0:
165,86,87378,1,0,0:0:0:0:
95,54,87519,1,2,0:0:0:0:
134,206,87801,1,8,0:0:0:0:
36,329,88083,1,2,0:0:0:0:
107,362,88224,1,0,0:0:0:0:
182,337,88364,1,2,0:0:0:0:
307,241,88646,6,0,P|341:226|390:246,1,90.9999958343508,0|0,1:0|0:0,0:0:0:0:
356,358,89069,2,0,P|322:373|273:353,1,90.9999958343508,0|0,1:0|0:0,0:0:0:0:
208,255,89492,2,0,P|174:240|125:260,1,90.9999958343508,0|0,1:0|0:0,0:0:0:0:
49,349,89914,2,0,P|83:364|132:344,1,90.9999958343508,0|0,1:0|0:0,0:0:0:0:
208,255,90337,37,0,1:0:0:0:
304,185,90548,1,0,1:0:0:0:
411,233,90759,1,0,1:0:0:0:
490,145,90971,1,0,1:0:0:0:
386,86,91182,6,0,L|335:83,3,45.4999979171754,0|0|0|0,3:0|3:0|3:0|3:0,0:0:0:0:
303,52,91605,2,0,L|241:51,3,45.4999979171754,0|0|0|0,3:0|3:0|3:0|3:0,0:0:0:0:
186,72,92034,38,0,P|177:103|196:148,1,77.0000007343292,2|0,3:0|0:0,0:0:0:0:
282,186,92307,2,0,P|295:218|277:270,1,77.0000023498536,2|0,3:0|0:0,0:0:0:0:
206,319,92581,2,0,P|169:331|119:311,1,77.0000023498536,2|0,3:0|0:0,0:0:0:0:
116,226,92855,2,0,P|73:218|19:237,1,77.0000023498536,2|0,3:0|0:0,0:0:0:0:
3,317,93140,1,4,0:0:0:0:
76,130,93426,1,4,0:0:0:0:
244,244,93712,6,0,P|252:223|238:166,1,77.0000023498536,2|0,3:0|0:0,0:0:0:0:
162,109,93993,2,0,P|156:78|174:29,1,77.0000023498536,2|0,3:0|0:0,0:0:0:0:
261,76,94275,2,0,P|288:82|350:66,1,77.0000023498536,2|0,3:0|0:0,0:0:0:0:
415,9,94557,2,0,P|444:0|508:29,1,77.0000023498536,2|0,3:0|0:0,0:0:0:0:
506,109,94834,1,4,0:0:0:0:
414,287,95112,1,4,0:0:0:0:
252,178,95390,38,0,P|208:164|164:190,1,77.0000007343292,2|0,3:0|0:0,0:0:0:0:
174,273,95675,2,0,P|218:287|262:261,1,77.0000007343292,2|0,3:0|0:0,0:0:0:0:
252,168,95961,2,0,P|208:154|164:180,1,77.0000007343292,2|0,3:0|0:0,0:0:0:0:
174,263,96247,2,0,P|218:277|262:251,1,77.0000007343292,2|0,3:0|0:0,0:0:0:0:
337,229,96528,1,4,0:0:0:0:
451,64,96810,1,4,0:0:0:0:
337,229,97092,6,0,P|329:250|343:308,1,77.0000023498536,2|0,3:0|0:0,0:0:0:0:
439,302,97369,2,0,P|447:281|433:223,1,77.0000023498536,2|0,3:0|0:0,0:0:0:0:
353,142,97647,2,0,P|345:121|359:63,1,77.0000023498536,2|0,3:0|0:0,0:0:0:0:
451,64,97925,2,0,P|459:85|445:143,1,77.0000023498536,2|0,3:0|0:0,0:0:0:0:
385,214,98214,1,4,0:0:0:0:
212,112,98504,1,4,0:0:0:0:
161,259,98784,38,0,P|105:282|28:195,1,178.500003404617,0|0,1:0|0:0,0:0:0:0:
106,158,99629,2,0,P|123:100|78:39,1,119.000002269745,8|0,0:0|0:0,0:0:0:0:
6,22,100262,1,0,1:0:0:0:
96,50,100474,6,0,P|122:55|163:50,1,59.5000011348725,0|0,1:0|0:0,0:0:0:0:
246,28,100896,2,0,P|275:25|304:30,1,59.5000011348725,0|0,1:0|0:0,0:0:0:0:
382,85,101319,1,8,0:0:0:0:
466,44,101530,1,0,1:0:0:0:
450,143,101741,2,0,P|443:171|456:208,1,59.5000011348725,0|0,0:0|0:0,0:0:0:0:
480,294,102164,38,0,P|417:322|300:255,1,178.500003404617,0|0,1:0|0:0,0:0:0:0:
274,200,103009,2,0,P|294:164|262:90,1,119.000002269745,8|0,0:0|0:0,0:0:0:0:
180,60,103643,1,0,1:0:0:0:
114,128,103854,6,0,P|107:156|111:186,1,59.5000011348725,0|0,1:0|0:0,0:0:0:0:
193,233,104276,2,0,P|197:262|190:291,1,59.5000011348725,0|0,1:0|0:0,0:0:0:0:
125,361,104699,1,8,0:0:0:0:
189,291,104910,2,0,P|218:286|247:292,1,59.5000011348725,0|0,1:0|0:0,0:0:0:0:
330,340,105333,1,0,1:0:0:0:
423,323,105544,38,0,P|472:265|405:190,1,178.500003404617,0|0,1:0|0:0,0:0:0:0:
331,209,106389,2,0,P|326:161|384:98,1,119.000002269745,8|0,0:0|0:0,0:0:0:0:
435,40,107023,1,0,1:0:0:0:
365,105,107234,6,0,L|295:104,1,59.5000011348725,0|0,1:0|0:0,0:0:0:0:
224,54,107657,2,0,L|166:66,1,59.5000011348725,0|0,1:0|0:0,0:0:0:0:
100,135,108079,1,8,0:0:0:0:
176,191,108291,2,0,P|193:242|157:325,1,119.000002269745,0|0,1:0|0:0,0:0:0:0:
94,290,108924,38,0,P|136:371|232:363,1,178.500003404617,0|0,1:0|0:0,0:0:0:0:
264,292,109769,2,0,P|319:288|381:332,1,119.000002269745,8|0,0:0|0:0,0:0:0:0:
451,372,110403,1,0,1:0:0:0:
372,319,110614,6,0,L|379:238,1,59.5000011348725,0|0,1:0|0:0,0:0:0:0:
459,212,111037,2,0,L|451:154,1,59.5000011348725,0|0,1:0|0:0,0:0:0:0:
414,64,111460,1,8,0:0:0:0:
339,123,111671,2,0,P|287:131|219:92,1,119.000002269745,0|0,1:0|0:0,0:0:0:0:
143,47,112325,37,4,0:0:0:0:
57,132,112600,1,2,0:0:0:0:
57,132,112738,1,0,0:0:0:0:
57,132,112876,1,2,0:0:0:0:
144,195,113150,1,2,0:0:0:0:
72,292,113457,1,2,0:0:0:0:
72,292,113611,1,0,0:0:0:0:
72,292,113765,1,2,0:0:0:0:
190,335,114073,6,0,P|239:351|287:334,1,93.3333333333333,2|2,0:0|0:0,0:0:0:0:
327,255,114665,1,2,0:0:0:0:
258,170,114958,1,2,0:0:0:0:
360,79,115331,1,2,0:0:0:0:
256,192,115730,12,2,120435,0:0:0:0:
