osu file format v14

[General]
AudioFilename: audio.mp3
AudioLeadIn: 0
PreviewTime: 51333
Countdown: 0
SampleSet: Soft
StackLeniency: 0.6
Mode: 0
LetterboxInBreaks: 0
EpilepsyWarning: 1
WidescreenStoryboard: 1

[Editor]
DistanceSpacing: 1
BeatDivisor: 6
GridSize: 4
TimelineZoom: 1.899999

[Metadata]
Title:Carol of the Bells (Nightstep Mix)
TitleUnicode:Carol of the Bells (Nightstep Mix)
Artist:BarlowGirl
ArtistUnicode:BarlowGirl
Creator:Nuvolina
Version:Hard
Source:
Tags:dubstep MaridiuS Anto [_Kuro_Usagi_] [ Kuro Usagi ] Home for Christmas sing we now electronic english nightcore merry xmas Spaced Out Studio & Vizzwar
BeatmapID:1849929
BeatmapSetID:842355

[Difficulty]
HPDrainRate:4
CircleSize:3.5
OverallDifficulty:5
ApproachRate:7
SliderMultiplier:2.8
SliderTickRate:1

[Events]
//Background and Video events
0,0,"carolBG.jpg",0,0
//Break Periods
//Storyboard Layer 0 (Background)
//Storyboard Layer 1 (Fail)
//Storyboard Layer 2 (Pass)
//Storyboard Layer 3 (Foreground)
//Storyboard Layer 4 (Overlay)
//Storyboard Sound Samples

[TimingPoints]
780,845.070422535211,4,2,1,25,1,0
1625,869.565217391304,4,2,1,25,1,0
2494,857.142857142857,4,2,1,25,1,0
3351,845.070422535211,4,2,1,25,1,0
4196,833.333333333333,4,2,1,25,1,0
5029,845.070422535211,4,2,1,25,1,0
5874,833.333333333333,4,2,1,25,1,0
6707,810.810810810811,4,2,1,25,1,0
6977,967.741935483871,4,2,1,25,1,0
7517,857.142857142857,4,2,1,25,1,0
9231,845.070422535211,4,2,1,25,1,0
10921,839.160839160839,4,2,1,25,1,0
12599,845.070422535211,4,2,1,25,1,0
14285,845.070422535211,4,2,2,45,1,0
14285,-88.4955752212389,3,2,2,45,0,0
15130,875.912408759124,4,2,2,45,1,0
15130,-88.4955752212389,3,2,2,45,0,0
16005,816.326530612245,4,2,2,45,1,0
16005,-88.4955752212389,3,2,2,45,0,0
16820,882.35294117647,4,2,2,45,1,0
16820,-88.4955752212389,3,2,2,45,0,0
17699,821.917808219178,4,2,2,45,1,0
17699,-88.4955752212389,3,2,2,45,0,0
18520,857.142857142857,4,2,2,45,1,0
18520,-88.4955752212389,3,2,2,45,0,0
19380,869.565217391304,4,2,2,45,1,0
19380,-88.4955752212389,3,2,2,45,0,0
20249,833.333333333333,4,2,2,45,1,0
20249,-88.4955752212389,3,2,2,45,0,0
21079,857.142857142857,4,2,2,45,1,0
21079,-74.0740740740741,4,2,2,45,0,0
22793,810.810810810811,4,2,2,45,1,0
22793,-74.0740740740741,4,2,2,45,0,0
23603,845.070422535211,4,2,2,45,1,0
23603,-74.0740740740741,4,2,2,45,0,0
24450,845.070422535211,4,2,1,45,1,0
24450,-74.0740740740741,4,2,1,45,0,0
26140,895.522388059701,4,2,1,45,1,0
26140,-74.0740740740741,4,2,1,45,0,0
27034,810.810810810811,4,2,1,45,1,0
27034,-74.0740740740741,4,2,1,45,0,0
27843,821.917808219178,4,2,1,45,1,0
27843,-74.0740740740741,4,2,1,45,0,0
28664,869.565217391304,4,2,1,45,1,0
28664,-74.0740740740741,4,2,1,45,0,0
29533,833.333333333333,4,2,1,45,1,0
29533,-74.0740740740741,4,2,1,45,0,0
30366,882.35294117647,4,2,1,45,1,0
30366,-74.0740740740741,4,2,1,45,0,0
31180,845.070422535211,4,2,1,45,1,0
31180,-100,4,2,1,45,0,0
37945,845.070422535211,4,2,1,80,1,1
37945,-66.6666666666667,4,2,1,80,0,1
51456,845.30853761623,4,2,1,60,1,0
51456,-74.0740740740741,4,2,1,60,0,0
64997,845.070422535211,4,2,1,80,1,1
64997,-66.6666666666667,4,2,1,80,0,1
78503,845.30853761623,4,2,1,45,1,0
78503,-74.0740740740741,4,2,1,45,0,0
92034,821.917808219178,4,2,1,60,1,0
92034,-74.0740740740741,4,2,1,60,0,0
92855,857.142857142857,4,2,1,60,1,0
92855,-74.0740740740741,4,2,1,60,0,0
93712,845.070422535211,4,2,1,60,1,0
93712,-74.0740740740741,4,2,1,60,0,0
94557,833.333333333333,4,2,1,60,1,0
94557,-74.0740740740741,4,2,1,60,0,0
95390,857.142857142857,4,2,1,60,1,0
95390,-74.0740740740741,4,2,1,60,0,0
96247,845.070422535211,4,2,1,60,1,0
96247,-74.0740740740741,4,2,1,60,0,0
97092,833.333333333333,4,2,1,60,1,0
97092,-74.0740740740741,4,2,1,60,0,0
97925,869.565217391304,4,2,1,60,1,0
97925,-74.0740740740741,4,2,1,60,0,0
98784,845.070422535211,4,2,1,60,1,0
98784,-117.647058823529,4,2,1,60,0,0
112325,827.586206896552,4,2,1,45,1,0
113150,923.076923076923,4,2,1,45,1,0
114073,888.888888888889,4,2,1,35,1,0
114958,1111.11111111111,4,2,1,35,1,0
115330,1200,4,2,1,35,1,0
115730,1176.47058823529,4,2,1,35,1,0
120435,1043.47826086957,4,2,1,15,1,0
122513,1025.64102564103,4,2,1,15,1,0
124564,1052.63157894737,4,2,1,15,1,0
126669,1142.85714285714,4,2,1,15,1,0

[Colours]
Combo1 : 255,255,166
Combo2 : 223,223,223
Combo3 : 255,30,30
Combo4 : 218,148,71

[HitObjects]
493,253,780,5,2,3:0:0:0:
391,205,1061,2,0,P|371:154|398:106,1,93.3333333333333,2|2,0:0|0:0,0:0:0:0:
457,39,1625,1,2,3:0:0:0:
383,120,1914,2,0,L|259:103,1,93.3333333333333,2|2,0:0|0:0,0:0:0:0:
178,84,2494,37,2,3:0:0:0:
85,146,2779,2,0,L|19:143,2,46.6666666666667,2|0|2,0:0|0:0|0:0,0:0:0:0:
140,245,3351,1,2,3:0:0:0:
251,247,3632,2,0,L|251:183,2,46.6666666666667,2|0|2,0:0|0:0|0:0,0:0:0:0:
351,300,4196,5,2,3:0:0:0:
460,280,4473,2,0,P|450:243|480:177,1,93.3333333333333,2|2,0:0|0:0,0:0:0:0:
465,80,5029,1,2,3:0:0:0:
354,96,5310,2,0,L|356:206,1,93.3333333333333,2|2,0:0|0:0,0:0:0:0:
357,303,5874,37,2,3:0:0:0:
249,283,6151,2,0,L|250:215,2,46.6666666666667,2|0|2,0:0|0:0|0:0,0:0:0:0:
177,361,6707,1,2,3:0:0:0:
102,277,6977,2,0,L|29:277,2,46.6666666666667,2|0|2,0:0|0:0|0:0,0:0:0:0:
167,205,7517,5,2,0:0:0:0:
231,152,9231,37,2,3:0:0:0:
287,86,10921,5,2,0:0:0:0:
348,151,12599,37,2,3:0:0:0:
419,100,14285,5,2,3:0:0:0:
366,191,14566,2,0,L|367:247,2,52.7333334942627,2|0|2,0:0|0:0|0:0,0:0:0:0:
297,114,15130,1,2,3:0:0:0:
205,165,15421,2,0,P|180:171|149:163,2,52.7333334942627,2|0|8,0:0|0:0|0:0,0:0:0:0:
185,66,16005,37,2,3:0:0:0:
84,52,16277,2,0,L|71:-10,2,52.7333334942627,2|0|2,0:0|0:0|0:0,0:0:0:0:
32,135,16820,1,2,3:0:0:0:
92,221,17114,2,0,P|116:217|158:226,2,52.7333334942627,2|0|8,0:0|0:0|0:0,0:0:0:0:
45,327,17699,6,0,P|91:352|167:325,1,105.466666988525,2|2,3:0|0:0,0:0:0:0:
184,313,18109,2,0,P|211:308|259:324,1,52.7333334942627,0|2,0:0|0:0,0:0:0:0:
338,351,18520,2,0,P|349:300|322:239,1,105.466666988525,2|2,3:0|0:0,0:0:0:0:
289,219,18948,2,0,P|287:194|301:146,1,52.7333334942627,0|8,0:0|0:0,0:0:0:0:
349,78,19380,38,0,P|403:72|466:95,1,105.466666988525,2|2,3:0|0:0,0:0:0:0:
454,138,19814,2,0,P|447:171|462:196,1,52.7333334942627,0|2,0:0|0:0,0:0:0:0:
490,291,20249,2,0,P|438:309|373:277,1,105.466666988525,2|2,3:0|0:0,0:0:0:0:
362,249,20665,2,0,P|329:240|289:252,1,52.7333334942627,0|8,0:0|0:0,0:0:0:0:
242,342,21079,5,2,3:0:0:0:
120,311,21364,1,2,0:0:0:0:
65,342,21507,2,0,L|71:270,1,63.0000002403259,0|8,0:0|0:0,0:0:0:0:
179,214,21936,1,2,3:0:0:0:
95,119,22221,1,2,0:0:0:0:
33,134,22364,2,0,L|49:56,1,63.0000002403259,0|8,0:0|0:0,0:0:0:0:
164,11,22793,37,2,3:0:0:0:
270,77,23063,1,2,0:0:0:0:
324,45,23198,2,0,P|331:74|324:115,1,63.0000002403259,0|8,0:0|0:0,0:0:0:0:
269,212,23603,1,2,3:0:0:0:
367,290,23884,1,2,0:0:0:0:
429,299,24025,2,0,P|433:268|423:236,1,63.0000002403259,0|8,0:0|0:0,0:0:0:0:
479,123,24450,6,0,P|425:100|356:127,1,126.000000480652,2|2,3:0|0:0,0:0:0:0:
320,165,24872,1,0,0:0:0:0:
257,153,25013,2,0,P|236:86|277:19,1,125.999996154785,2|2,0:0|3:0,0:0:0:0:
130,46,25576,1,2,0:0:0:0:
69,28,25717,2,0,L|82:95,1,63.0000002403259,0|2,0:0|0:0,0:0:0:0:
161,178,26140,38,0,P|179:232|148:300,1,126.000000480652,2|2,3:0|0:0,0:0:0:0:
102,328,26587,1,0,0:0:0:0:
45,299,26737,1,2,0:0:0:0:
20,162,27035,2,0,P|2:111|35:44,1,126.000000480652,2|2,3:0|0:0,0:0:0:0:
83,80,27439,1,0,0:0:0:0:
133,42,27574,2,0,P|164:37|199:42,1,62.9999980773926,2|0,0:0|0:0,0:0:0:0:
231,90,27843,5,2,3:0:0:0:
341,30,28116,1,2,3:0:0:0:
396,143,28390,1,2,3:0:0:0:
291,199,28664,1,2,3:0:0:0:
231,90,28953,2,0,P|178:76|112:114,1,125.999996154785,4|4,0:0|0:0,0:0:0:0:
48,220,29533,37,2,3:0:0:0:
131,314,29810,1,2,3:0:0:0:
244,258,30088,1,2,3:0:0:0:
347,317,30366,1,2,3:0:0:0:
463,268,30660,2,0,P|471:220|420:135,1,126.000000480652,4|4,0:0|0:0,0:0:0:0:
342,71,31180,5,0,1:0:0:0:
249,40,32870,37,0,1:0:0:0:
167,99,34560,5,0,1:0:0:0:
166,126,34982,37,0,1:0:0:0:
164,153,35405,5,0,1:0:0:0:
162,180,35827,37,0,1:0:0:0:
162,215,36250,5,0,1:0:0:0:
153,309,36461,1,0,1:0:0:0:
62,301,36672,1,0,1:0:0:0:
74,208,36884,1,0,1:0:0:0:
162,215,37095,38,0,L|205:215,3,35,0|0|0|0,3:0|3:0|3:0|3:0,0:0:0:0:
222,189,37518,2,0,L|266:189,3,35,0|0|0|0,3:0|3:0|3:0|3:0,0:0:0:0:
303,190,37945,21,0,1:0:0:0:
303,190,38367,1,0,1:0:0:0:
177,57,38790,2,0,L|104:56,3,52.5000020027161,8|0|0|0,3:2|3:0|3:0|3:0,0:0:0:0:
102,92,39212,2,0,L|37:91,3,52.5000020027161,0|0|0|0,3:0|3:0|3:0|3:0,0:0:0:0:
10,95,39635,5,4,3:0:0:0:
39,172,39775,2,0,P|48:201|21:263,1,70.0000026702882,4|4,3:0|3:0,0:0:0:0:
0,311,40057,1,4,3:0:0:0:
188,299,40480,1,4,3:0:0:0:
188,299,40902,2,0,B|249:271|249:271|326:306,1,140.000005340576,4|0,3:0|0:0,0:0:0:0:
377,360,41325,37,0,1:0:0:0:
377,360,41747,1,0,1:0:0:0:
489,222,42170,2,0,L|485:164,3,52.5000020027161,8|0|0|0,3:2|3:0|3:0|3:0,0:0:0:0:
438,160,42592,2,0,L|439:96,3,52.5000020027161,0|0|0|0,3:0|3:0|3:0|3:0,0:0:0:0:
406,72,43015,6,0,L|319:75,2,70.0000026702882,4|4|4,3:0|3:0|3:0,0:0:0:0:
467,22,43437,1,4,3:0:0:0:
362,180,43860,1,4,3:0:0:0:
362,180,44283,2,0,P|386:239|348:316,1,140.000005340576,4|0,3:0|0:0,0:0:0:0:
285,329,44705,37,0,1:0:0:0:
285,329,45128,1,0,1:0:0:0:
143,190,45550,2,0,P|137:163|146:135,3,52.5000020027161,8|0|0|0,3:2|3:0|3:0|3:0,0:0:0:0:
196,141,45973,2,0,P|197:120|190:85,3,52.5000020027161,0|0|0|0,3:0|3:0|3:0|3:0,0:0:0:0:
175,38,46395,5,4,3:0:0:0:
102,74,46536,2,0,P|70:84|24:71,1,70.0000026702882,4|4,3:0|3:0,0:0:0:0:
0,11,46818,1,4,3:0:0:0:
118,184,47240,1,4,3:0:0:0:
118,184,47663,2,0,B|138:247|138:247|88:318,1,140.000005340576,4|0,3:0|0:0,0:0:0:0:
12,316,48085,37,0,1:0:0:0:
12,316,48508,1,0,1:0:0:0:
221,308,48930,2,0,L|284:311,3,52.5000020027161,8|0|0|0,3:2|3:0|3:0|3:0,0:0:0:0:
304,267,49353,2,0,L|377:269,3,52.5000020027161,0|0|0|0,3:0|3:0|3:0|3:0,0:0:0:0:
409,269,49775,6,0,P|415:236|392:191,2,70.0000026702882,4|4|4,3:0|3:0|3:0,0:0:0:0:
387,350,50198,1,4,3:0:0:0:
240,198,50621,1,4,3:0:0:0:
240,198,51043,2,0,P|231:135|267:68,1,140.000005340576,4|0,3:0|0:0,0:0:0:0:
332,107,51456,22,0,P|387:124|461:95,1,126.000000480652,0|2,1:0|0:0,0:0:0:0:
500,65,51878,2,0,L|504:149,1,63.0000002403259,0|2,0:0|0:0,0:0:0:0:
474,251,52301,2,0,P|413:270|348:244,1,125.999996154785,8|2,0:0|0:0,0:0:0:0:
308,209,52723,2,0,P|282:204|233:226,1,62.9999980773926,0|2,0:0|0:0,0:0:0:0:
219,337,53146,38,0,L|88:321,1,126.000000480652,0|2,0:0|0:0,0:0:0:0:
62,376,53569,2,0,L|-10:364,1,63.0000002403259,0|2,1:0|0:0,0:0:0:0:
52,250,53991,2,0,P|64:205|41:126,1,125.999996154785,8|2,0:0|0:0,0:0:0:0:
8,77,54414,2,0,P|9:50|25:6,1,62.9999980773926,0|2,0:0|0:0,0:0:0:0:
146,10,54837,5,0,1:0:0:0:
230,102,55119,1,2,0:0:0:0:
288,78,55259,2,0,L|281:159,1,63.0000002403259,0|2,0:0|0:0,0:0:0:0:
254,264,55682,1,8,0:0:0:0:
364,324,55964,1,2,0:0:0:0:
425,337,56105,2,0,P|436:309|424:260,1,62.9999980773926,0|2,0:0|0:0,0:0:0:0:
408,152,56527,37,0,0:0:0:0:
282,140,56809,1,2,0:0:0:0:
288,202,56950,2,0,L|224:197,1,63.0000002403259,0|2,1:0|0:0,0:0:0:0:
142,100,57373,1,8,0:0:0:0:
39,172,57654,1,2,0:0:0:0:
10,228,57795,2,0,P|6:260|26:309,1,62.9999980773926,0|2,0:0|0:0,0:0:0:0:
128,341,58218,6,0,P|187:354|268:323,1,126.000000480652,0|2,1:0|0:0,0:0:0:0:
297,295,58641,1,0,0:0:0:0:
280,234,58782,1,2,0:0:0:0:
158,200,59063,2,0,P|137:144|169:74,1,126.000000480652,8|2,0:0|0:0,0:0:0:0:
213,52,59486,1,0,0:0:0:0:
267,83,59627,1,2,0:0:0:0:
388,50,59909,37,0,0:0:0:0:
454,156,60190,1,2,0:0:0:0:
483,211,60331,1,0,1:0:0:0:
446,262,60472,1,2,0:0:0:0:
339,328,60754,1,8,0:0:0:0:
248,240,61036,1,2,0:0:0:0:
190,214,61177,1,0,0:0:0:0:
139,251,61317,1,2,0:0:0:0:
46,335,61599,5,0,1:0:0:0:
92,151,62022,1,0,1:0:0:0:
198,306,62445,1,0,1:0:0:0:
284,137,62867,1,0,1:0:0:0:
394,290,63290,37,0,1:0:0:0:
476,242,63501,1,0,1:0:0:0:
427,161,63712,1,0,1:0:0:0:
348,213,63924,1,0,1:0:0:0:
394,290,64135,2,0,L|388:343,3,47.2500001802444,0|0|0|0,3:0|3:0|3:0|3:0,0:0:0:0:
344,318,64558,2,0,L|338:371,3,47.2500001802444,0|0|0|0,3:0|3:0|3:0|3:0,0:0:0:0:
288,375,64997,21,0,1:0:0:0:
288,375,65419,1,0,1:0:0:0:
171,254,65842,2,0,P|162:229|171:192,3,52.5000020027161,8|0|0|0,3:2|3:0|3:0|3:0,0:0:0:0:
205,191,66264,2,0,P|207:163|194:134,3,52.5000020027161,0|0|0|0,3:0|3:0|3:0|3:0,0:0:0:0:
181,99,66687,5,4,3:0:0:0:
243,43,66827,2,0,P|278:39|327:78,1,70.0000026702882,4|4,3:0|3:0,0:0:0:0:
350,127,67109,1,4,3:0:0:0:
489,33,67532,1,4,3:0:0:0:
489,33,67954,2,0,B|520:88|465:124|510:173,1,140.000005340576,4|0,3:0|0:0,0:0:0:0:
506,251,68377,37,0,1:0:0:0:
506,251,68799,1,0,1:0:0:0:
361,337,69222,2,0,L|299:337,3,52.5000020027161,8|0|0|0,3:2|3:0|3:0|3:0,0:0:0:0:
308,294,69644,2,0,L|247:295,3,52.5000020027161,0|0|0|0,3:0|3:0|3:0|3:0,0:0:0:0:
202,304,70067,6,0,L|203:390,2,70.0000026702882,4|4|4,3:0|3:0|3:0,0:0:0:0:
134,264,70489,1,4,3:0:0:0:
274,171,70912,1,4,3:0:0:0:
274,171,71335,2,0,P|298:112|260:35,1,140.000005340576,4|0,3:0|0:0,0:0:0:0:
198,22,71757,37,0,1:0:0:0:
198,22,72180,1,0,1:0:0:0:
55,110,72602,2,0,P|49:137|58:165,3,52.5000020027161,8|0|0|0,3:2|3:0|3:0|3:0,0:0:0:0:
91,183,73025,2,0,P|92:204|85:239,3,52.5000020027161,0|0|0|0,3:0|3:0|3:0|3:0,0:0:0:0:
53,260,73447,5,4,3:0:0:0:
81,335,73588,2,0,P|113:345|159:332,1,70.0000026702882,4|4,3:0|3:0,0:0:0:0:
213,301,73870,1,4,3:0:0:0:
344,197,74292,1,4,3:0:0:0:
344,197,74715,2,0,B|407:177|407:177|478:227,1,140.000005340576,4|0,3:0|0:0,0:0:0:0:
486,303,75137,37,0,1:0:0:0:
486,303,75560,1,0,1:0:0:0:
326,353,75982,2,0,L|323:290,3,52.5000020027161,8|0|0|0,3:2|3:0|3:0|3:0,0:0:0:0:
287,277,76405,2,0,L|285:204,3,52.5000020027161,0|0|0|0,3:0|3:0|3:0|3:0,0:0:0:0:
263,188,76827,6,0,P|230:182|185:205,2,70.0000026702882,4|4|4,3:0|3:0|3:0,0:0:0:0:
319,127,77250,1,4,3:0:0:0:
177,36,77673,1,4,3:0:0:0:
177,36,78095,2,0,P|114:27|47:63,1,140.000005340576,4|0,3:0|0:0,0:0:0:0:
74,132,78503,22,0,P|91:187|62:261,1,126.000000480652,0|2,1:0|0:0,0:0:0:0:
11,272,78925,2,0,P|4:308|23:356,1,63.0000002403259,0|2,0:0|0:0,0:0:0:0:
135,341,79348,2,0,P|196:322|261:348,1,125.999996154785,8|2,0:0|0:0,0:0:0:0:
308,371,79770,2,0,P|334:376|383:354,1,62.9999980773926,0|2,0:0|0:0,0:0:0:0:
451,270,80193,38,0,L|433:124,1,126.000000480652,0|2,0:0|0:0,0:0:0:0:
375,164,80616,2,0,L|372:98,1,63.0000002403259,0|2,0:0|0:0,0:0:0:0:
251,140,81038,2,0,L|257:279,1,126.000000480652,8|2,0:0|0:0,0:0:0:0:
193,258,81461,2,0,L|210:329,1,63.0000002403259,0|2,0:0|0:0,0:0:0:0:
329,353,81884,5,0,1:0:0:0:
449,318,82166,1,2,0:0:0:0:
399,279,82306,2,0,P|393:252|411:203,1,63.0000002403259,0|2,0:0|0:0,0:0:0:0:
486,124,82729,1,8,0:0:0:0:
378,57,83011,1,2,0:0:0:0:
333,100,83152,2,0,P|302:110|259:88,1,63.0000002403259,0|2,0:0|0:0,0:0:0:0:
163,39,83574,37,0,0:0:0:0:
97,146,83856,1,2,0:0:0:0:
150,178,83997,2,0,P|149:223|137:239,1,63.0000002403259,0|2,0:0|0:0,0:0:0:0:
49,325,84420,1,8,0:0:0:0:
168,364,84701,1,2,0:0:0:0:
226,341,84842,2,0,L|235:256,1,63.0000002403259,0|2,0:0|0:0,0:0:0:0:
176,165,85265,6,0,P|235:152|316:183,1,126.000000480652,0|2,1:0|0:0,0:0:0:0:
336,219,85688,1,0,0:0:0:0:
393,189,85829,1,2,0:0:0:0:
508,138,86110,2,0,P|529:194|497:264,1,126.000000480652,8|2,0:0|0:0,0:0:0:0:
447,275,86533,1,0,0:0:0:0:
463,335,86674,1,2,0:0:0:0:
340,364,86956,37,0,0:0:0:0:
224,314,87237,1,2,0:0:0:0:
178,357,87378,1,0,0:0:0:0:
132,312,87519,1,2,0:0:0:0:
185,198,87801,1,8,0:0:0:0:
245,87,88083,1,2,0:0:0:0:
190,54,88224,1,0,0:0:0:0:
135,85,88364,1,2,0:0:0:0:
185,198,88646,5,0,1:0:0:0:
314,335,89069,1,0,1:0:0:0:
448,202,89492,1,0,1:0:0:0:
317,66,89914,1,0,1:0:0:0:
185,198,90337,37,0,1:0:0:0:
242,273,90548,1,0,1:0:0:0:
313,211,90759,1,0,1:0:0:0:
256,135,90971,1,0,1:0:0:0:
185,198,91182,2,0,L|139:203,3,47.2500001802444,0|0|0|0,3:0|3:0|3:0|3:0,0:0:0:0:
98,176,91605,2,0,L|42:176,3,47.2500001802444,0|0|0|0,3:0|3:0|3:0|3:0,0:0:0:0:
12,186,92034,5,2,3:0:0:0:
25,61,92307,1,2,3:0:0:0:
143,17,92581,1,2,3:0:0:0:
234,95,92855,1,2,3:0:0:0:
343,33,93140,2,0,P|362:86|322:167,1,126.000000480652,4|4,0:0|0:0,0:0:0:0:
232,218,93712,37,2,3:0:0:0:
279,334,93993,1,2,3:0:0:0:
389,273,94275,1,2,3:0:0:0:
340,149,94557,1,2,3:0:0:0:
232,218,94834,2,0,P|186:207|115:251,1,125.999996154785,4|4,0:0|0:0,0:0:0:0:
59,350,95390,5,2,3:0:0:0:
182,374,95675,1,2,3:0:0:0:
307,358,95961,1,2,3:0:0:0:
418,294,96247,1,2,3:0:0:0:
406,174,96528,2,0,P|414:132|370:53,1,125.999996154785,4|4,0:0|0:0,0:0:0:0:
254,26,97092,37,2,3:0:0:0:
281,148,97369,1,2,3:0:0:0:
406,174,97647,1,2,3:0:0:0:
364,287,97925,1,2,3:0:0:0:
252,231,98214,2,0,P|184:227|147:286,1,126.000000480652,4|4,0:0|0:0,0:0:0:0:
22,252,98784,6,0,P|10:190|25:133,1,119.000002269745,0|0,1:0|0:0,0:0:0:0:
105,50,99629,1,8,0:0:0:0:
283,50,100262,1,0,1:0:0:0:
283,50,100474,38,0,P|354:64|410:35,1,119.000002269745,0|0,1:0|1:0,0:0:0:0:
507,87,101319,1,8,0:0:0:0:
507,87,101530,1,0,1:0:0:0:
454,257,102164,6,0,P|394:240|325:274,1,119.000002269745,0|0,1:0|0:0,0:0:0:0:
252,336,103009,1,8,0:0:0:0:
99,242,103643,1,0,1:0:0:0:
99,242,103854,38,0,P|112:183|96:114,1,119.000002269745,0|0,1:0|1:0,0:0:0:0:
171,30,104699,1,8,0:0:0:0:
171,30,104910,1,0,1:0:0:0:
249,119,105333,1,0,1:0:0:0:
249,119,105544,6,0,P|310:99|369:117,1,119.000002269745,0|0,1:0|0:0,0:0:0:0:
458,181,106389,1,8,0:0:0:0:
344,318,107023,1,0,1:0:0:0:
344,318,107234,38,0,P|281:335|224:315,1,119.000002269745,0|0,1:0|1:0,0:0:0:0:
171,216,108079,1,8,0:0:0:0:
171,216,108291,1,0,1:0:0:0:
253,58,108924,6,0,P|195:43|128:59,1,119.000002269745,0|0,1:0|0:0,0:0:0:0:
55,140,109769,1,8,0:0:0:0:
34,317,110403,1,0,1:0:0:0:
34,317,110614,38,0,P|98:331|157:316,1,119.000002269745,0|0,1:0|1:0,0:0:0:0:
229,230,111460,1,8,0:0:0:0:
229,230,111671,1,0,1:0:0:0:
430,139,112325,5,4,0:0:0:0:
433,224,112600,1,2,0:0:0:0:
433,224,112738,2,0,L|500:226,1,46.6666666666667,0|2,0:0|0:0,0:0:0:0:
476,329,113150,1,2,0:0:0:0:
381,354,113457,1,2,0:0:0:0:
381,354,113611,2,0,L|315:353,1,46.6666666666667,0|2,0:0|0:0,0:0:0:0:
255,291,114073,38,0,L|255:185,2,93.3333333333333,2|2|2,0:0|0:0|0:0,0:0:0:0:
182,361,114958,1,2,0:0:0:0:
182,361,115331,1,2,0:0:0:0:
256,192,115730,12,2,120435,0:0:0:0:
