osu file format v14

[General]
AudioFilename: audio.mp3
AudioLeadIn: 0
PreviewTime: -1
Countdown: 0
SampleSet: Normal
StackLeniency: 0.7
Mode: 0
LetterboxInBreaks: 0
WidescreenStoryboard: 1

[Editor]
DistanceSpacing: 1.2
BeatDivisor: 8
GridSize: 4
TimelineZoom: 1.1

[Metadata]
Title:Times We Had (160 bpm)
TitleUnicode:Times We Had (160 bpm)
Artist:Barlito
ArtistUnicode:Barlito
Creator:Sliq
Version:Remember
Source:
Tags:
BeatmapID:2472125
BeatmapSetID:1186057

[Difficulty]
HPDrainRate:4
CircleSize:4
OverallDifficulty:8
ApproachRate:9.2
SliderMultiplier:1.6
SliderTickRate:1

[Events]
//Background and Video events
0,0,"med_1502258747_image_waifu2x_art_noise3_scale_tta_1.png",0,0
//Break Periods
//Storyboard Layer 0 (Background)
//Storyboard Layer 1 (Fail)
//Storyboard Layer 2 (Pass)
//Storyboard Layer 3 (Foreground)
//Storyboard Layer 4 (Overlay)
//Storyboard Sound Samples

[TimingPoints]
2166,375,4,1,0,100,1,0
8447,-66.6666666666667,4,1,0,100,0,0
8494,-66.6666666666667,4,1,0,10,0,0
8916,-66.6666666666667,4,1,0,100,0,0
8962,-66.6666666666667,4,1,0,10,0,0
9244,-66.6666666666667,4,1,0,100,0,0
9291,-66.6666666666667,4,1,0,10,0,0
9666,-66.6666666666667,4,1,0,100,0,0
9712,-66.6666666666667,4,1,0,10,0,0
10041,-66.6666666666667,4,1,0,100,0,0
10087,-66.6666666666667,4,1,0,10,0,0
10791,-100,4,1,0,100,0,0
12291,-100,4,1,0,100,0,0
14353,-100,4,1,0,10,0,0
14494,-66.6666666666667,4,1,0,100,0,0
14541,-66.6666666666667,4,1,0,10,0,0
14916,-66.6666666666667,4,1,0,100,0,0
15150,-66.6666666666667,4,1,0,10,0,0
15244,-66.6666666666667,4,1,0,100,0,0
15572,-66.6666666666667,4,1,0,10,0,0
15666,-66.6666666666667,4,1,0,100,0,0
15947,-66.6666666666667,4,1,0,10,0,0
16041,-66.6666666666667,4,1,0,100,0,0
16087,-66.6666666666667,4,1,0,10,0,0
16416,-100,4,1,0,100,0,0
16791,-100,4,1,0,100,0,0
18197,-100,4,1,0,10,0,0
18291,-100,4,1,0,100,0,0
19041,-117.647058823529,4,1,0,100,0,0
20166,-100,4,1,0,100,0,0
20447,-100,4,1,0,10,0,0
20541,-66.6666666666667,4,1,0,100,0,0
20587,-66.6666666666667,4,1,0,10,0,0
20916,-66.6666666666667,4,1,0,100,0,0
21150,-66.6666666666667,4,1,0,10,0,0
21244,-66.6666666666667,4,1,0,100,0,0
21572,-66.6666666666667,4,1,0,10,0,0
21666,-66.6666666666667,4,1,0,100,0,0
21947,-66.6666666666667,4,1,0,10,0,0
22041,-66.6666666666667,4,1,0,100,0,0
22087,-66.6666666666667,4,1,0,10,0,0
22791,-66.6666666666667,4,1,0,100,0,0
30666,-57.1428571428571,4,1,0,100,0,0
31978,-66.6666666666667,4,1,0,100,0,0
32447,-66.6666666666667,4,1,0,10,0,0
32541,-66.6666666666667,4,1,0,100,0,0
32587,-66.6666666666667,4,1,0,10,0,0
32916,-66.6666666666667,4,1,0,100,0,0
33150,-66.6666666666667,4,1,0,10,0,0
33244,-66.6666666666667,4,1,0,100,0,0
33525,-66.6666666666667,4,1,0,10,0,0
33666,-66.6666666666667,4,1,0,100,0,0
33947,-66.6666666666667,4,1,0,10,0,0
34041,-66.6666666666667,4,1,0,100,0,0
34087,-66.6666666666667,4,1,0,10,0,0
34603,-66.6666666666667,4,1,0,100,0,0
71916,-100,4,1,0,50,0,0
83728,-100,4,1,0,100,0,0
86353,-100,4,1,0,10,0,0
86447,-66.6666666666667,4,1,0,100,0,0
86494,-66.6666666666667,4,1,0,10,0,0
86916,-66.6666666666667,4,1,0,100,0,0
87197,-33.3333333333333,4,1,0,10,0,0
87291,-66.6666666666667,4,1,0,100,0,0
87384,-66.6666666666667,4,1,0,10,0,0
87478,-66.6666666666667,4,1,0,100,0,0
87572,-66.6666666666667,4,1,0,10,0,0
87666,-66.6666666666667,4,1,0,100,0,0
87759,-66.6666666666667,4,1,0,10,0,0
88041,-66.6666666666667,4,1,0,100,0,0
88087,-66.6666666666667,4,1,0,10,0,0
88603,-28.5714285714286,4,1,0,100,0,0
89166,-100,4,1,0,100,0,0
90197,-100,4,1,0,10,0,0
90291,-100,4,1,0,100,0,0
91041,-117.647058823529,4,1,0,100,0,0
92166,-100,4,1,0,100,0,0
92447,-100,4,1,0,10,0,0
92541,-100,4,1,0,100,0,0
92587,-100,4,1,0,10,0,0
92916,-50,4,1,0,100,0,0
93197,-50,4,1,0,10,0,0
93291,-50,4,1,0,100,0,0
93572,-50,4,1,0,10,0,0
93666,-50,4,1,0,100,0,0
93947,-50,4,1,0,10,0,0
94041,-50,4,1,0,100,0,0
94087,-50,4,1,0,10,0,0
94416,-66.6666666666667,4,1,0,100,0,0
126337,-66.6666666666667,4,1,0,10,0,0
126666,-66.6666666666667,4,1,0,100,0,0

[HitObjects]
104,72,5634,5,0,0:0:0:0:
104,72,5822,2,0,B|98:165|168:230,1,160
272,256,6384,1,0,0:0:0:0:
272,256,6619,2,0,P|336:248|368:224,1,100
363,228,7041,1,0,0:0:0:0:
176,224,7884,5,0,0:0:0:0:
176,224,8072,1,0,0:0:0:0:
168,64,8447,2,0,L|184:96,1,30.0000011444092
288,64,8916,2,0,L|304:96,1,30.0000011444092
256,232,9244,2,0,L|272:264,1,30.0000011444092
400,96,9666,2,0,L|416:128,1,30.0000011444092
368,264,10041,2,0,L|384:296,1,30.0000011444092
256,272,10791,5,0,0:0:0:0:
224,208,10978,1,0,0:0:0:0:
176,112,11166,1,0,0:0:0:0:
144,272,11728,5,0,0:0:0:0:
144,272,11916,2,0,B|184:304|232:296,1,80
392,200,12291,1,0,0:0:0:0:
304,336,12478,1,0,0:0:0:0:
272,176,12666,1,0,0:0:0:0:
392,288,12853,1,0,0:0:0:0:
224,256,13041,1,0,0:0:0:0:
352,120,13931,5,0,0:0:0:0:
352,120,14166,2,0,L|312:208,1,80
272,288,14494,2,0,L|248:240,1,40
164,68,14916,6,0,B|164:60|164:60|312:100,1,150.000005722046
392,128,15244,2,0,B|400:128|400:128|220:220,1,210.000008010865
112,272,15666,2,0,B|104:272|104:272|296:304,1,180.000006866455
392,320,16041,2,0,L|376:288,1,30.0000011444092
152,136,16416,6,0,B|192:112|240:112,1,80
344,112,16791,1,0,0:0:0:0:
272,200,16978,1,0,0:0:0:0:
280,56,17166,1,0,0:0:0:0:
376,208,17353,1,0,0:0:0:0:
184,144,17541,1,0,0:0:0:0:
400,64,17728,1,0,0:0:0:0:
304,288,17916,6,0,B|240:312|184:296,1,120
144,272,18291,1,0,0:0:0:0:
112,184,18478,1,0,0:0:0:0:
168,104,18666,1,0,0:0:0:0:
264,128,18853,1,0,0:0:0:0:
264,224,19041,2,0,B|240:328|240:328|280:296|344:296|360:320|360:344|424:344|464:304|464:304,1,340.000006484985
472,144,20166,6,0,L|376:216,1,120
320,240,20541,2,0,L|288:224,1,30.0000011444092
88,104,20916,2,0,B|80:104|80:104|144:256,1,150.000005722046
176,320,21244,2,0,B|176:328|176:328|256:120,1,210.000008010865
280,56,21666,2,0,B|280:48|280:48|368:216,1,180.000006866455
400,272,22041,2,0,L|416:240,1,30.0000011444092
240,184,22791,5,0,0:0:0:0:
64,248,22978,1,0,0:0:0:0:
248,296,23166,1,0,0:0:0:0:
128,144,23353,1,0,0:0:0:0:
136,336,23541,1,0,0:0:0:0:
240,184,23728,1,0,0:0:0:0:
64,248,23916,5,0,0:0:0:0:
64,248,24009,1,0,0:0:0:0:
64,248,24103,1,0,0:0:0:0:
296,256,24291,1,0,0:0:0:0:
296,256,24384,1,0,0:0:0:0:
296,256,24478,1,0,0:0:0:0:
136,80,24666,1,0,0:0:0:0:
216,336,24853,1,0,0:0:0:0:
296,168,25041,5,0,0:0:0:0:
296,168,25134,1,0,0:0:0:0:
296,168,25228,1,0,0:0:0:0:
408,336,25416,1,0,0:0:0:0:
176,256,25603,1,0,0:0:0:0:
384,104,25791,1,0,0:0:0:0:
280,296,25978,1,0,0:0:0:0:
104,80,26166,2,0,B|168:96|168:96|224:144,1,120.000004577637
400,312,26541,5,0,0:0:0:0:
360,224,26728,1,0,0:0:0:0:
288,56,26916,1,0,0:0:0:0:
288,56,27009,1,0,0:0:0:0:
288,56,27103,1,0,0:0:0:0:
216,256,27291,1,0,0:0:0:0:
216,256,27384,1,0,0:0:0:0:
216,256,27478,1,0,0:0:0:0:
440,80,27666,5,0,0:0:0:0:
352,304,27853,1,0,0:0:0:0:
208,96,28041,1,0,0:0:0:0:
432,208,28228,1,0,0:0:0:0:
152,208,28416,1,0,0:0:0:0:
368,48,28603,6,0,L|336:128,1,60.0000022888184
296,224,28790,1,0,0:0:0:0:
496,104,28978,1,0,0:0:0:0:
248,128,29166,1,0,0:0:0:0:
400,336,29353,1,0,0:0:0:0:
408,88,29541,1,0,0:0:0:0:
240,288,29728,5,0,0:0:0:0:
312,48,29916,1,0,0:0:0:0:
176,136,30103,1,0,0:0:0:0:
304,208,30291,1,0,0:0:0:0:
304,208,30384,1,0,0:0:0:0:
304,208,30478,1,0,0:0:0:0:
153,252,30666,2,0,B|171:316|171:316|193:257|193:257|200:317|200:317|223:277|223:277|236:315|236:315|242:293|242:293|265:317|265:317|268:306|268:306|282:316|282:316|286:323|286:323|304:322|304:322|308:329|308:329|326:328|326:328|330:335|348:334|348:334|352:341,1,420.000016021729
128,120,31931,5,0,0:0:0:0:
128,120,32166,2,0,B|160:232|160:232|208:184,1,180.000006866455
204,187,32541,2,0,L|168:224,1,30.0000011444092
296,80,32916,2,0,B|296:72|296:72|336:160|336:160|332:208,1,150.000005722046
360,72,33244,2,0,B|360:64|360:64|400:152|400:152|392:256,1,180.000006866455
424,64,33666,2,0,B|424:56|424:56|464:144|464:144|456:240,1,180.000006866455
392,328,34041,2,0,L|368:296,1,30.0000011444092
160,96,34603,6,0,L|168:184,1,60.0000022888184
176,272,34791,1,0,0:0:0:0:
296,96,34978,1,0,0:0:0:0:
424,192,35166,1,0,0:0:0:0:
256,192,35353,1,0,0:0:0:0:
432,88,35541,1,0,0:0:0:0:
344,288,35728,1,0,0:0:0:0:
112,160,35916,6,0,B|136:224|136:224|184:272,1,120.000004577637
368,208,36291,1,0,0:0:0:0:
368,208,36384,1,0,0:0:0:0:
368,208,36478,1,0,0:0:0:0:
208,64,36666,1,0,0:0:0:0:
264,208,36853,1,0,0:0:0:0:
376,80,37041,1,0,0:0:0:0:
376,80,37134,1,0,0:0:0:0:
376,80,37228,1,0,0:0:0:0:
144,280,37416,6,0,B|200:304|200:304|272:296,1,120.000004577637
224,152,37791,1,0,0:0:0:0:
208,64,37978,1,0,0:0:0:0:
360,200,38166,1,0,0:0:0:0:
104,288,38353,1,0,0:0:0:0:
304,64,38541,1,0,0:0:0:0:
368,328,38728,1,0,0:0:0:0:
112,176,38916,5,0,0:0:0:0:
112,176,39009,1,0,0:0:0:0:
112,176,39103,1,0,0:0:0:0:
384,216,39291,1,0,0:0:0:0:
384,216,39384,1,0,0:0:0:0:
384,216,39478,1,0,0:0:0:0:
232,88,39666,5,0,0:0:0:0:
248,328,39853,1,0,0:0:0:0:
360,136,40041,1,0,0:0:0:0:
168,240,40228,1,0,0:0:0:0:
352,264,40416,1,0,0:0:0:0:
376,56,40603,6,0,L|300:88,1,60.0000022888184
216,136,40790,1,0,0:0:0:0:
216,136,40884,1,0,0:0:0:0:
216,136,40978,1,0,0:0:0:0:
392,200,41165,1,0,0:0:0:0:
240,240,41353,1,0,0:0:0:0:
320,112,41540,1,0,0:0:0:0:
344,272,41728,1,0,0:0:0:0:
224,80,41916,6,0,B|184:120|184:120|160:184,1,120.000004577637
184,304,42291,1,0,0:0:0:0:
184,304,42384,1,0,0:0:0:0:
184,304,42478,1,0,0:0:0:0:
384,200,42666,1,0,0:0:0:0:
176,160,42853,1,0,0:0:0:0:
376,88,43041,1,0,0:0:0:0:
376,88,43134,1,0,0:0:0:0:
376,88,43228,1,0,0:0:0:0:
304,304,43416,6,0,B|372:288|372:288|432:240,1,120.000004577637
288,56,43791,1,0,0:0:0:0:
184,272,43978,1,0,0:0:0:0:
400,184,44166,1,0,0:0:0:0:
152,72,44353,1,0,0:0:0:0:
224,336,44541,1,0,0:0:0:0:
288,56,44728,1,0,0:0:0:0:
64,176,44916,5,0,0:0:0:0:
64,176,45009,1,0,0:0:0:0:
64,176,45103,1,0,0:0:0:0:
272,272,45291,1,0,0:0:0:0:
272,272,45384,1,0,0:0:0:0:
272,272,45478,1,0,0:0:0:0:
304,112,45666,1,0,0:0:0:0:
176,280,45853,1,0,0:0:0:0:
376,256,46041,1,0,0:0:0:0:
184,144,46228,5,0,0:0:0:0:
424,168,46416,1,0,0:0:0:0:
280,56,46603,6,0,L|292:124,1,60.0000022888184
320,240,46791,1,0,0:0:0:0:
320,240,46884,1,0,0:0:0:0:
320,240,46978,1,0,0:0:0:0:
160,80,47166,1,0,0:0:0:0:
208,240,47353,1,0,0:0:0:0:
280,88,47541,1,0,0:0:0:0:
104,160,47728,1,0,0:0:0:0:
144,320,47916,6,0,B|216:328|280:304,1,120.000004577637
144,320,48291,1,0,0:0:0:0:
224,160,48478,1,0,0:0:0:0:
424,80,48665,1,0,0:0:0:0:
424,80,48759,1,0,0:0:0:0:
424,80,48853,1,0,0:0:0:0:
312,232,49041,1,0,0:0:0:0:
288,48,49228,1,0,0:0:0:0:
104,160,49416,6,0,P|144:216|152:272,1,120.000004577637
104,160,49791,1,0,0:0:0:0:
320,120,49978,1,0,0:0:0:0:
216,272,50166,1,0,0:0:0:0:
400,248,50353,1,0,0:0:0:0:
176,88,50541,1,0,0:0:0:0:
288,328,50728,1,0,0:0:0:0:
448,128,50916,5,0,0:0:0:0:
448,128,51009,1,0,0:0:0:0:
448,128,51103,1,0,0:0:0:0:
224,240,51291,1,0,0:0:0:0:
224,240,51384,1,0,0:0:0:0:
224,240,51478,1,0,0:0:0:0:
256,88,51666,1,0,0:0:0:0:
312,304,51853,1,0,0:0:0:0:
392,88,52041,5,0,0:0:0:0:
184,168,52228,1,0,0:0:0:0:
384,248,52416,1,0,0:0:0:0:
328,48,52603,2,0,L|296:120,1,60.0000022888184
272,192,52791,1,0,0:0:0:0:
272,192,52884,1,0,0:0:0:0:
272,192,52978,1,0,0:0:0:0:
400,200,53166,1,0,0:0:0:0:
232,296,53353,5,0,0:0:0:0:
296,88,53541,1,0,0:0:0:0:
408,296,53728,1,0,0:0:0:0:
448,72,53916,2,0,B|400:96|400:96|352:152,1,120.000004577637
424,240,54478,5,0,0:0:0:0:
280,112,54666,1,0,0:0:0:0:
304,272,54853,1,0,0:0:0:0:
392,80,55041,1,0,0:0:0:0:
392,80,55134,1,0,0:0:0:0:
392,80,55228,1,0,0:0:0:0:
104,176,55416,1,0,0:0:0:0:
368,336,55603,1,0,0:0:0:0:
272,48,55791,5,0,0:0:0:0:
120,304,55978,1,0,0:0:0:0:
408,176,56166,1,0,0:0:0:0:
128,56,56353,1,0,0:0:0:0:
248,336,56541,1,0,0:0:0:0:
352,72,56728,1,0,0:0:0:0:
88,176,56916,5,0,0:0:0:0:
88,176,57009,1,0,0:0:0:0:
88,176,57103,1,0,0:0:0:0:
320,264,57291,1,0,0:0:0:0:
320,264,57384,1,0,0:0:0:0:
320,264,57478,1,0,0:0:0:0:
144,48,57666,1,0,0:0:0:0:
248,328,57853,1,0,0:0:0:0:
432,152,58041,5,0,0:0:0:0:
168,240,58228,1,0,0:0:0:0:
392,272,58416,1,0,0:0:0:0:
344,48,58603,6,0,L|332:136,1,60.0000022888184
328,232,58791,1,0,0:0:0:0:
328,232,58884,1,0,0:0:0:0:
328,232,58978,1,0,0:0:0:0:
240,72,59166,1,0,0:0:0:0:
392,152,59353,1,0,0:0:0:0:
176,264,59541,6,0,B|240:160,1,120.000004577637
260,147,59822,1,0,0:0:0:0:
260,147,59916,1,0,0:0:0:0:
400,232,60103,1,0,0:0:0:0:
344,72,60291,1,0,0:0:0:0:
256,224,60478,1,0,0:0:0:0:
152,104,60666,5,0,0:0:0:0:
152,104,60759,1,0,0:0:0:0:
152,104,60853,1,0,0:0:0:0:
192,288,61041,1,0,0:0:0:0:
192,288,61134,1,0,0:0:0:0:
192,288,61228,1,0,0:0:0:0:
448,144,61416,1,0,0:0:0:0:
368,56,62166,5,0,0:0:0:0:
176,176,62353,1,0,0:0:0:0:
384,288,62541,1,0,0:0:0:0:
272,72,62728,1,0,0:0:0:0:
280,320,62916,5,0,0:0:0:0:
280,320,63009,1,0,0:0:0:0:
280,320,63103,1,0,0:0:0:0:
464,160,63291,1,0,0:0:0:0:
464,160,63384,1,0,0:0:0:0:
464,160,63478,1,0,0:0:0:0:
200,192,63666,1,0,0:0:0:0:
384,248,63853,1,0,0:0:0:0:
304,80,64041,1,0,0:0:0:0:
280,264,64228,1,0,0:0:0:0:
200,64,64416,1,0,0:0:0:0:
440,112,64603,6,0,L|372:136,1,60.0000022888184
296,168,64791,1,0,0:0:0:0:
296,168,64884,1,0,0:0:0:0:
296,168,64978,1,0,0:0:0:0:
128,168,65166,1,0,0:0:0:0:
360,72,65353,1,0,0:0:0:0:
144,56,65541,6,0,B|208:168,1,120.000004577637
232,200,65822,1,0,0:0:0:0:
232,200,65916,1,0,0:0:0:0:
248,144,66666,5,0,0:0:0:0:
248,144,66759,1,0,0:0:0:0:
248,144,66853,1,0,0:0:0:0:
432,120,67041,1,0,0:0:0:0:
432,120,67134,1,0,0:0:0:0:
432,120,67228,1,0,0:0:0:0:
376,312,67416,5,0,0:0:0:0:
328,152,67603,1,0,0:0:0:0:
248,304,67791,1,0,0:0:0:0:
408,232,67978,1,0,0:0:0:0:
224,80,68166,1,0,0:0:0:0:
80,304,68353,1,0,0:0:0:0:
328,240,68541,1,0,0:0:0:0:
96,104,68728,1,0,0:0:0:0:
264,328,68916,5,0,0:0:0:0:
264,328,69009,1,0,0:0:0:0:
264,328,69103,1,0,0:0:0:0:
344,120,69291,1,0,0:0:0:0:
344,120,69384,1,0,0:0:0:0:
344,120,69478,1,0,0:0:0:0:
112,200,69666,1,0,0:0:0:0:
264,256,69853,1,0,0:0:0:0:
208,96,70041,5,0,0:0:0:0:
168,264,70228,1,0,0:0:0:0:
80,88,70416,1,0,0:0:0:0:
40,272,70603,2,0,L|104:224,1,60.0000022888184
192,168,70791,1,0,0:0:0:0:
192,168,70884,1,0,0:0:0:0:
192,168,70978,1,0,0:0:0:0:
440,224,71166,1,0,0:0:0:0:
296,296,71353,5,0,0:0:0:0:
344,136,71541,1,0,0:0:0:0:
392,296,71728,1,0,0:0:0:0:
96,240,71916,2,0,B|152:304|248:288,1,160
304,240,72666,1,0,0:0:0:0:
320,144,72853,1,0,0:0:0:0:
224,128,73041,1,0,0:0:0:0:
208,224,73228,1,0,0:0:0:0:
192,320,73416,5,0,0:0:0:0:
192,320,73509,1,0,0:0:0:0:
192,320,73603,1,0,0:0:0:0:
96,304,73791,1,0,0:0:0:0:
112,208,73978,1,0,0:0:0:0:
208,192,74166,1,0,0:0:0:0:
192,96,74353,1,0,0:0:0:0:
288,80,74541,1,0,0:0:0:0:
384,96,74728,5,0,0:0:0:0:
400,192,74916,1,0,0:0:0:0:
400,192,75009,1,0,0:0:0:0:
400,192,75103,1,0,0:0:0:0:
384,288,75291,1,0,0:0:0:0:
384,288,75384,1,0,0:0:0:0:
384,288,75478,1,0,0:0:0:0:
288,272,75666,1,0,0:0:0:0:
272,176,75853,5,0,0:0:0:0:
256,80,76041,1,0,0:0:0:0:
160,96,76228,1,0,0:0:0:0:
176,192,76416,2,0,B|168:288|80:328,1,160
64,176,77166,5,0,0:0:0:0:
128,112,77353,1,0,0:0:0:0:
224,112,77541,1,0,0:0:0:0:
304,160,77728,1,0,0:0:0:0:
400,160,77916,1,0,0:0:0:0:
400,160,78009,1,0,0:0:0:0:
400,160,78103,1,0,0:0:0:0:
352,80,78291,1,0,0:0:0:0:
256,96,78478,5,0,0:0:0:0:
208,176,78666,1,0,0:0:0:0:
256,256,78853,1,0,0:0:0:0:
192,320,79041,1,0,0:0:0:0:
112,272,79228,1,0,0:0:0:0:
80,192,79416,5,0,0:0:0:0:
80,192,79509,1,0,0:0:0:0:
80,192,79603,1,0,0:0:0:0:
128,112,79791,1,0,0:0:0:0:
128,112,79884,1,0,0:0:0:0:
128,112,79978,1,0,0:0:0:0:
224,112,80166,1,0,0:0:0:0:
272,192,80353,1,0,0:0:0:0:
352,240,80541,5,0,0:0:0:0:
448,240,80728,1,0,0:0:0:0:
432,144,80916,2,0,P|352:112|304:48,1,160
208,64,81478,5,0,0:0:0:0:
208,64,81666,2,0,P|184:144|200:224,1,160
256,192,82228,12,0,83541,0:0:0:0:
368,128,83728,5,0,0:0:0:0:
368,128,83916,2,0,B|384:168|376:216,1,80
152,192,84291,1,0,0:0:0:0:
152,192,84478,2,0,P|168:240|184:264,1,80
288,224,84853,1,0,0:0:0:0:
288,224,85040,2,0,P|304:272|320:296,1,80
448,144,85884,5,0,0:0:0:0:
448,144,86072,2,0,L|336:208,1,120
264,248,86447,2,0,L|232:224,1,30.0000011444092
64,72,86916,6,0,B|72:88|72:88|64:96|64:96|80:104|80:104|88:120|88:120|96:136|96:136|88:144|88:144|96:160|96:160|104:160|104:160|120:192|120:192|160:172,1,180.000006866455
224,144,87291,2,0,B|296:160,1,60.0000022888184
256,224,87478,2,0,L|328:240,1,60.0000022888184
288,304,87666,2,0,B|360:320,1,60.0000022888184
464,312,88041,2,0,L|464:264,1,30.0000011444092
456,112,88603,6,0,B|453:101|453:101|445:114|445:114|446:97|446:97|438:110|438:110|439:93|439:93|424:102|424:102|425:85|425:85|410:94|410:94|407:83|407:83|396:86|396:86|393:75|393:75|382:78|382:78|379:67|379:67|368:70|368:70|365:59|365:59|352:144,1,280.000002670288
304,192,89728,5,0,0:0:0:0:
304,192,89916,2,0,B|280:256|280:256|232:296,1,120
192,304,90291,1,0,0:0:0:0:
160,176,90478,1,0,0:0:0:0:
288,144,90666,1,0,0:0:0:0:
320,272,90853,1,0,0:0:0:0:
192,304,91041,2,0,B|248:192|248:192|288:192|288:192|264:160|264:160|296:88|296:88|248:64,1,323.000006160736
160,48,92166,2,0,B|136:96|136:96|128:104|128:104|128:112|128:112|104:160,1,120
80,208,92541,6,0,L|120:232,1,40
248,328,92916,2,0,B|248:336|248:336|272:272|272:272|280:272|280:272|280:264|280:264|288:216|288:216|280:224|280:224|288:184|288:184|232:176|232:176,1,240
352,296,93291,2,0,B|352:304|352:304|376:240|376:240|384:240|384:240|384:232|384:232|392:184|392:184|384:192|384:192|392:152|392:152|336:144|336:144,1,240
456,264,93666,2,0,B|456:272|456:272|480:208|480:208|488:208|488:208|488:200|488:200|496:152|496:152|488:160|488:160|496:120|496:120|440:112|440:112,1,240
272,88,94041,2,0,L|296:120,1,40
96,152,95166,5,0,0:0:0:0:
168,264,95353,1,0,0:0:0:0:
208,88,95541,1,0,0:0:0:0:
56,256,95728,1,0,0:0:0:0:
336,208,95916,2,0,B|290:256|290:256|236:271,1,120.000004577637
120,96,96291,1,0,0:0:0:0:
120,96,96384,1,0,0:0:0:0:
120,96,96478,1,0,0:0:0:0:
336,128,96666,5,0,0:0:0:0:
200,288,96853,1,0,0:0:0:0:
224,88,97041,1,0,0:0:0:0:
224,88,97134,1,0,0:0:0:0:
224,88,97228,1,0,0:0:0:0:
408,264,97416,2,0,B|358:228|358:228|286:219,1,120.000004577637
96,304,97791,1,0,0:0:0:0:
320,312,97978,1,0,0:0:0:0:
264,88,98166,5,0,0:0:0:0:
200,312,98353,1,0,0:0:0:0:
368,144,98541,1,0,0:0:0:0:
144,216,98728,1,0,0:0:0:0:
360,280,98916,5,0,0:0:0:0:
360,280,99009,1,0,0:0:0:0:
360,280,99103,1,0,0:0:0:0:
208,120,99291,1,0,0:0:0:0:
208,120,99384,1,0,0:0:0:0:
208,120,99478,1,0,0:0:0:0:
280,296,99666,1,0,0:0:0:0:
264,56,99853,1,0,0:0:0:0:
192,256,100041,5,0,0:0:0:0:
360,120,100228,1,0,0:0:0:0:
152,184,100416,1,0,0:0:0:0:
384,224,100603,2,0,L|320:256,1,60.0000022888184
264,296,100790,1,0,0:0:0:0:
264,296,100884,1,0,0:0:0:0:
264,296,100978,1,0,0:0:0:0:
96,256,101165,1,0,0:0:0:0:
240,128,101353,5,0,0:0:0:0:
176,296,101540,1,0,0:0:0:0:
136,120,101728,1,0,0:0:0:0:
288,304,101916,2,0,B|328:264|328:264|352:200,1,120.000004577637
264,64,102291,1,0,0:0:0:0:
264,64,102384,1,0,0:0:0:0:
264,64,102478,1,0,0:0:0:0:
128,184,102666,1,0,0:0:0:0:
328,144,102853,5,0,0:0:0:0:
240,296,103041,1,0,0:0:0:0:
240,296,103134,1,0,0:0:0:0:
240,296,103228,1,0,0:0:0:0:
208,80,103416,2,0,B|144:96|144:96|80:144,1,120.000004577637
176,280,103791,1,0,0:0:0:0:
328,112,103978,1,0,0:0:0:0:
112,200,104166,1,0,0:0:0:0:
360,312,104353,5,0,0:0:0:0:
288,48,104541,1,0,0:0:0:0:
224,328,104728,1,0,0:0:0:0:
448,208,104916,5,0,0:0:0:0:
448,208,105009,1,0,0:0:0:0:
448,208,105103,1,0,0:0:0:0:
240,112,105291,1,0,0:0:0:0:
240,112,105384,1,0,0:0:0:0:
240,112,105478,1,0,0:0:0:0:
208,272,105666,1,0,0:0:0:0:
336,104,105853,1,0,0:0:0:0:
136,128,106041,5,0,0:0:0:0:
328,240,106228,1,0,0:0:0:0:
88,216,106416,1,0,0:0:0:0:
232,328,106603,6,0,L|220:252,1,60.0000022888184
208,160,106791,1,0,0:0:0:0:
208,160,106884,1,0,0:0:0:0:
208,160,106978,1,0,0:0:0:0:
352,304,107166,1,0,0:0:0:0:
304,144,107353,1,0,0:0:0:0:
232,296,107541,1,0,0:0:0:0:
408,224,107728,1,0,0:0:0:0:
368,64,107916,6,0,B|296:56|232:80,1,120.000004577637
368,64,108291,1,0,0:0:0:0:
288,224,108478,1,0,0:0:0:0:
88,304,108665,1,0,0:0:0:0:
88,304,108759,1,0,0:0:0:0:
88,304,108853,1,0,0:0:0:0:
200,152,109041,1,0,0:0:0:0:
224,336,109228,1,0,0:0:0:0:
384,256,109416,6,0,P|344:200|336:144,1,120.000004577637
384,256,109791,1,0,0:0:0:0:
192,264,109978,1,0,0:0:0:0:
296,112,110166,1,0,0:0:0:0:
112,136,110353,1,0,0:0:0:0:
336,296,110541,1,0,0:0:0:0:
224,56,110728,1,0,0:0:0:0:
64,256,110916,5,0,0:0:0:0:
64,256,111009,1,0,0:0:0:0:
64,256,111103,1,0,0:0:0:0:
288,144,111291,1,0,0:0:0:0:
288,144,111384,1,0,0:0:0:0:
288,144,111478,1,0,0:0:0:0:
256,296,111666,1,0,0:0:0:0:
200,80,111853,1,0,0:0:0:0:
120,296,112041,5,0,0:0:0:0:
328,216,112228,1,0,0:0:0:0:
128,136,112416,1,0,0:0:0:0:
184,336,112603,2,0,L|216:264,1,60.0000022888184
240,192,112791,1,0,0:0:0:0:
240,192,112884,1,0,0:0:0:0:
240,192,112978,1,0,0:0:0:0:
112,184,113166,1,0,0:0:0:0:
280,88,113353,5,0,0:0:0:0:
216,296,113541,1,0,0:0:0:0:
104,88,113728,1,0,0:0:0:0:
64,312,113916,2,0,B|127:295|167:239,1,120.000004577637
64,312,114291,1,0,0:0:0:0:
40,168,114478,1,0,0:0:0:0:
224,224,114666,1,0,0:0:0:0:
352,64,114853,1,0,0:0:0:0:
160,112,115041,5,0,0:0:0:0:
304,256,115228,1,0,0:0:0:0:
440,88,115416,2,0,B|487:131|488:200,1,120.000004577637
440,88,115791,1,0,0:0:0:0:
352,248,115978,1,0,0:0:0:0:
104,208,116166,1,0,0:0:0:0:
312,336,116353,1,0,0:0:0:0:
232,64,116541,1,0,0:0:0:0:
144,320,116728,5,0,0:0:0:0:
368,176,116916,1,0,0:0:0:0:
368,176,117009,1,0,0:0:0:0:
368,176,117103,1,0,0:0:0:0:
152,160,117291,1,0,0:0:0:0:
152,160,117384,1,0,0:0:0:0:
152,160,117478,1,0,0:0:0:0:
320,312,117666,1,0,0:0:0:0:
264,56,117853,5,0,0:0:0:0:
112,256,118041,1,0,0:0:0:0:
344,144,118228,1,0,0:0:0:0:
128,48,118416,1,0,0:0:0:0:
216,304,118603,6,0,L|224:240,1,60.0000022888184
240,152,118791,1,0,0:0:0:0:
240,152,118884,1,0,0:0:0:0:
240,152,118978,1,0,0:0:0:0:
320,296,119166,1,0,0:0:0:0:
136,256,119353,1,0,0:0:0:0:
368,120,119541,6,0,B|288:216,1,120.000004577637
264,248,119822,1,0,0:0:0:0:
264,248,119916,1,0,0:0:0:0:
112,152,120103,1,0,0:0:0:0:
168,312,120291,1,0,0:0:0:0:
256,160,120478,1,0,0:0:0:0:
112,248,120666,5,0,0:0:0:0:
112,248,120759,1,0,0:0:0:0:
112,248,120853,1,0,0:0:0:0:
192,104,121041,1,0,0:0:0:0:
192,104,121134,1,0,0:0:0:0:
192,104,121228,1,0,0:0:0:0:
256,248,121416,1,0,0:0:0:0:
256,248,121791,5,0,0:0:0:0:
144,328,122166,5,0,0:0:0:0:
336,208,122353,1,0,0:0:0:0:
128,96,122541,1,0,0:0:0:0:
240,312,122728,1,0,0:0:0:0:
232,64,122916,5,0,0:0:0:0:
232,64,123009,1,0,0:0:0:0:
232,64,123103,1,0,0:0:0:0:
48,224,123291,1,0,0:0:0:0:
48,224,123384,1,0,0:0:0:0:
48,224,123478,1,0,0:0:0:0:
312,192,123666,1,0,0:0:0:0:
128,136,123853,1,0,0:0:0:0:
208,304,124041,5,0,0:0:0:0:
232,120,124228,1,0,0:0:0:0:
312,320,124416,1,0,0:0:0:0:
72,272,124603,6,0,L|140:248,1,60.0000022888184
216,216,124791,1,0,0:0:0:0:
296,80,124978,1,0,0:0:0:0:
384,216,125166,1,0,0:0:0:0:
152,312,125353,1,0,0:0:0:0:
368,328,125541,6,0,B|304:216,1,120.000004577637
280,184,125822,1,0,0:0:0:0:
280,184,125916,1,0,0:0:0:0:
120,176,126291,6,0,L|120:232,1,30.0000011444092
264,240,126666,5,0,0:0:0:0:
264,240,126759,1,0,0:0:0:0:
264,240,126853,1,0,0:0:0:0:
80,264,127041,1,0,0:0:0:0:
80,264,127134,1,0,0:0:0:0:
80,264,127228,1,0,0:0:0:0:
136,72,127416,1,0,0:0:0:0:
184,232,127603,1,0,0:0:0:0:
264,80,127791,5,0,0:0:0:0:
104,152,127978,1,0,0:0:0:0:
288,304,128166,1,0,0:0:0:0:
432,80,128353,1,0,0:0:0:0:
184,144,128541,1,0,0:0:0:0:
416,280,128728,1,0,0:0:0:0:
248,56,128916,5,0,0:0:0:0:
248,56,129009,1,0,0:0:0:0:
248,56,129103,1,0,0:0:0:0:
168,264,129291,1,0,0:0:0:0:
168,264,129384,1,0,0:0:0:0:
168,264,129478,1,0,0:0:0:0:
400,184,129666,1,0,0:0:0:0:
248,128,129853,1,0,0:0:0:0:
304,288,130041,5,0,0:0:0:0:
344,120,130228,1,0,0:0:0:0:
432,296,130416,1,0,0:0:0:0:
472,112,130603,2,0,L|408:160,1,60.0000022888184
320,216,130791,1,0,0:0:0:0:
320,216,130884,1,0,0:0:0:0:
320,216,130978,1,0,0:0:0:0:
72,160,131166,1,0,0:0:0:0:
216,88,131353,5,0,0:0:0:0:
168,248,131541,1,0,0:0:0:0:
120,88,131728,1,0,0:0:0:0:
312,92,131916,2,0,B|288:168,1,60.0000022888184
