osu file format v14

[General]
AudioFilename: audio.mp3
AudioLeadIn: 0
PreviewTime: 89620
Countdown: 0
SampleSet: Soft
StackLeniency: 0.7
Mode: 0
LetterboxInBreaks: 0
WidescreenStoryboard: 0

[Editor]
Bookmarks: 33160,43595,59992,65582,103968
DistanceSpacing: 0.8
BeatDivisor: 4
GridSize: 16
TimelineZoom: 1

[Metadata]
Title:History of Everything
TitleUnicode:History of Everything
Artist:Barenaked Ladies
ArtistUnicode:Barenaked Ladies
Creator:nicostrike
Version:Expert
Source:The Big Bang Theory
Tags:
BeatmapID:1927141
BeatmapSetID:922831

[Difficulty]
HPDrainRate:6
CircleSize:4
OverallDifficulty:8
ApproachRate:9.2
SliderMultiplier:1.8
SliderTickRate:1

[Events]
//Background and Video events
0,0,"Rock scissors paper lizard spock.jpg",0,0
//Break Periods
//Storyboard Layer 0 (Background)
//Storyboard Layer 1 (Fail)
//Storyboard Layer 2 (Pass)
//Storyboard Layer 3 (Foreground)
//Storyboard Sound Samples

[TimingPoints]
232,454.545454545455,4,2,3,32,1,0
232,-138.888888888889,4,2,3,32,0,0
2505,441.176470588235,4,2,2,32,1,0
2505,-81.9672131147541,4,2,2,32,0,0
3387,-121.951219512195,4,2,2,32,0,0
4322,472.44094488189,4,2,1,32,1,0
4322,-138.888888888889,4,2,1,32,0,0
7156,-108.695652173913,4,2,1,32,0,0
7819,372.670807453416,4,2,3,32,1,0
18626,-65.7894736842105,4,2,3,32,0,0
19371,-121.951219512195,4,2,3,32,0,0
21235,-89.2857142857142,4,2,3,32,0,0
21980,-121.951219512195,4,2,3,32,0,0
28688,-98.0392156862745,4,2,3,32,0,0
42477,-65.7894736842105,4,2,3,32,0,0
43222,-98.0392156862745,4,2,3,32,0,0
43595,-138.888888888889,4,2,3,32,0,0
54775,-108.695652173913,4,2,3,32,0,0
65955,-98.0392156862745,4,2,3,32,0,0
72291,-138.888888888889,4,2,3,32,0,0
73409,-98.0392156862745,4,2,3,32,0,0
77881,-138.888888888889,4,2,3,32,0,0
83843,-98.0392156862745,4,2,3,32,0,1
94278,-98.0392156862745,4,2,3,32,0,0
103968,-98.0392156862745,4,2,3,5,0,0

[Colours]
Combo1 : 255,255,0
Combo2 : 0,128,64
Combo3 : 192,192,192

[HitObjects]
397,213,232,2,0,P|414:162|442:112,1,97.2000023730469
346,110,686,2,0,P|300:130|243:112,1,97.2000023730469
185,67,1141,1,0,0:0:0:0:
231,199,1595,2,0,P|195:181|165:173,1,64.8000015820313
100,300,2050,2,0,P|131:291|160:276,1,64.8000015820313
264,130,2505,6,0,L|272:198,1,54.8999977381898
387,340,2946,2,0,L|395:272,1,54.8999977381898
241,353,3387,5,0,0:0:0:0:
143,256,3607,1,0,0:0:0:0:
324,301,3828,2,0,P|368:272|392:226,1,73.8000011260987
446,122,4322,5,0,0:0:0:0:
455,152,4558,1,0,0:0:0:0:
345,73,4794,1,0,0:0:0:0:
337,113,5030,1,0,0:0:0:0:
208,136,5266,5,0,0:0:0:0:
227,195,5502,1,0,0:0:0:0:
118,41,5739,2,0,P|93:72|81:106,1,64.8000015820313
92,240,6211,5,0,0:0:0:0:
13,146,6447,1,0,0:0:0:0:
122,268,6684,1,0,0:0:0:0:
195,137,6920,1,0,0:0:0:0:
196,337,7156,6,0,B|314:343|263:270|406:273,1,206.999993051148
430,294,7819,6,0,L|441:246,1,45
312,117,8005,1,0,0:0:0:0:
337,229,8191,2,0,P|294:250|243:254,1,90
104,181,8564,1,0,0:0:0:0:
152,297,8750,1,0,0:0:0:0:
218,125,8937,1,0,0:0:0:0:
224,118,9030,1,0,0:0:0:0:
253,95,9123,6,0,P|306:82|355:81,1,90
489,158,9496,1,0,0:0:0:0:
440,56,9682,2,0,P|419:104|395:145,1,90
311,232,10055,2,0,P|280:192|262:151,1,90
386,304,10427,1,0,0:0:0:0:
436,190,10614,1,0,0:0:0:0:
291,338,10800,6,0,P|241:310|194:294,1,90
57,240,11173,2,0,P|107:212|154:196,1,90
287,184,11545,1,0,0:0:0:0:
170,93,11732,1,0,0:0:0:0:
208,229,11918,1,0,0:0:0:0:
302,103,12104,1,0,0:0:0:0:
299,267,12291,6,0,B|399:249|340:167|464:167,1,180
496,294,12850,1,0,0:0:0:0:
461,188,13036,5,0,0:0:0:0:
461,188,13129,1,0,0:0:0:0:
407,343,13315,1,0,0:0:0:0:
407,343,13409,2,0,P|357:309|321:295,1,90
196,360,13781,6,0,P|134:360|106:292,1,135
205,228,14154,2,0,P|213:177|153:121,1,135
61,159,14527,5,0,0:0:0:0:
207,106,14713,1,0,0:0:0:0:
130,211,14899,1,0,0:0:0:0:
68,67,15086,1,0,0:0:0:0:
222,211,15272,2,0,P|263:166|312:132,1,90
437,147,15645,5,0,0:0:0:0:
304,35,15831,1,0,0:0:0:0:
342,215,16017,1,0,0:0:0:0:
450,35,16204,1,0,0:0:0:0:
272,152,16390,2,0,P|217:135|182:117,1,90
53,24,16763,6,0,L|69:124,1,90
193,267,17135,2,0,L|209:167,1,90
98,340,17508,1,0,0:0:0:0:
37,201,17694,1,0,0:0:0:0:
186,364,17881,2,0,P|236:337|272:326,1,90
436,341,18253,2,0,P|379:323|340:243,1,135
367,220,18626,6,0,B|207:279|275:116|107:193|107:193|175:213|218:155,1,410.399994990234
315,49,19371,6,0,P|281:37|244:32,1,73.8000011260987
123,192,19744,2,0,P|179:190|223:147,1,110.700001689148
249,128,20117,2,0,L|240:210,1,73.8000011260987
358,311,20489,1,0,0:0:0:0:
343,222,20676,1,0,0:0:0:0:
282,357,20862,2,0,P|233:311|202:299,1,73.8000011260987
70,267,21235,6,0,P|130:241|183:224,1,100.800001230469
363,190,21607,2,0,P|311:149|264:119,1,100.800001230469
107,153,21980,1,0,0:0:0:0:
188,51,22166,1,0,0:0:0:0:
195,205,22353,2,0,P|152:242|103:256,1,73.8000011260987
229,122,22725,5,0,0:0:0:0:
272,251,22912,1,0,0:0:0:0:
338,138,23098,2,0,P|374:105|414:81,1,73.8000011260987
483,241,23471,2,0,P|447:213|426:172,1,73.8000011260987
312,257,23843,1,0,0:0:0:0:
338,138,24030,1,0,0:0:0:0:
406,298,24216,1,0,0:0:0:0:
403,310,24309,1,0,0:0:0:0:
381,341,24402,6,0,P|340:355|285:352,1,73.8000011260987
147,282,24775,1,0,0:0:0:0:
217,359,24961,2,0,P|230:313|265:271,1,73.8000011260987
366,226,25334,2,0,P|316:226|267:162,1,110.700001689148
245,144,25707,6,0,L|237:235,1,73.8000011260987
126,83,26079,2,0,L|134:174,1,73.8000011260987
228,54,26452,2,0,P|274:54|321:78,1,73.8000011260987
404,151,26825,1,0,0:0:0:0:
458,34,27011,1,0,0:0:0:0:
309,159,27197,6,0,L|299:123,1,36.9000005630493
228,54,27384,2,0,L|218:90,1,36.9000005630493
203,200,27570,2,0,P|153:212|110:187,1,73.8000011260987
35,132,27943,1,0,0:0:0:0:
35,132,28036,1,0,0:0:0:0:
76,282,28222,1,0,0:0:0:0:
76,282,28315,2,0,P|45:236|21:219,1,73.8000011260987
148,341,28688,5,0,0:0:0:0:
182,227,28874,1,0,0:0:0:0:
247,360,29061,2,0,P|281:325|327:297,1,91.8000005603027
463,311,29433,2,0,P|434:257|414:232,1,91.8000005603027
272,208,29806,5,0,0:0:0:0:
375,125,29992,1,0,0:0:0:0:
320,292,30179,2,0,P|273:307|221:296,1,91.8000005603027
99,226,30551,5,0,0:0:0:0:
149,343,30738,1,0,0:0:0:0:
241,164,30924,1,0,0:0:0:0:
179,263,31110,1,0,0:0:0:0:
70,144,31297,6,0,P|114:103|174:72,1,91.8000005603027
314,99,31669,2,0,P|285:57|243:25,1,91.8000005603027
43,48,32042,1,0,0:0:0:0:
159,1,32228,1,0,0:0:0:0:
67,135,32415,2,0,P|41:179|30:227,1,91.8000005603027
183,289,32787,2,0,P|164:247|135:213,1,91.8000005603027
250,347,33160,6,0,B|361:317|272:243|401:231,1,183.600001120605
481,292,33719,1,0,0:0:0:0:
448,166,33905,6,0,P|406:148|355:144,1,91.8000005603027
288,223,34185,1,0,0:0:0:0:
266,235,34278,2,0,P|218:253|168:249,1,91.8000005603027
51,183,34651,5,0,0:0:0:0:
90,327,34837,1,0,0:0:0:0:
178,137,35023,1,0,0:0:0:0:
128,241,35210,1,0,0:0:0:0:
280,130,35396,6,0,P|260:77|231:49,1,91.8000005603027
33,67,35769,2,0,P|84:44|121:36,1,91.8000005603027
278,129,36141,1,0,0:0:0:0:
213,25,36328,1,0,0:0:0:0:
108,193,36514,5,0,0:0:0:0:
182,108,36700,1,0,0:0:0:0:
184,260,36887,2,0,P|140:288|93:292,1,91.8000005603027
279,295,37259,5,0,0:0:0:0:
218,179,37446,1,0,0:0:0:0:
204,355,37632,1,0,0:0:0:0:
312,212,37818,1,0,0:0:0:0:
283,383,38005,1,0,0:0:0:0:
163,255,38191,1,0,0:0:0:0:
364,346,38378,6,0,P|413:325|442:296,1,91.8000005603027
394,162,38750,2,0,P|366:198|355:243,1,91.8000005603027
365,345,39123,2,0,P|342:275|294:228,1,137.700000840454
191,256,39496,6,0,L|166:167,1,91.8000005603027
211,261,39868,2,0,L|186:172,1,91.8000005603027
221,361,40241,6,0,B|104:363|157:287|47:290,1,183.600001120605
7,375,40800,1,0,0:0:0:0:
112,358,40986,2,0,P|146:324|162:283,1,91.8000005603027
16,155,41359,1,0,0:0:0:0:
63,268,41545,1,0,0:0:0:0:
118,110,41732,2,0,P|167:82|226:71,1,91.8000005603027
375,146,42104,5,0,0:0:0:0:
348,137,42197,1,0,0:0:0:0:
328,117,42291,1,0,0:0:0:0:
317,91,42384,1,0,0:0:0:0:
320,49,42477,2,0,B|376:197|244:139|289:322|289:322|391:294|347:205,1,410.399994990234
206,340,43222,2,0,P|170:288|133:266,1,91.8000005603027
29,346,43595,6,0,P|12:303|16:266,1,64.8000015820313
136,253,43968,2,0,P|153:210|149:173,1,64.8000015820313
49,118,44340,2,0,P|34:73|113:48,1,129.600003164063
177,114,44899,1,0,0:0:0:0:
315,41,45086,6,0,P|270:106|259:173,1,129.600003164063
308,280,45645,1,0,0:0:0:0:
192,224,45831,2,0,P|134:231|145:312,1,129.600003164063
177,377,46390,1,0,0:0:0:0:
44,327,46576,2,0,P|23:265|44:203,1,129.600003164063
153,132,47135,1,0,0:0:0:0:
142,262,47322,6,0,P|181:241|221:227,1,64.8000015820313
279,359,47694,2,0,P|249:346|221:331,1,64.8000015820313
363,310,48067,2,0,P|396:273|375:207,1,97.2000023730469
346,213,48440,6,0,P|309:182|300:128,1,97.2000023730469
318,101,48812,1,0,0:0:0:0:
227,200,48999,1,0,0:0:0:0:
231,52,49185,2,0,P|188:33|150:26,1,64.8000015820313
51,180,49558,6,0,P|114:168|163:126,1,129.600003164063
196,12,50117,1,0,0:0:0:0:
247,154,50303,2,0,P|271:104|331:55,1,129.600003164063
450,68,50862,1,0,0:0:0:0:
484,185,51048,6,0,P|452:161|359:174,1,129.600003164063
307,284,51607,1,0,0:0:0:0:
148,226,51794,2,0,P|185:250|215:329,1,129.600003164063
307,383,52353,1,0,0:0:0:0:
426,328,52539,6,0,P|465:273|466:211,1,129.600003164063
286,167,53098,1,0,0:0:0:0:
290,183,53191,1,0,0:0:0:0:
297,208,53284,2,0,L|354:240,1,64.8000015820313
482,141,53657,2,0,L|425:172,1,64.8000015820313
338,78,54030,6,0,P|283:44|212:42,1,129.600003164063
145,145,54589,1,0,0:0:0:0:
8,63,54775,6,0,P|28:108|38:153,1,82.7999972204591
70,302,55148,1,0,0:0:0:0:
69,302,55334,2,0,P|84:258|106:224,1,82.7999972204591
226,119,55707,2,0,P|243:166|245:214,1,82.7999972204591
208,354,56079,5,0,0:0:0:0:
315,256,56266,1,0,0:0:0:0:
161,278,56452,1,0,0:0:0:0:
320,357,56638,2,0,L|406:329,1,82.7999972204591
508,248,57011,5,0,0:0:0:0:
484,368,57197,1,0,0:0:0:0:
361,190,57384,1,0,0:0:0:0:
404,301,57570,2,0,P|363:287|314:280,1,82.7999972204591
148,373,57943,2,0,P|192:353|222:324,1,82.7999972204591
285,177,58315,5,0,0:0:0:0:
318,300,58502,1,0,0:0:0:0:
182,176,58688,1,0,0:0:0:0:
148,299,58874,1,0,0:0:0:0:
277,128,59061,2,0,P|312:105|361:96,1,82.7999972204591
499,229,59433,2,0,P|419:241|353:196,1,165.599994440918
263,50,59992,5,0,0:0:0:0:
228,183,60179,1,0,0:0:0:0:
74,64,60365,5,0,0:0:0:0:
133,239,60551,1,0,0:0:0:0:
183,39,60738,5,0,0:0:0:0:
27,159,60924,1,0,0:0:0:0:
273,149,61110,5,0,0:0:0:0:
74,64,61297,1,0,0:0:0:0:
266,266,61483,5,0,0:0:0:0:
349,46,61669,1,0,0:0:0:0:
157,324,61856,5,0,0:0:0:0:
74,64,62042,1,0,0:0:0:0:
254,356,62228,5,0,0:0:0:0:
471,157,62415,1,0,0:0:0:0:
161,209,62601,5,0,0:0:0:0:
482,334,62787,1,0,0:0:0:0:
290,133,62974,5,0,0:0:0:0:
330,299,63160,1,0,0:0:0:0:
491,90,63346,5,0,0:0:0:0:
427,269,63533,1,0,0:0:0:0:
205,64,63719,5,0,0:0:0:0:
411,172,63905,1,0,0:0:0:0:
186,294,64092,5,0,0:0:0:0:
313,17,64278,1,0,0:0:0:0:
326,343,64464,5,0,0:0:0:0:
119,120,64651,1,0,0:0:0:0:
462,241,64837,5,0,0:0:0:0:
98,337,65023,1,0,0:0:0:0:
191,15,65210,5,0,0:0:0:0:
326,343,65396,1,0,0:0:0:0:
118,208,65582,1,0,0:0:0:0:
148,189,65676,1,0,0:0:0:0:
183,186,65769,1,0,0:0:0:0:
217,196,65862,1,0,0:0:0:0:
251,223,65955,2,0,P|294:239|360:216,1,91.8000005603027
462,151,66327,5,0,0:0:0:0:
416,282,66514,1,0,0:0:0:0:
350,119,66700,2,0,P|314:78|265:49,1,91.8000005603027
137,193,67073,2,0,P|203:169|247:140,1,91.8000005603027
154,325,67446,6,0,P|106:278|32:260,1,137.700000840454
9,275,67818,2,0,P|43:236|90:205,1,91.8000005603027
209,208,68191,1,0,0:0:0:0:
95,117,68378,1,0,0:0:0:0:
163,302,68564,2,0,P|207:314|252:317,1,91.8000005603027
382,273,68937,6,0,B|343:171|288:225|254:110,1,183.600001120605
288,20,69496,1,0,0:0:0:0:
168,171,69682,2,0,P|136:125|30:202,1,183.600001120605
27,276,70241,1,0,0:0:0:0:
150,336,70427,6,0,B|258:328|195:262|322:250,1,183.600001120605
447,290,70986,1,0,0:0:0:0:
358,156,71173,2,0,P|313:127|272:105,1,91.8000005603027
108,158,71545,5,0,0:0:0:0:
218,46,71732,1,0,0:0:0:0:
184,227,71918,1,0,0:0:0:0:
184,227,72011,1,0,0:0:0:0:
184,227,72104,1,0,0:0:0:0:
39,124,72291,6,0,B|197:111|140:230|302:159,1,259.200006328125
379,78,73222,1,0,0:0:0:0:
455,182,73409,6,0,L|420:323,1,137.700000840454
382,341,73781,1,0,0:0:0:0:
328,212,73968,1,0,0:0:0:0:
259,362,74154,2,0,B|152:352|210:286|98:270,1,183.600001120605
0,328,74713,1,0,0:0:0:0:
89,179,74899,6,0,P|160:148|281:198,1,183.600001120605
323,290,75458,1,0,0:0:0:0:
435,231,75645,2,0,P|466:182|381:106,1,183.600001120605
272,187,76204,1,0,0:0:0:0:
225,75,76390,5,0,0:0:0:0:
198,56,76483,1,0,0:0:0:0:
165,54,76576,2,0,P|130:54|103:61,1,45.9000002801514
40,183,76763,2,0,L|22:130,3,45.9000002801514
125,245,77135,2,0,L|143:192,3,45.9000002801514
185,341,77508,2,0,P|235:321|289:308,1,91.8000005603027
435,356,77881,6,0,L|447:268,1,64.8000015820313
343,259,78253,2,0,L|331:171,1,64.8000015820313
446,105,78626,2,0,L|434:193,1,64.8000015820313
345,259,78999,5,0,0:0:0:0:
296,161,79185,1,0,0:0:0:0:
266,325,79371,2,0,P|226:341|193:346,1,64.8000015820313
59,316,79744,2,0,P|88:343|114:375,1,64.8000015820313
174,203,80117,2,0,P|179:250|171:293,1,64.8000015820313
79,243,80489,5,0,0:0:0:0:
40,138,80676,1,0,0:0:0:0:
177,267,80862,2,0,P|209:261|240:251,1,64.8000015820313
250,131,81235,2,0,P|292:140|330:170,1,64.8000015820313
389,255,81607,5,0,0:0:0:0:
428,152,81794,1,0,0:0:0:0:
316,327,81980,1,0,0:0:0:0:
268,227,82166,1,0,0:0:0:0:
411,350,82353,6,0,P|398:307|433:269,1,97.2000023730469
473,249,82725,2,0,P|470:202|456:167,1,64.8000015820313
410,90,83098,5,0,0:0:0:0:
359,187,83284,1,0,0:0:0:0:
282,46,83471,2,0,P|296:91|296:133,1,64.8000015820313
239,215,83843,5,0,0:0:0:0:
385,112,84030,1,0,0:0:0:0:
392,274,84216,1,0,0:0:0:0:
249,123,84402,1,0,0:0:0:0:
267,345,84589,5,0,0:0:0:0:
364,147,84775,1,0,0:0:0:0:
174,281,84961,2,0,P|113:302|54:287,1,91.8000005603027
269,239,85334,5,0,0:0:0:0:
76,144,85520,1,0,0:0:0:0:
140,338,85707,1,0,0:0:0:0:
280,65,85893,1,0,0:0:0:0:
255,295,86079,5,0,0:0:0:0:
35,117,86266,1,0,0:0:0:0:
214,127,86452,2,0,P|269:83|291:45,1,91.8000005603027
440,114,86825,6,0,P|392:118|339:140,1,91.8000005603027
216,216,87197,2,0,P|264:220|317:242,1,91.8000005603027
400,328,87570,1,0,0:0:0:0:
387,172,87756,1,0,0:0:0:0:
277,315,87943,2,0,P|306:262|337:224,1,91.8000005603027
188,283,88315,6,0,P|136:306|88:227,1,137.700000840454
109,217,88688,1,0,0:0:0:0:
121,192,88781,1,0,0:0:0:0:
125,164,88874,1,0,0:0:0:0:
120,136,88968,1,0,0:0:0:0:
96,93,89061,5,0,0:0:0:0:
208,170,89247,1,0,0:0:0:0:
331,38,89433,2,0,P|308:83|299:135,1,91.8000005603027
361,235,89806,5,0,0:0:0:0:
405,118,89992,1,0,0:0:0:0:
286,287,90179,1,0,0:0:0:0:
158,172,90365,1,0,0:0:0:0:
225,355,90551,5,0,0:0:0:0:
377,212,90738,1,0,0:0:0:0:
140,310,90924,2,0,P|87:297|61:246,1,91.8000005603027
234,353,91297,5,0,0:0:0:0:
148,146,91484,1,0,0:0:0:0:
383,231,91669,1,0,0:0:0:0:
139,312,91856,1,0,0:0:0:0:
418,348,92042,5,0,0:0:0:0:
179,155,92228,1,0,0:0:0:0:
289,323,92415,2,0,P|314:262|350:215,1,91.8000005603027
443,117,92787,6,0,P|395:121|342:143,1,91.8000005603027
219,219,93159,2,0,P|267:223|320:245,1,91.8000005603027
403,331,93532,1,0,0:0:0:0:
390,175,93718,1,0,0:0:0:0:
280,318,93905,2,0,P|309:265|340:227,1,91.8000005603027
188,283,94278,6,0,P|134:307|90:227,1,137.700000840454
108,224,94651,2,0,P|142:172|108:99,1,137.700000840454
63,89,95023,5,0,0:0:0:0:
91,112,95117,1,0,0:0:0:0:
126,121,95210,1,0,0:0:0:0:
160,108,95303,1,0,0:0:0:0:
190,73,95396,1,0,0:0:0:0:
222,56,95489,1,0,0:0:0:0:
258,60,95582,1,0,0:0:0:0:
289,79,95676,1,0,0:0:0:0:
319,118,95769,6,0,L|335:17,1,91.8000005603027
366,212,96141,2,0,P|403:179|421:130,1,91.8000005603027
288,271,96514,5,0,0:0:0:0:
270,238,96607,1,0,0:0:0:0:
240,216,96700,1,0,0:0:0:0:
204,205,96794,1,0,0:0:0:0:
167,203,96887,2,0,L|102:209,3,45.9000002801514
85,303,97259,2,0,L|20:297,3,45.9000002801514
309,377,97632,5,0,0:0:0:0:
256,192,97818,12,0,103968,0:0:0:0:
