osu file format v14

[General]
AudioFilename: audio.mp3
AudioLeadIn: 0
PreviewTime: 13082
Countdown: 0
SampleSet: None
StackLeniency: 0.7
Mode: 0
LetterboxInBreaks: 0
WidescreenStoryboard: 1

[Editor]
Bookmarks: 33979,65266,71886,74956,77190,83145
DistanceSpacing: 1.4
BeatDivisor: 4
GridSize: 8
TimelineZoom: 1.8

[Metadata]
Title:Big Bang Theory Theme
TitleUnicode:Big Bang Theory Theme
Artist:Barenaked Ladies
ArtistUnicode:Barenaked Ladies
Creator:bazzla
Version:dddd
Source:The Big Bang Theory
Tags:
BeatmapID:2137957
BeatmapSetID:1021147

[Difficulty]
HPDrainRate:6
CircleSize:3.8
OverallDifficulty:9
ApproachRate:9.2
SliderMultiplier:1.4
SliderTickRate:1

[Events]
//Background and Video events
0,0,"The-Big-Bang-Theory-the-big-bang-theory-39186048-1920-1080.jpg",0,0
//Break Periods
//Storyboard Layer 0 (Background)
//Storyboard Layer 1 (Fail)
//Storyboard Layer 2 (Pass)
//Storyboard Layer 3 (Foreground)
//Storyboard Layer 4 (Overlay)
//Storyboard Sound Samples

[TimingPoints]
13094,373.134328358209,4,1,0,80,1,0
18679,-66.6666666666667,4,1,0,80,0,0
19068,375,4,1,0,80,1,0
21850,373.134328358209,4,1,0,80,1,0
22037,-100,4,1,0,80,0,0
23902,-66.6666666666667,4,1,0,80,0,0
24648,-100,4,1,0,80,0,0
25046,372.208436724566,4,1,0,80,1,0
25046,-200,4,1,0,80,0,0
28209,-100,4,1,0,80,0,0
47379,374.298190892077,4,1,0,80,1,0
53746,370.37037037037,4,1,0,80,1,0
59307,372.43947858473,4,1,0,80,1,0
65266,-100,4,1,0,45,0,0
66755,-100,4,1,0,55,0,0
68245,-100,4,1,0,65,0,0
69735,-100,4,1,0,80,0,0
71607,372.208436724566,4,1,0,80,1,0

[HitObjects]
158,110,65266,5,0,0:0:0:0:
385,241,65452,1,0,0:0:0:0:
121,275,65638,1,0,0:0:0:0:
333,89,65824,1,0,0:0:0:0:
89,122,66010,1,0,0:0:0:0:
321,323,66197,1,0,0:0:0:0:
411,96,66383,1,0,0:0:0:0:
160,288,66569,1,0,0:0:0:0:
223,53,66755,5,0,0:0:0:0:
405,320,66942,1,0,0:0:0:0:
123,97,67128,1,0,0:0:0:0:
191,347,67314,1,0,0:0:0:0:
278,68,67500,1,0,0:0:0:0:
57,247,67686,1,0,0:0:0:0:
402,85,67873,1,0,0:0:0:0:
270,349,68059,1,0,0:0:0:0:
114,59,68245,5,0,0:0:0:0:
444,220,68431,1,0,0:0:0:0:
103,302,68617,1,0,0:0:0:0:
317,28,68804,1,0,0:0:0:0:
375,354,68990,1,0,0:0:0:0:
82,134,69176,1,0,0:0:0:0:
471,105,69362,1,0,0:0:0:0:
177,356,69549,1,0,0:0:0:0:
172,20,69735,5,0,0:0:0:0:
462,325,69921,1,0,0:0:0:0:
92,248,70107,1,0,0:0:0:0:
502,146,70293,1,0,0:0:0:0:
97,54,70480,1,0,0:0:0:0:
233,371,70666,1,0,0:0:0:0:
348,25,70852,1,0,0:0:0:0:
49,335,71038,1,0,0:0:0:0:
429,166,71225,5,0,0:0:0:0:
77,22,71411,1,0,0:0:0:0:
314,365,71607,2,0,P|324:319|320:282,1,70
320,275,71886,5,0,0:0:0:0:
305,242,71979,1,0,0:0:0:0:
280,219,72072,1,0,0:0:0:0:
247,209,72165,1,0,0:0:0:0:
213,214,72258,1,0,0:0:0:0:
184,234,72351,1,0,0:0:0:0:
167,264,72444,1,0,0:0:0:0:
158,298,72537,1,0,0:0:0:0:
131,320,72630,1,0,0:0:0:0:
90,331,72723,5,0,0:0:0:0:
51,320,72816,1,0,0:0:0:0:
22,293,72909,1,0,0:0:0:0:
10,255,73002,1,0,0:0:0:0:
13,215,73095,1,0,0:0:0:0:
36,181,73188,1,0,0:0:0:0:
71,169,73281,1,0,0:0:0:0:
108,177,73374,1,0,0:0:0:0:
141,200,73468,5,0,0:0:0:0:
170,239,73561,1,0,0:0:0:0:
212,265,73654,1,0,0:0:0:0:
260,273,73747,1,0,0:0:0:0:
307,263,73840,1,0,0:0:0:0:
348,236,73933,1,0,0:0:0:0:
375,196,74026,1,0,0:0:0:0:
386,148,74119,1,0,0:0:0:0:
399,61,74212,6,0,L|401:18,3,35
319,31,74584,2,0,L|317:65,3,35
229,23,74956,5,0,0:0:0:0:
187,22,75049,1,0,0:0:0:0:
147,32,75142,1,0,0:0:0:0:
111,53,75235,1,0,0:0:0:0:
81,82,75328,1,0,0:0:0:0:
61,119,75421,1,0,0:0:0:0:
51,159,75514,1,0,0:0:0:0:
52,200,75607,1,0,0:0:0:0:
61,235,75701,5,0,0:0:0:0:
78,265,75794,1,0,0:0:0:0:
105,287,75887,1,0,0:0:0:0:
137,299,75980,1,0,0:0:0:0:
172,300,76073,1,0,0:0:0:0:
205,288,76166,1,0,0:0:0:0:
232,267,76259,1,0,0:0:0:0:
250,237,76352,1,0,0:0:0:0:
286,157,76445,6,0,L|299:119,3,35
377,151,76817,2,0,L|365:184,3,35
462,45,77190,5,0,0:0:0:0:
480,74,77283,1,0,0:0:0:0:
492,107,77376,1,0,0:0:0:0:
496,142,77469,1,0,0:0:0:0:
494,177,77562,1,0,0:0:0:0:
484,210,77655,1,0,0:0:0:0:
467,241,77748,1,0,0:0:0:0:
444,267,77841,1,0,0:0:0:0:
398,283,77934,5,0,0:0:0:0:
350,272,78027,1,0,0:0:0:0:
311,241,78120,1,0,0:0:0:0:
288,197,78213,1,0,0:0:0:0:
250,168,78306,1,0,0:0:0:0:
202,157,78399,1,0,0:0:0:0:
155,168,78492,1,0,0:0:0:0:
116,198,78585,1,0,0:0:0:0:
96,242,78678,5,0,0:0:0:0:
99,293,78771,1,0,0:0:0:0:
127,337,78864,1,0,0:0:0:0:
172,363,78957,1,0,0:0:0:0:
224,363,79050,1,0,0:0:0:0:
270,339,79143,1,0,0:0:0:0:
298,295,79236,1,0,0:0:0:0:
302,243,79329,1,0,0:0:0:0:
275,192,79423,5,0,0:0:0:0:
235,153,79516,1,0,0:0:0:0:
227,99,79609,1,0,0:0:0:0:
252,50,79702,1,0,0:0:0:0:
302,27,79795,1,0,0:0:0:0:
356,40,79888,1,0,0:0:0:0:
384,88,79981,1,0,0:0:0:0:
386,143,80074,5,0,0:0:0:0:
351,194,80167,1,0,0:0:0:0:
293,214,80260,1,0,0:0:0:0:
234,193,80353,1,0,0:0:0:0:
199,150,80446,5,0,0:0:0:0:
177,99,80539,1,0,0:0:0:0:
130,69,80632,1,0,0:0:0:0:
75,72,80725,1,0,0:0:0:0:
32,106,80818,1,0,0:0:0:0:
14,152,80912,5,0,0:0:0:0:
16,200,81005,1,0,0:0:0:0:
33,246,81098,1,0,0:0:0:0:
64,284,81191,1,0,0:0:0:0:
104,311,81284,1,0,0:0:0:0:
151,325,81377,1,0,0:0:0:0:
200,323,81470,1,0,0:0:0:0:
246,307,81563,1,0,0:0:0:0:
317,251,81656,6,0,L|349:218,3,35
286,172,82028,2,0,L|261:197,3,35
355,157,82401,2,0,L|391:150,3,35
491,360,82773,1,0,0:0:0:0:
