osu file format v14

[General]
AudioFilename: audio.mp3
AudioLeadIn: 0
PreviewTime: 122
Countdown: 0
SampleSet: Soft
StackLeniency: 0.7
Mode: 0
LetterboxInBreaks: 0
WidescreenStoryboard: 1

[Editor]
Bookmarks: 588,7708,13689,19679,28599,34561,43495,53916,59860,66222,77772,83712,89674,97512
DistanceSpacing: 1
BeatDivisor: 4
GridSize: 8
TimelineZoom: 1

[Metadata]
Title:Big Bang Theory Theme
TitleUnicode:Big Bang Theory Theme
Artist:Barenaked Ladies
ArtistUnicode:Barenaked Ladies
Creator:StarCastler
Version:Normal
Source:The Big Bang Theory
Tags:english rock the history of everything tv show opening Hits from Yesterday & the Day Before
BeatmapID:2634301
BeatmapSetID:1267571

[Difficulty]
HPDrainRate:3
CircleSize:3
OverallDifficulty:5
ApproachRate:6
SliderMultiplier:1.3
SliderTickRate:2

[Events]
//Background and Video events
0,0,"galaxy.jpg",0,0
//Break Periods
//Storyboard Layer 0 (Background)
//Storyboard Layer 1 (Fail)
//Storyboard Layer 2 (Pass)
//Storyboard Layer 3 (Foreground)
//Storyboard Layer 4 (Overlay)
//Storyboard Sound Samples

[TimingPoints]
122,466.926070038911,4,2,0,60,1,0
588,445.269016697588,4,2,0,60,1,0
3259,483.870967741935,4,2,0,60,1,0
4226,461.538461538462,4,2,0,60,1,0
6995,526.315789473684,4,2,0,60,1,0
7521,375,4,2,0,60,1,0
7708,375,4,1,0,60,1,0
10708,372.670807453416,4,1,0,60,1,0
13689,376.766091051805,4,1,0,70,1,0
15196,364.188163884674,4,1,0,70,1,0
16652,372.670807453416,4,1,0,70,1,0
18551,376.175548589342,4,1,0,70,1,0
19679,370.942812982998,4,3,0,70,1,0
19679,-111.111111111111,4,3,0,70,0,0
22646,372.093023255814,4,3,0,70,1,0
22646,-111.111111111111,4,3,0,70,0,0
28599,372.670807453416,4,1,0,70,1,0
34561,371.114890985001,4,1,0,70,1,0
40498,368.098159509202,4,1,0,70,1,0
42706,394.736842105263,4,1,0,70,1,0
43495,373.831775700935,4,1,0,70,1,0
44990,376.175548589342,4,1,0,70,1,0
47247,373.250388802488,4,1,0,70,1,0
49486,368.098159509202,4,1,0,70,1,0
52430,371.517027863777,4,1,0,70,1,0
53916,373.250388802488,4,1,0,70,1,0
56715,-99.2555831265509,4,1,0,70,0,0
56902,369.79969183359,4,1,0,70,1,0
59860,379.746835443038,4,1,0,70,1,0
59860,-86.9565217391304,4,1,0,70,0,0
61378,376.529651710072,4,1,0,70,1,0
62884,373.831775700935,4,1,0,70,1,0
64379,368.098159509202,4,1,0,70,1,0
65851,371.17228580266,4,1,0,70,1,0
71789,375,4,1,0,70,1,0
74789,370.37037037037,4,1,0,70,1,0
77772,371.287128712871,4,1,0,70,1,0
83712,372.670807453416,4,1,0,70,1,0
89674,370.37037037037,4,1,0,70,1,0
91155,376.766091051805,4,1,0,70,1,0
92662,368.369351669941,4,1,0,70,1,0
95608,380.952380952381,4,1,0,70,1,0
97512,375,4,1,0,70,1,0
99012,-100,4,1,0,60,0,0
99762,-100,4,1,0,50,0,0
100512,-100,4,1,0,40,0,0
101262,-100,4,1,0,30,0,0
102012,-100,4,1,0,20,0,0
102762,-100,4,1,0,10,0,0
103512,-100,4,2,0,5,0,0

[Colours]
Combo1 : 224,197,1
Combo2 : 0,0,128
Combo3 : 64,0,128
Combo4 : 254,103,65

[HitObjects]
144,320,588,6,0,B|184:264|256:248|328:264|368:320,1,260,6|2,0:0|0:0,0:0:0:0:
368,64,2369,1,2,0:0:0:0:
256,0,2814,1,2,0:0:0:0:
144,64,3259,1,6,0:0:0:0:
88,256,4226,6,0,B|120:320|192:320,1,130,2|2,0:0|0:0,0:0:0:0:
320,320,5149,2,0,B|392:320|424:256,1,130,2|2,0:0|0:0,0:0:0:0:
320,192,6072,1,2,0:0:0:0:
192,192,6533,1,6,0:0:0:0:
448,64,7708,5,6,0:0:0:0:
472,192,8083,1,8,0:0:0:0:
472,192,8270,1,0,0:0:0:0:
472,192,8458,1,2,0:0:0:0:
352,240,8833,1,8,0:0:0:0:
352,240,9020,2,0,B|256:272|160:240,1,195,6|8,0:0|0:0,0:0:0:0:
192,112,9958,1,2,0:0:0:0:
320,112,10333,1,10,0:0:0:0:
256,0,10708,6,0,B|192:-8|128:24,1,130,6|8,0:0|0:0,0:0:0:0:
16,64,11453,1,2,0:0:0:0:
16,64,11639,1,0,0:0:0:0:
16,64,11826,1,8,0:0:0:0:
16,184,12198,2,0,B|88:184|128:120,1,130,6|8,0:0|0:0,0:0:0:0:
208,216,12944,2,0,B|256:172|256:172|304:216,1,130,10|14,0:0|0:0,0:0:0:0:
416,152,13689,6,0,L|320:64,1,130,6|8,0:0|0:0,0:0:0:0:
192,64,14442,2,0,L|96:152,1,130,2|8,0:0|0:0,0:0:0:0:
200,240,15196,1,6,0:0:0:0:
256,240,15378,1,0,0:0:0:0:
312,240,15560,1,8,0:0:0:0:
312,376,15924,1,2,0:0:0:0:
256,376,16106,1,0,0:0:0:0:
200,376,16288,1,10,0:0:0:0:
256,192,16652,12,6,18551,0:0:0:0:
488,240,19679,6,2,B|504:304|456:352,2,116.999996429443,6|0|2,0:2|0:2|0:2,0:2:0:0:
400,144,20791,1,2,0:2:0:0:
360,256,21162,2,0,B|328:312|256:296|256:256|184:240|152:288,1,233.999992858887,6|2,0:2|0:2,0:2:0:0:
72,384,22275,1,2,0:2:0:0:
32,272,22646,6,0,L|32:152,1,116.999996429443,6|2,0:2|0:2,0:2:0:0:
144,192,23390,2,0,L|144:72,1,116.999996429443,2|2,0:2|0:2,0:0:0:0:
256,112,24134,2,0,B|280:72|328:64,2,87.7499973220826,6|2|0,0:2|0:2|0:2,0:0:0:0:
256,192,24878,1,10,0:2:0:0:
256,192,25064,1,8,0:2:0:0:
256,192,25250,1,10,0:2:0:0:
288,320,25622,6,0,L|408:320,1,116.999996429443,6|2,0:2|0:2,0:2:0:0:
496,248,26366,2,0,L|496:128,1,116.999996429443,2|2,0:2|0:2,0:2:0:0:
432,32,27111,2,0,B|384:48|368:96,2,87.7499973220826,6|2|0,0:2|0:2|0:2,0:0:0:0:
496,16,27855,1,8,0:2:0:0:
496,16,28041,1,4,0:3:0:0:
496,16,28227,1,12,0:2:0:0:
496,136,28599,6,0,L|408:232,1,130,6|8,0:0|0:0,0:0:0:0:
312,328,29344,1,2,0:0:0:0:
256,344,29530,1,0,0:0:0:0:
200,328,29717,1,8,0:0:0:0:
104,232,30089,2,0,L|16:136,1,130,2|8,0:0|0:0,0:0:0:0:
40,16,30835,2,0,L|104:0,2,65,2|0|8,0:0|0:0|0:0,0:0:0:0:
112,112,31580,6,0,B|128:184|200:200,1,130,6|8,0:0|0:0,0:0:0:0:
256,80,32325,1,2,0:0:0:0:
256,80,32512,1,0,0:0:0:0:
256,80,32698,1,8,0:0:0:0:
312,200,33071,2,0,B|384:184|400:112,1,130,2|8,0:0|0:0,0:0:0:0:
512,80,33816,1,2,0:0:0:0:
512,80,34002,1,0,0:0:0:0:
512,80,34189,1,8,0:0:0:0:
512,200,34561,6,0,B|512:272|440:296,1,130,6|8,0:0|0:0,0:0:0:0:
320,328,35303,1,2,0:0:0:0:
320,328,35488,1,0,0:0:0:0:
320,328,35674,1,8,0:0:0:0:
320,192,36045,2,0,L|320:56,1,130,6|8,0:0|0:0,0:0:0:0:
192,64,36787,2,0,L|192:200,1,130,2|10,0:0|0:0,0:0:0:0:
256,304,37529,5,6,0:0:0:0:
256,304,37715,1,0,0:0:0:0:
256,304,37901,1,8,0:0:0:0:
320,192,38272,2,2,B|256:168|192:192,1,130,2|8,0:0|0:0,0:0:0:0:
256,72,39014,1,6,0:0:0:0:
320,312,39756,1,0,0:0:0:0:
192,312,40127,1,8,0:0:0:0:
256,192,40498,12,14,42338,0:0:0:0:
72,64,43495,6,2,B|120:32|200:64|168:136|264:152|304:112,2,260,6|2|2,0:0|0:0|0:0,0:0:0:0:
48,272,45554,1,0,0:0:0:0:
48,272,45742,2,2,B|120:352|224:336,1,195,2|0,0:0|0:0,0:0:0:0:
288,336,46494,6,2,B|392:344|368:264|464:272,1,195,2|0,0:0|0:0,0:0:0:0:
504,224,47247,1,2,0:0:0:0:
376,192,47620,1,8,0:0:0:0:
472,96,47993,1,10,0:0:0:0:
392,0,48366,2,0,B|304:-32|200:-8|168:72,1,260,4|8,0:0|0:0,0:0:0:0:
296,88,49486,6,2,B|336:128|288:208|256:192|224:176|176:256|216:296,2,260,6|2|2,0:0|0:0|0:0,0:0:0:0:
120,8,51510,1,0,0:0:0:0:
120,8,51694,2,2,B|72:104|144:192,1,195,2|0,0:0|0:0,0:0:0:0:
200,232,52430,6,2,B|240:248|296:232|280:184|336:168|384:192,1,195,2|0,0:0|0:0,0:0:0:0:
456,216,53173,1,8,0:0:0:0:
456,216,53358,1,4,0:3:0:0:
456,216,53544,1,8,0:3:0:0:
392,328,53916,1,2,0:0:0:0:
256,192,54475,1,0,0:0:0:0:
256,192,54662,1,2,0:0:0:0:
144,256,55035,1,8,0:0:0:0:
144,256,55222,6,0,B|88:304|16:272,2,130,2|2|2,0:0|0:2|0:0,0:0:0:0:
256,192,56342,1,2,0:2:0:0:
368,256,56715,2,0,B|424:304|496:272,2,130,2|2|2,0:0|0:2|0:0,0:0:0:0:
256,192,57826,1,2,0:2:0:0:
192,80,58196,2,0,B|256:48|320:80,2,130,2|2|2,0:0|0:2|0:0,0:0:0:0:
256,192,59305,1,2,0:2:0:0:
456,232,59860,6,0,B|424:352|256:448|88:352|56:232,1,523.250009980202,4|0,0:0|0:0,0:0:0:0:
144,232,61378,2,0,B|176:280|256:320|336:280|368:232,1,260,4|4,0:0|0:0,0:0:0:0:
256,152,62507,1,0,0:0:0:0:
184,24,62884,5,4,0:0:0:0:
184,24,63070,1,0,0:0:0:0:
184,24,63257,1,0,0:0:0:0:
328,24,63631,1,4,0:0:0:0:
328,24,63818,1,0,0:0:0:0:
328,24,64005,1,0,0:0:0:0:
256,192,64379,12,4,66222,0:0:0:0:
144,88,67335,6,0,B|184:32|256:16|328:32|368:88,2,260,4|4|4,0:0|0:0|0:0,0:0:0:0:
72,192,69191,1,8,0:0:0:0:
88,248,69377,1,0,0:0:0:0:
104,304,69562,2,0,B|176:368|288:328,1,195,4|0,0:0|0:0,0:0:0:0:
352,304,70305,2,0,L|488:304,1,130,4|8,0:0|0:0,0:0:0:0:
416,192,71047,1,4,0:0:0:0:
416,192,71232,1,0,0:0:0:0:
416,192,71418,1,8,0:0:0:0:
480,80,71789,1,8,0:0:0:0:
376,40,72164,6,0,B|328:80|256:104|184:80|136:40,1,260,4|8,0:0|0:0,0:0:0:0:
144,168,73289,2,0,B|184:224|256:240|328:224|368:168,1,260,4|4,0:0|0:0,0:0:0:0:
432,280,74414,1,8,0:0:0:0:
432,280,74601,1,0,0:0:0:0:
432,280,74789,6,0,B|368:344|256:384|144:344|80:280,1,390,4|8,0:0|0:0,0:0:0:0:
112,152,76270,1,8,0:0:0:0:
152,112,76455,1,4,0:3:0:0:
192,72,76640,2,0,B|256:88|320:72,1,130,8|4,0:3|0:3,0:0:0:0:
360,112,77196,1,4,0:3:0:0:
400,152,77381,1,8,0:0:0:0:
448,304,77772,6,0,L|312:304,1,130,6|8,0:0|0:0,0:0:0:0:
192,304,78514,1,2,0:0:0:0:
192,304,78700,1,0,0:0:0:0:
192,304,78885,1,8,0:0:0:0:
64,288,79257,1,2,0:0:0:0:
0,176,79628,1,8,0:0:0:0:
72,80,79999,2,0,L|72:16,2,65,2|0|8,0:0|0:0|0:0,0:0:0:0:
72,208,80742,6,0,B|136:240|200:216,1,130,6|8,0:0|0:0,0:0:0:0:
256,192,81299,1,0,0:0:0:0:
312,216,81484,2,0,B|376:240|440:208,1,130,2|8,0:0|0:0,0:0:0:0:
504,96,82227,2,0,B|368:96,1,130,2|8,0:0|0:0,0:0:0:0:
256,72,82970,1,2,0:0:0:0:
256,72,83155,1,0,0:0:0:0:
256,72,83341,1,8,0:0:0:0:
192,176,83712,6,0,B|152:176|128:200,2,65,6|0|8,0:0|0:0|0:0,0:0:0:0:
320,208,84457,2,0,B|360:208|384:184,2,65,2|0|8,0:0|0:0|0:0,0:0:0:0:
192,256,85202,1,6,0:0:0:0:
192,312,85389,1,0,0:0:0:0:
192,368,85575,1,8,0:0:0:0:
320,368,85948,1,2,0:0:0:0:
320,312,86134,1,0,0:0:0:0:
320,256,86320,1,10,0:0:0:0:
352,128,86693,6,2,B|376:56|312:16,1,130,6|8,0:0|0:0,0:0:0:0:
256,0,87252,1,0,0:0:0:0:
192,16,87438,2,0,B|128:56|152:128,1,130,2|8,0:0|0:0,0:0:0:0:
256,192,88184,1,6,0:0:0:0:
32,88,88929,1,2,0:0:0:0:
16,216,89302,1,10,0:0:0:0:
0,344,89674,6,0,L|136:344,1,130,6|8,0:0|0:0,0:0:0:0:
256,344,90414,2,0,L|392:344,1,130,2|8,0:0|0:0,0:0:0:0:
448,343,90970,1,6,0:0:0:0:
416,216,91343,1,0,0:0:0:0:
416,216,91531,1,8,0:0:0:0:
472,112,91908,2,0,L|504:56,2,65,2|0|8,0:0|0:0|0:0,0:0:0:0:
368,48,92662,6,0,B|296:72|296:144,1,130,6|8,0:0|0:0,0:0:0:0:
256,192,93214,1,0,0:0:0:0:
216,144,93398,2,0,B|216:72|144:48,1,130,2|8,0:0|0:0,0:0:0:0:
16,16,94135,1,6,0:0:0:0:
216,160,94872,2,0,L|216:224,1,65,8|8,0:0|0:0,0:0:0:0:
296,224,95240,2,0,L|296:160,1,65,8|8,0:0|0:0,0:0:0:0:
320,80,95608,6,2,B|256:56|192:80,1,130,6|8,0:0|0:0,0:0:0:0:
128,192,96369,1,8,0:3:0:0:
160,240,96560,1,4,0:3:0:0:
192,288,96750,2,4,L|328:288,1,130,4|4,0:3|0:3,0:3:0:0:
352,240,97322,1,4,0:3:0:0:
384,192,97512,1,6,0:0:0:0:
256,192,97699,12,0,103512,0:0:0:0:
