osu file format v14

[General]
AudioFilename: audio.mp3
AudioLeadIn: 0
PreviewTime: 122
Countdown: 0
SampleSet: Soft
StackLeniency: 0.7
Mode: 0
LetterboxInBreaks: 0
WidescreenStoryboard: 1

[Editor]
Bookmarks: 588,7708,13689,19679,28599,34561,43495,53916,59860,66222,77772,83712,89674,97512
DistanceSpacing: 1
BeatDivisor: 4
GridSize: 8
TimelineZoom: 1

[Metadata]
Title:Big Bang Theory Theme
TitleUnicode:Big Bang Theory Theme
Artist:Barenaked Ladies
ArtistUnicode:Barenaked Ladies
Creator:StarCastler
Version:Easy
Source:The Big Bang Theory
Tags:english rock the history of everything tv show opening Hits from Yesterday & the Day Before
BeatmapID:2634298
BeatmapSetID:1267571

[Difficulty]
HPDrainRate:2
CircleSize:2
OverallDifficulty:4
ApproachRate:4
SliderMultiplier:0.999999999999999
SliderTickRate:1

[Events]
//Background and Video events
0,0,"galaxy.jpg",0,0
//Break Periods
2,66422,76452
//Storyboard Layer 0 (Background)
//Storyboard Layer 1 (Fail)
//Storyboard Layer 2 (Pass)
//Storyboard Layer 3 (Foreground)
//Storyboard Layer 4 (Overlay)
//Storyboard Sound Samples

[TimingPoints]
122,466.926070038911,4,2,0,60,1,0
588,445.269016697588,4,2,0,60,1,0
3259,483.870967741935,4,2,0,60,1,0
4226,461.538461538462,4,2,0,60,1,0
6995,526.315789473684,4,2,0,60,1,0
7521,375,4,2,0,60,1,0
7708,375,4,1,0,60,1,0
10708,372.670807453416,4,1,0,60,1,0
13689,376.766091051805,4,1,0,70,1,0
15196,364.188163884674,4,1,0,70,1,0
16652,372.670807453416,4,1,0,70,1,0
18551,376.175548589342,4,1,0,70,1,0
19679,370.942812982998,4,3,0,70,1,0
22646,372.093023255814,4,3,0,70,1,0
28599,372.670807453416,4,1,0,70,1,0
34561,371.114890985001,4,1,0,70,1,0
40498,368.098159509202,4,1,0,70,1,0
42706,394.736842105263,4,1,0,70,1,0
43495,373.831775700935,4,1,0,70,1,0
44990,376.175548589342,4,1,0,70,1,0
47247,373.250388802488,4,1,0,70,1,0
49486,368.098159509202,4,1,0,70,1,0
52430,371.517027863777,4,1,0,70,1,0
53916,373.250388802488,4,1,0,70,1,0
56715,-99.2555831265509,4,1,0,70,0,0
56902,369.79969183359,4,1,0,70,1,0
59860,379.746835443038,4,1,0,70,1,0
61378,376.529651710072,4,1,0,70,1,0
62884,373.831775700935,4,1,0,70,1,0
64379,368.098159509202,4,1,0,70,1,0
65851,371.17228580266,4,1,0,70,1,0
71789,375,4,1,0,70,1,0
74789,370.37037037037,4,1,0,70,1,0
77772,371.287128712871,4,1,0,70,1,0
83712,372.670807453416,4,1,0,70,1,0
89674,370.37037037037,4,1,0,70,1,0
90966,-101.010101010101,4,1,0,70,0,0
91155,376.766091051805,4,1,0,70,1,0
92662,368.369351669941,4,1,0,70,1,0
95608,380.952380952381,4,1,0,70,1,0
97512,375,4,1,0,70,1,0
99012,-100,4,1,0,60,0,0
99762,-100,4,1,0,50,0,0
100512,-100,4,1,0,40,0,0
101262,-100,4,1,0,30,0,0
102012,-100,4,1,0,20,0,0
102762,-100,4,1,0,10,0,0
103512,-100,4,2,0,5,0,0

[Colours]
Combo1 : 224,197,1
Combo2 : 0,0,128
Combo3 : 64,0,128
Combo4 : 254,103,65

[HitObjects]
160,296,588,5,6,0:0:0:0:
352,296,1478,1,2,0:0:0:0:
344,88,2369,1,2,0:0:0:0:
256,40,2814,1,2,0:0:0:0:
168,88,3259,1,6,0:0:0:0:
120,296,4226,6,0,B|192:368|320:368|392:296,1,300,2|2,0:0|0:0,0:0:0:0:
304,240,6072,1,2,0:0:0:0:
208,240,6533,1,6,0:0:0:0:
48,48,7708,6,0,L|48:248,1,200,6|2,0:0|0:0,0:0:0:0:
128,368,9020,2,0,B|216:392|256:320,1,150,6|8,0:0|0:0,0:0:0:0:
312,240,9958,1,2,0:0:0:0:
368,320,10333,1,10,0:0:0:0:
456,272,10708,6,0,B|504:176|456:80,1,200,6|2,0:0|0:0,0:0:0:0:
360,112,11826,1,8,0:0:0:0:
304,192,12198,2,0,L|200:192,2,99.9999999999999,6|8|10,0:0|0:0|0:0,0:0:0:0:
400,192,13316,1,14,0:0:0:0:
351,103,13689,6,0,B|255:55|159:103,1,200,6|2,0:0|0:0,0:0:0:0:
208,192,14819,1,8,0:0:0:0:
256,280,15196,1,6,0:0:0:0:
64,320,15924,1,2,0:0:0:0:
96,232,16288,1,10,0:0:0:0:
128,144,16652,6,2,B|168:79|256:55|344:79|384:143,1,300,6|10,0:0|0:0,0:0:0:0:
304,192,18142,1,8,0:0:0:0:
208,192,18551,1,6,0:0:0:0:
432,336,19679,5,6,0:2:0:0:
256,336,20420,1,2,0:2:0:0:
80,336,21162,1,6,0:2:0:0:
64,248,21533,1,2,0:2:0:0:
48,160,21904,1,2,0:2:0:0:
160,280,22646,6,0,B|256:328|352:280,2,200,6|2|6,0:2|0:2|0:2,0:2:0:0:
256,144,24878,1,10,0:2:0:0:
256,56,25250,1,10,0:2:0:0:
344,56,25622,6,0,B|416:144|344:240,1,200,6|2,0:2|0:2,0:2:0:0:
168,240,27111,2,0,B|96:144|168:56,1,200,6|8,0:2|0:2,0:0:0:0:
256,24,28227,1,12,0:2:0:0:
272,120,28599,6,0,B|80:176,1,200,6|2,0:0|0:0,0:0:0:0:
240,264,30089,2,0,B|432:208,1,200,2|2,0:0|0:0,0:0:0:0:
352,0,31580,5,6,0:0:0:0:
256,0,31953,1,8,0:0:0:0:
160,0,32325,1,2,0:0:0:0:
256,192,33071,2,0,L|360:192,2,99.9999999999999,2|8|2,0:0|0:0|0:0,0:0:0:0:
184,120,34189,1,8,0:0:0:0:
136,208,34561,6,0,B|80:248|96:344|168:368,1,200,6|2,0:0|0:0,0:0:0:0:
256,328,35674,1,8,0:0:0:0:
344,368,36045,2,0,B|416:344|432:248|376:208,1,200,6|2,0:0|0:0,0:0:0:0:
256,40,37529,2,2,L|256:240,2,200,2|2|6,0:0|0:0|0:0,0:0:0:0:
128,144,40498,6,2,B|168:79|256:55|344:79|384:143,1,300,6|8,0:0|0:0,0:0:0:0:
304,192,41970,1,8,0:0:0:0:
208,192,42338,1,14,0:0:0:0:
72,64,43495,6,2,B|152:32|256:80|216:144|176:200|288:264|376:224,1,400,6|2,0:0|0:0,0:0:0:0:
464,48,45742,1,2,0:0:0:0:
272,64,46494,6,2,B|168:72|112:168,1,200
72,256,47620,1,8,0:0:0:0:
32,344,47993,1,10,0:0:0:0:
128,336,48366,1,4,0:0:0:0:
176,48,49486,6,2,B|120:128|200:224|256:192|312:160|392:256|336:336,1,400,6|2,0:0|0:0,0:0:0:0:
144,368,51694,1,2,0:0:0:0:
208,144,52430,6,0,L|312:144,1,99.9999999999999,2|8,0:0|0:0,0:0:0:0:
312,240,53173,2,0,L|208:240,1,99.9999999999999,8|8,0:0|0:3,0:0:0:0:
112,240,53916,1,2,0:0:0:0:
168,48,54662,1,2,0:0:0:0:
312,64,55222,6,0,B|408:80|464:200|416:304,1,300,2|2,0:0|0:2,0:0:0:0:
320,264,56715,2,0,B|360:176|256:92|152:176|192:264,1,300,2|2,0:0|0:2,0:0:0:0:
96,304,58196,2,0,B|48:200|104:80|200:64,1,300,2|2,0:0|0:2,0:0:0:0:
360,88,59860,5,4,0:0:0:0:
360,296,60619,1,4,0:0:0:0:
152,296,61378,1,4,0:0:0:0:
152,88,62131,1,4,0:0:0:0:
304,240,62884,5,4,0:0:0:0:
208,240,63257,1,0,0:0:0:0:
208,144,63631,1,4,0:0:0:0:
304,144,64005,1,0,0:0:0:0:
256,192,64379,12,4,66222,0:0:0:0:
0,376,77772,6,0,L|200:376,1,200,6|2,0:0|0:0,0:0:0:0:
256,296,78885,1,8,0:0:0:0:
312,376,79257,2,0,L|512:376,1,200,2|2,0:0|0:0,0:0:0:0:
512,192,80742,6,0,L|512:88,2,99.9999999999999,6|8|2,0:0|0:0|0:0,0:0:0:0:
424,240,81856,1,8,0:0:0:0:
392,144,82227,2,0,B|328:112|248:136|224:200,1,200,2|2,0:0|0:0,0:0:0:0:
256,288,83341,1,8,0:0:0:0:
168,328,83712,6,0,B|48:344|8:240,1,200,6|2,0:0|0:0,0:0:0:0:
120,72,85202,2,0,L|208:120,1,99.9999999999999,6|8,0:0|0:0,0:0:0:0:
304,120,85948,2,0,L|392:72,1,99.9999999999999,2|10,0:0|0:0,0:0:0:0:
488,24,86693,2,2,L|488:224,2,200,2|2|6,0:0|0:0|0:0,0:0:0:0:
496,16,89674,6,0,B|496:128|384:168,1,200,6|2,0:0|0:0,0:0:0:0:
256,96,90970,2,0,B|176:112|152:192,1,150,6|8,0:0|0:0,0:0:0:0:
216,272,91908,1,2,0:0:0:0:
168,360,92285,1,8,0:0:0:0:
72,320,92662,6,0,B|7:280|-17:192|7:104|71:64,1,300,6|8,0:0|0:0,0:0:0:0:
176,64,94135,1,6,0:0:0:0:
440,320,95608,6,2,B|505:280|529:192|505:104|441:64,1,300,6|4,0:0|0:3,0:0:0:0:
256,192,97512,1,6,0:0:0:0:
256,192,97887,12,0,103512,0:0:0:0:
