osu file format v14

[General]
AudioFilename: audio.mp3
AudioLeadIn: 0
PreviewTime: 102520
Countdown: 0
SampleSet: Normal
StackLeniency: 0.7
Mode: 3
LetterboxInBreaks: 0
SpecialStyle: 0
WidescreenStoryboard: 1

[Editor]
Bookmarks: 15747,30516,45285,58208,60054,74824,89597,102520,104369,119134,133900
DistanceSpacing: 0.8
BeatDivisor: 4
GridSize: 4
TimelineZoom: 1.9

[Metadata]
Title:Crankin (Cut Ver.)
TitleUnicode:Crankin (Cut Ver.)
Artist:Barely Alive & Eliminate
ArtistUnicode:Barely Alive & Eliminate
Creator:arccat
Version:NSV
Source:
Tags:Electronic English Instrumental Multiplayer EP Extended Play Dubstep Disciple ♛ ♜ ♞ osu!mania 4K World Cup 2022 Semifinals mwc22 SF SV Cranking Matt Meier Willie Watkins
BeatmapID:3774041
BeatmapSetID:1838002

[Difficulty]
HPDrainRate:7
CircleSize:4
OverallDifficulty:7
ApproachRate:5
SliderMultiplier:1.4
SliderTickRate:1

[Events]
//Background and Video events
0,0,"90377869_p0.jpg",0,0
//Break Periods
//Storyboard Layer 0 (Background)
//Storyboard Layer 1 (Fail)
//Storyboard Layer 2 (Pass)
//Storyboard Layer 3 (Foreground)
//Storyboard Layer 4 (Overlay)
//Storyboard Sound Samples

[TimingPoints]
55,461.538461538462,4,1,0,60,1,0

[HitObjects]
320,192,978,5,0,0:0:0:0:
448,192,978,1,0,0:0:0:0:
192,192,1093,1,0,0:0:0:0:
192,192,1324,1,0,0:0:0:0:
64,192,1439,1,0,0:0:0:0:
320,192,1439,1,0,0:0:0:0:
448,192,1439,1,0,0:0:0:0:
320,192,1670,1,0,0:0:0:0:
448,192,1670,1,0,0:0:0:0:
320,192,1901,1,0,0:0:0:0:
64,192,2016,1,0,0:0:0:0:
192,192,2016,1,0,0:0:0:0:
64,192,2362,1,0,0:0:0:0:
320,192,2362,1,0,0:0:0:0:
448,192,2362,1,0,0:0:0:0:
320,192,2593,1,0,0:0:0:0:
448,192,2593,1,0,0:0:0:0:
64,192,2824,1,0,0:0:0:0:
192,192,2824,1,0,0:0:0:0:
320,192,2939,1,0,0:0:0:0:
320,192,3170,1,0,0:0:0:0:
64,192,3285,1,0,0:0:0:0:
192,192,3285,1,0,0:0:0:0:
448,192,3285,1,0,0:0:0:0:
64,192,3516,1,0,0:0:0:0:
192,192,3516,1,0,0:0:0:0:
192,192,3747,1,0,0:0:0:0:
320,192,3862,1,0,0:0:0:0:
448,192,3862,1,0,0:0:0:0:
192,192,3978,1,0,0:0:0:0:
64,192,4208,1,0,0:0:0:0:
192,192,4208,1,0,0:0:0:0:
448,192,4208,1,0,0:0:0:0:
64,192,4439,1,0,0:0:0:0:
192,192,4439,1,0,0:0:0:0:
320,192,4670,1,0,0:0:0:0:
448,192,4670,1,0,0:0:0:0:
192,192,4785,1,0,0:0:0:0:
192,192,5016,1,0,0:0:0:0:
64,192,5131,1,0,0:0:0:0:
320,192,5131,1,0,0:0:0:0:
448,192,5131,1,0,0:0:0:0:
320,192,5362,1,0,0:0:0:0:
448,192,5362,1,0,0:0:0:0:
320,192,5593,1,0,0:0:0:0:
64,192,5708,1,0,0:0:0:0:
192,192,5708,1,0,0:0:0:0:
64,192,6055,1,0,0:0:0:0:
320,192,6055,1,0,0:0:0:0:
448,192,6055,1,0,0:0:0:0:
320,192,6285,1,0,0:0:0:0:
448,192,6285,1,0,0:0:0:0:
64,192,6516,1,0,0:0:0:0:
192,192,6516,1,0,0:0:0:0:
320,192,6631,1,0,0:0:0:0:
320,192,6862,1,0,0:0:0:0:
64,192,6978,1,0,0:0:0:0:
192,192,6978,1,0,0:0:0:0:
448,192,6978,1,0,0:0:0:0:
64,192,7208,1,0,0:0:0:0:
192,192,7208,1,0,0:0:0:0:
320,192,7439,1,0,0:0:0:0:
320,192,7555,1,0,0:0:0:0:
192,192,7670,1,0,0:0:0:0:
64,192,7901,1,0,0:0:0:0:
192,192,7901,1,0,0:0:0:0:
448,192,7901,1,0,0:0:0:0:
320,192,8016,1,0,0:0:0:0:
192,192,8131,1,0,0:0:0:0:
320,192,8247,1,0,0:0:0:0:
448,192,8247,1,0,0:0:0:0:
64,192,8362,1,0,0:0:0:0:
192,192,8362,1,0,0:0:0:0:
64,192,8478,1,0,0:0:0:0:
192,192,8478,1,0,0:0:0:0:
320,192,8593,1,0,0:0:0:0:
448,192,8593,1,0,0:0:0:0:
64,192,8824,1,0,0:0:0:0:
192,192,8824,1,0,0:0:0:0:
448,192,8824,1,0,0:0:0:0:
64,192,9055,1,0,0:0:0:0:
192,192,9055,1,0,0:0:0:0:
320,192,9285,1,0,0:0:0:0:
64,192,9401,1,0,0:0:0:0:
192,192,9401,1,0,0:0:0:0:
64,192,9747,1,0,0:0:0:0:
320,192,9747,1,0,0:0:0:0:
448,192,9747,1,0,0:0:0:0:
320,192,9978,1,0,0:0:0:0:
448,192,9978,1,0,0:0:0:0:
64,192,10208,1,0,0:0:0:0:
192,192,10208,1,0,0:0:0:0:
320,192,10324,1,0,0:0:0:0:
320,192,10555,1,0,0:0:0:0:
64,192,10670,1,0,0:0:0:0:
192,192,10670,1,0,0:0:0:0:
448,192,10670,1,0,0:0:0:0:
64,192,10901,1,0,0:0:0:0:
192,192,10901,1,0,0:0:0:0:
192,192,11131,1,0,0:0:0:0:
320,192,11247,1,0,0:0:0:0:
448,192,11247,1,0,0:0:0:0:
192,192,11362,1,0,0:0:0:0:
64,192,11593,1,0,0:0:0:0:
320,192,11593,1,0,0:0:0:0:
448,192,11593,1,0,0:0:0:0:
320,192,11824,1,0,0:0:0:0:
448,192,11824,1,0,0:0:0:0:
64,192,12055,1,0,0:0:0:0:
192,192,12055,1,0,0:0:0:0:
64,192,12170,1,0,0:0:0:0:
192,192,12170,1,0,0:0:0:0:
320,192,12285,1,0,0:0:0:0:
448,192,12285,1,0,0:0:0:0:
64,192,12516,1,0,0:0:0:0:
192,192,12516,1,0,0:0:0:0:
448,192,12516,1,0,0:0:0:0:
64,192,12747,1,0,0:0:0:0:
192,192,12747,1,0,0:0:0:0:
320,192,12978,1,0,0:0:0:0:
192,192,13093,1,0,0:0:0:0:
64,192,13208,1,0,0:0:0:0:
448,192,13208,1,0,0:0:0:0:
64,192,13439,1,0,0:0:0:0:
320,192,13439,1,0,0:0:0:0:
448,192,13439,1,0,0:0:0:0:
320,192,13670,1,0,0:0:0:0:
192,192,13670,1,0,0:0:0:0:
448,192,13901,1,0,0:0:0:0:
64,192,13901,1,0,0:0:0:0:
448,192,14016,1,0,0:0:0:0:
64,192,14131,1,0,0:0:0:0:
320,192,14131,1,0,0:0:0:0:
320,192,14247,1,0,0:0:0:0:
448,192,14362,1,0,0:0:0:0:
192,192,14362,1,0,0:0:0:0:
64,192,14362,1,0,0:0:0:0:
320,192,14478,1,0,0:0:0:0:
192,192,14593,1,0,0:0:0:0:
64,192,14708,1,0,0:0:0:0:
448,192,14708,1,0,0:0:0:0:
64,192,14824,1,0,0:0:0:0:
448,192,14824,1,0,0:0:0:0:
192,192,14939,1,0,0:0:0:0:
192,192,15055,1,0,0:0:0:0:
320,192,15055,1,0,0:0:0:0:
320,192,15170,1,0,0:0:0:0:
64,192,15285,1,0,0:0:0:0:
192,192,15285,1,0,0:0:0:0:
448,192,15285,1,0,0:0:0:0:
320,192,15401,1,0,0:0:0:0:
192,192,15516,1,0,0:0:0:0:
448,192,15516,1,0,0:0:0:0:
192,192,15631,1,0,0:0:0:0:
64,192,15747,1,0,0:0:0:0:
320,192,15747,1,0,0:0:0:0:
448,192,15747,1,0,0:0:0:0:
64,192,15862,1,0,0:0:0:0:
320,192,15862,1,0,0:0:0:0:
448,192,15862,1,0,0:0:0:0:
192,192,15978,1,0,0:0:0:0:
320,192,16093,1,0,0:0:0:0:
64,192,16208,1,0,0:0:0:0:
192,192,16208,1,0,0:0:0:0:
448,192,16208,1,0,0:0:0:0:
320,192,16439,1,0,0:0:0:0:
448,192,16439,1,0,0:0:0:0:
64,192,16670,1,0,0:0:0:0:
192,192,16670,1,0,0:0:0:0:
320,192,16785,1,0,0:0:0:0:
64,192,16901,1,0,0:0:0:0:
448,192,16901,1,0,0:0:0:0:
64,192,17131,1,0,0:0:0:0:
320,192,17131,1,0,0:0:0:0:
448,192,17131,1,0,0:0:0:0:
320,192,17362,1,0,0:0:0:0:
448,192,17362,1,0,0:0:0:0:
64,192,17593,1,0,0:0:0:0:
320,192,17593,1,0,0:0:0:0:
448,192,17708,1,0,0:0:0:0:
64,192,17824,1,0,0:0:0:0:
192,192,17824,1,0,0:0:0:0:
320,192,17939,1,0,0:0:0:0:
64,192,18055,1,0,0:0:0:0:
192,192,18055,1,0,0:0:0:0:
448,192,18055,1,0,0:0:0:0:
320,192,18285,1,0,0:0:0:0:
448,192,18285,1,0,0:0:0:0:
448,192,18516,128,0,18631:0:0:0:0:
192,192,18631,128,0,18747:0:0:0:0:
320,192,18747,128,0,18862:0:0:0:0:
64,192,18862,128,0,18978:0:0:0:0:
320,192,18978,128,0,19093:0:0:0:0:
192,192,19093,128,0,19208:0:0:0:0:
448,192,19208,1,0,0:0:0:0:
192,192,19324,128,0,19439:0:0:0:0:
64,192,19439,1,0,0:0:0:0:
320,192,19439,1,0,0:0:0:0:
448,192,19439,1,0,0:0:0:0:
64,192,19555,1,0,0:0:0:0:
320,192,19555,1,0,0:0:0:0:
448,192,19555,1,0,0:0:0:0:
192,192,19670,1,0,0:0:0:0:
320,192,19785,1,0,0:0:0:0:
64,192,19901,1,0,0:0:0:0:
448,192,19901,1,0,0:0:0:0:
192,192,19901,1,0,0:0:0:0:
320,192,20131,1,0,0:0:0:0:
448,192,20131,1,0,0:0:0:0:
320,192,20362,1,0,0:0:0:0:
64,192,20478,1,0,0:0:0:0:
192,192,20478,1,0,0:0:0:0:
320,192,20593,1,0,0:0:0:0:
448,192,20593,1,0,0:0:0:0:
64,192,20824,1,0,0:0:0:0:
320,192,20824,1,0,0:0:0:0:
448,192,20824,1,0,0:0:0:0:
192,192,21055,1,0,0:0:0:0:
448,192,21055,1,0,0:0:0:0:
64,192,21285,1,0,0:0:0:0:
320,192,21285,1,0,0:0:0:0:
192,192,21516,1,0,0:0:0:0:
448,192,21516,1,0,0:0:0:0:
320,192,21631,1,0,0:0:0:0:
64,192,21747,1,0,0:0:0:0:
192,192,21747,1,0,0:0:0:0:
448,192,21747,1,0,0:0:0:0:
192,192,21978,1,0,0:0:0:0:
320,192,22093,1,0,0:0:0:0:
448,192,22093,1,0,0:0:0:0:
64,192,22208,1,0,0:0:0:0:
192,192,22208,1,0,0:0:0:0:
448,192,22324,1,0,0:0:0:0:
64,192,22439,1,0,0:0:0:0:
320,192,22439,1,0,0:0:0:0:
64,192,22670,128,0,22901:0:0:0:0:
192,192,22670,128,0,22901:0:0:0:0:
448,192,22670,128,0,22901:0:0:0:0:
64,192,23131,1,0,0:0:0:0:
320,192,23131,1,0,0:0:0:0:
448,192,23131,1,0,0:0:0:0:
64,192,23247,1,0,0:0:0:0:
320,192,23247,1,0,0:0:0:0:
448,192,23247,1,0,0:0:0:0:
192,192,23362,1,0,0:0:0:0:
320,192,23478,1,0,0:0:0:0:
64,192,23593,1,0,0:0:0:0:
448,192,23593,1,0,0:0:0:0:
192,192,23593,1,0,0:0:0:0:
320,192,23824,1,0,0:0:0:0:
448,192,23824,1,0,0:0:0:0:
192,192,24055,1,0,0:0:0:0:
320,192,24170,1,0,0:0:0:0:
448,192,24170,1,0,0:0:0:0:
64,192,24285,1,0,0:0:0:0:
192,192,24285,1,0,0:0:0:0:
320,192,24401,1,0,0:0:0:0:
64,192,24516,1,0,0:0:0:0:
192,192,24516,1,0,0:0:0:0:
448,192,24516,1,0,0:0:0:0:
320,192,24747,1,0,0:0:0:0:
448,192,24747,1,0,0:0:0:0:
64,192,24978,1,0,0:0:0:0:
320,192,24978,1,0,0:0:0:0:
448,192,24978,1,0,0:0:0:0:
64,192,25208,1,0,0:0:0:0:
320,192,25208,1,0,0:0:0:0:
192,192,25324,1,0,0:0:0:0:
64,192,25439,1,0,0:0:0:0:
320,192,25439,1,0,0:0:0:0:
448,192,25439,1,0,0:0:0:0:
192,192,25670,1,0,0:0:0:0:
448,192,25670,1,0,0:0:0:0:
64,192,25901,128,0,26016:0:0:0:0:
320,192,26016,128,0,26131:0:0:0:0:
192,192,26131,128,0,26247:0:0:0:0:
448,192,26247,128,0,26362:0:0:0:0:
320,192,26362,128,0,26478:0:0:0:0:
192,192,26478,128,0,26593:0:0:0:0:
448,192,26593,1,0,0:0:0:0:
192,192,26708,128,0,26824:0:0:0:0:
64,192,26824,1,0,0:0:0:0:
320,192,26824,1,0,0:0:0:0:
448,192,26824,1,0,0:0:0:0:
64,192,26939,1,0,0:0:0:0:
320,192,26939,1,0,0:0:0:0:
448,192,26939,1,0,0:0:0:0:
192,192,27055,1,0,0:0:0:0:
320,192,27170,1,0,0:0:0:0:
64,192,27285,1,0,0:0:0:0:
192,192,27285,1,0,0:0:0:0:
448,192,27285,1,0,0:0:0:0:
64,192,27516,1,0,0:0:0:0:
192,192,27516,1,0,0:0:0:0:
64,192,27747,1,0,0:0:0:0:
320,192,27747,1,0,0:0:0:0:
448,192,27747,1,0,0:0:0:0:
192,192,27862,1,0,0:0:0:0:
320,192,27978,1,0,0:0:0:0:
448,192,27978,1,0,0:0:0:0:
192,192,28208,1,0,0:0:0:0:
320,192,28208,1,0,0:0:0:0:
448,192,28208,1,0,0:0:0:0:
192,192,28439,1,0,0:0:0:0:
448,192,28439,1,0,0:0:0:0:
320,192,28670,1,0,0:0:0:0:
192,192,28901,1,0,0:0:0:0:
448,192,29131,1,0,0:0:0:0:
320,192,29362,1,0,0:0:0:0:
64,192,29593,1,0,0:0:0:0:
192,192,29824,1,0,0:0:0:0:
320,192,30055,1,0,0:0:0:0:
448,192,30285,1,0,0:0:0:0:
192,192,30516,1,0,0:0:0:0:
64,192,30516,1,0,0:0:0:0:
448,192,30631,1,0,0:0:0:0:
64,192,30747,1,0,0:0:0:0:
320,192,30862,1,0,0:0:0:0:
64,192,30978,1,0,0:0:0:0:
448,192,31093,1,0,0:0:0:0:
64,192,31208,1,0,0:0:0:0:
320,192,31324,1,0,0:0:0:0:
192,192,31439,1,0,0:0:0:0:
448,192,31555,1,0,0:0:0:0:
192,192,31670,1,0,0:0:0:0:
320,192,31785,1,0,0:0:0:0:
192,192,31901,1,0,0:0:0:0:
448,192,32016,1,0,0:0:0:0:
192,192,32131,1,0,0:0:0:0:
448,192,32247,1,0,0:0:0:0:
320,192,32362,1,0,0:0:0:0:
64,192,32478,1,0,0:0:0:0:
320,192,32593,1,0,0:0:0:0:
192,192,32708,1,0,0:0:0:0:
320,192,32824,1,0,0:0:0:0:
64,192,32939,1,0,0:0:0:0:
320,192,33055,1,0,0:0:0:0:
192,192,33170,1,0,0:0:0:0:
448,192,33285,1,0,0:0:0:0:
64,192,33401,1,0,0:0:0:0:
448,192,33516,1,0,0:0:0:0:
192,192,33631,1,0,0:0:0:0:
448,192,33747,1,0,0:0:0:0:
64,192,33862,1,0,0:0:0:0:
448,192,33978,1,0,0:0:0:0:
192,192,34093,1,0,0:0:0:0:
320,192,34208,1,0,0:0:0:0:
448,192,34208,1,0,0:0:0:0:
64,192,34324,1,0,0:0:0:0:
320,192,34439,1,0,0:0:0:0:
192,192,34555,1,0,0:0:0:0:
64,192,34670,1,0,0:0:0:0:
448,192,34785,1,0,0:0:0:0:
64,192,34901,1,0,0:0:0:0:
320,192,35016,1,0,0:0:0:0:
192,192,35131,1,0,0:0:0:0:
448,192,35247,1,0,0:0:0:0:
192,192,35362,1,0,0:0:0:0:
320,192,35478,1,0,0:0:0:0:
64,192,35593,1,0,0:0:0:0:
192,192,35708,1,0,0:0:0:0:
64,192,35824,1,0,0:0:0:0:
320,192,35939,1,0,0:0:0:0:
192,192,36055,1,0,0:0:0:0:
448,192,36170,1,0,0:0:0:0:
192,192,36285,1,0,0:0:0:0:
320,192,36401,1,0,0:0:0:0:
448,192,36516,1,0,0:0:0:0:
64,192,36631,1,0,0:0:0:0:
448,192,36747,1,0,0:0:0:0:
192,192,36862,1,0,0:0:0:0:
320,192,36978,1,0,0:0:0:0:
64,192,37093,1,0,0:0:0:0:
320,192,37208,1,0,0:0:0:0:
192,192,37324,1,0,0:0:0:0:
448,192,37439,1,0,0:0:0:0:
320,192,37555,1,0,0:0:0:0:
448,192,37670,1,0,0:0:0:0:
192,192,37785,1,0,0:0:0:0:
64,192,37901,1,0,0:0:0:0:
448,192,37901,1,0,0:0:0:0:
320,192,38016,1,0,0:0:0:0:
64,192,38131,1,0,0:0:0:0:
448,192,38247,1,0,0:0:0:0:
192,192,38362,1,0,0:0:0:0:
320,192,38478,1,0,0:0:0:0:
192,192,38593,1,0,0:0:0:0:
64,192,38708,1,0,0:0:0:0:
448,192,38824,1,0,0:0:0:0:
320,192,38939,1,0,0:0:0:0:
448,192,39055,1,0,0:0:0:0:
192,192,39170,1,0,0:0:0:0:
320,192,39285,1,0,0:0:0:0:
64,192,39401,1,0,0:0:0:0:
320,192,39516,1,0,0:0:0:0:
192,192,39631,1,0,0:0:0:0:
448,192,39747,1,0,0:0:0:0:
192,192,39862,1,0,0:0:0:0:
448,192,39978,1,0,0:0:0:0:
64,192,40093,1,0,0:0:0:0:
320,192,40208,1,0,0:0:0:0:
192,192,40324,1,0,0:0:0:0:
320,192,40439,1,0,0:0:0:0:
448,192,40555,1,0,0:0:0:0:
64,192,40670,1,0,0:0:0:0:
192,192,40785,1,0,0:0:0:0:
64,192,40901,1,0,0:0:0:0:
320,192,41016,1,0,0:0:0:0:
192,192,41131,1,0,0:0:0:0:
448,192,41247,1,0,0:0:0:0:
192,192,41362,1,0,0:0:0:0:
320,192,41478,1,0,0:0:0:0:
64,192,41593,1,0,0:0:0:0:
192,192,41593,1,0,0:0:0:0:
448,192,41708,1,0,0:0:0:0:
64,192,41824,1,0,0:0:0:0:
320,192,41939,1,0,0:0:0:0:
448,192,42055,1,0,0:0:0:0:
192,192,42170,1,0,0:0:0:0:
448,192,42285,1,0,0:0:0:0:
320,192,42401,1,0,0:0:0:0:
192,192,42516,1,0,0:0:0:0:
64,192,42631,1,0,0:0:0:0:
192,192,42747,1,0,0:0:0:0:
448,192,42862,1,0,0:0:0:0:
320,192,42978,1,0,0:0:0:0:
192,192,43093,1,0,0:0:0:0:
320,192,43208,1,0,0:0:0:0:
64,192,43324,1,0,0:0:0:0:
448,192,43439,1,0,0:0:0:0:
64,192,43555,1,0,0:0:0:0:
448,192,43670,1,0,0:0:0:0:
192,192,43785,1,0,0:0:0:0:
320,192,43901,1,0,0:0:0:0:
448,192,43901,1,0,0:0:0:0:
64,192,44131,1,0,0:0:0:0:
320,192,44131,1,0,0:0:0:0:
64,192,44362,1,0,0:0:0:0:
192,192,44362,1,0,0:0:0:0:
192,192,44593,1,0,0:0:0:0:
448,192,44593,1,0,0:0:0:0:
320,192,44824,1,0,0:0:0:0:
448,192,44824,1,0,0:0:0:0:
64,192,45055,1,0,0:0:0:0:
320,192,45055,1,0,0:0:0:0:
64,192,45285,1,0,0:0:0:0:
192,192,45285,1,0,0:0:0:0:
448,192,45285,1,0,0:0:0:0:
448,192,45516,1,0,0:0:0:0:
64,192,45747,1,0,0:0:0:0:
320,192,45747,1,0,0:0:0:0:
64,192,45978,1,0,0:0:0:0:
192,192,46208,1,0,0:0:0:0:
320,192,46208,1,0,0:0:0:0:
320,192,46439,1,0,0:0:0:0:
192,192,46670,1,0,0:0:0:0:
448,192,46670,1,0,0:0:0:0:
192,192,46901,1,0,0:0:0:0:
320,192,47131,1,0,0:0:0:0:
448,192,47131,1,0,0:0:0:0:
448,192,47362,1,0,0:0:0:0:
64,192,47593,1,0,0:0:0:0:
192,192,47593,1,0,0:0:0:0:
64,192,47824,1,0,0:0:0:0:
448,192,48055,1,0,0:0:0:0:
320,192,48055,1,0,0:0:0:0:
320,192,48285,1,0,0:0:0:0:
192,192,48516,1,0,0:0:0:0:
448,192,48516,1,0,0:0:0:0:
192,192,48747,1,0,0:0:0:0:
192,192,48862,1,0,0:0:0:0:
64,192,48978,1,0,0:0:0:0:
320,192,48978,1,0,0:0:0:0:
448,192,48978,1,0,0:0:0:0:
64,192,49208,1,0,0:0:0:0:
320,192,49439,1,0,0:0:0:0:
448,192,49439,1,0,0:0:0:0:
320,192,49670,1,0,0:0:0:0:
192,192,49901,1,0,0:0:0:0:
448,192,49901,1,0,0:0:0:0:
192,192,50131,1,0,0:0:0:0:
64,192,50362,1,0,0:0:0:0:
448,192,50362,1,0,0:0:0:0:
448,192,50593,1,0,0:0:0:0:
64,192,50824,1,0,0:0:0:0:
320,192,50824,1,0,0:0:0:0:
64,192,51055,1,0,0:0:0:0:
192,192,51285,1,0,0:0:0:0:
448,192,51285,1,0,0:0:0:0:
448,192,51516,1,0,0:0:0:0:
192,192,51747,1,0,0:0:0:0:
320,192,51747,1,0,0:0:0:0:
192,192,51978,1,0,0:0:0:0:
64,192,52208,1,0,0:0:0:0:
320,192,52208,1,0,0:0:0:0:
320,192,52439,1,0,0:0:0:0:
192,192,52516,1,0,0:0:0:0:
64,192,52593,1,0,0:0:0:0:
320,192,52670,1,0,0:0:0:0:
320,192,52785,1,0,0:0:0:0:
64,192,52901,1,0,0:0:0:0:
64,192,53016,1,0,0:0:0:0:
320,192,53131,1,0,0:0:0:0:
320,192,53247,1,0,0:0:0:0:
192,192,53362,1,0,0:0:0:0:
192,192,53478,1,0,0:0:0:0:
448,192,53593,1,0,0:0:0:0:
448,192,53708,1,0,0:0:0:0:
64,192,53824,1,0,0:0:0:0:
64,192,53939,1,0,0:0:0:0:
320,192,54055,1,0,0:0:0:0:
320,192,54170,1,0,0:0:0:0:
192,192,54285,1,0,0:0:0:0:
192,192,54401,1,0,0:0:0:0:
448,192,54516,1,0,0:0:0:0:
448,192,54631,1,0,0:0:0:0:
64,192,54747,1,0,0:0:0:0:
64,192,54862,1,0,0:0:0:0:
320,192,54978,1,0,0:0:0:0:
320,192,55093,1,0,0:0:0:0:
192,192,55208,1,0,0:0:0:0:
192,192,55324,1,0,0:0:0:0:
448,192,55439,1,0,0:0:0:0:
448,192,55555,1,0,0:0:0:0:
192,192,55670,1,0,0:0:0:0:
192,192,55785,1,0,0:0:0:0:
320,192,55901,1,0,0:0:0:0:
320,192,56016,1,0,0:0:0:0:
64,192,56131,1,0,0:0:0:0:
64,192,56247,1,0,0:0:0:0:
320,192,56362,1,0,0:0:0:0:
448,192,56362,1,0,0:0:0:0:
448,192,56478,1,0,0:0:0:0:
64,192,56593,1,0,0:0:0:0:
192,192,56593,1,0,0:0:0:0:
192,192,56708,1,0,0:0:0:0:
320,192,56824,1,0,0:0:0:0:
448,192,56824,1,0,0:0:0:0:
320,192,56939,1,0,0:0:0:0:
64,192,57055,1,0,0:0:0:0:
192,192,57055,1,0,0:0:0:0:
64,192,57170,1,0,0:0:0:0:
320,192,57285,1,0,0:0:0:0:
448,192,57285,1,0,0:0:0:0:
320,192,57401,1,0,0:0:0:0:
64,192,57516,1,0,0:0:0:0:
192,192,57516,1,0,0:0:0:0:
192,192,57631,1,0,0:0:0:0:
320,192,57747,1,0,0:0:0:0:
448,192,57747,1,0,0:0:0:0:
448,192,57862,1,0,0:0:0:0:
64,192,57978,1,0,0:0:0:0:
192,192,57978,1,0,0:0:0:0:
192,192,58093,1,0,0:0:0:0:
320,192,58208,1,0,0:0:0:0:
448,192,58439,1,0,0:0:0:0:
192,192,58670,1,0,0:0:0:0:
320,192,58901,1,0,0:0:0:0:
64,192,59131,1,0,0:0:0:0:
192,192,59362,1,0,0:0:0:0:
320,192,59593,1,0,0:0:0:0:
64,192,59824,1,0,0:0:0:0:
320,192,60055,128,0,60285:0:0:0:0:
448,192,60055,128,0,60516:0:0:0:0:
64,192,60516,128,0,60978:0:0:0:0:
320,192,60516,128,0,60747:0:0:0:0:
192,192,60978,128,0,61439:0:0:0:0:
320,192,60978,128,0,61208:0:0:0:0:
64,192,61439,128,0,61593:0:0:0:0:
448,192,61439,128,0,61593:0:0:0:0:
320,192,61593,128,0,61901:0:0:0:0:
192,192,61901,128,0,62131:0:0:0:0:
448,192,61901,128,0,62362:0:0:0:0:
192,192,62362,128,0,62593:0:0:0:0:
320,192,62362,128,0,62824:0:0:0:0:
64,192,62824,128,0,63285:0:0:0:0:
192,192,62824,128,0,63055:0:0:0:0:
448,192,63285,1,0,0:0:0:0:
320,192,63362,1,0,0:0:0:0:
192,192,63439,1,0,0:0:0:0:
320,192,63516,1,0,0:0:0:0:
192,192,63593,1,0,0:0:0:0:
64,192,63670,1,0,0:0:0:0:
320,192,63747,128,0,63978:0:0:0:0:
448,192,63747,128,0,64208:0:0:0:0:
64,192,64208,128,0,64670:0:0:0:0:
320,192,64208,128,0,64439:0:0:0:0:
192,192,64670,128,0,65131:0:0:0:0:
320,192,64670,128,0,64901:0:0:0:0:
320,192,65131,128,0,65285:0:0:0:0:
448,192,65131,128,0,65285:0:0:0:0:
64,192,65285,128,0,65593:0:0:0:0:
192,192,65593,128,0,65824:0:0:0:0:
448,192,65593,128,0,66055:0:0:0:0:
64,192,66055,128,0,66516:0:0:0:0:
192,192,66055,128,0,66285:0:0:0:0:
320,192,66516,1,0,0:0:0:0:
448,192,66516,1,0,0:0:0:0:
192,192,66593,1,0,0:0:0:0:
448,192,66670,1,0,0:0:0:0:
64,192,66747,1,0,0:0:0:0:
192,192,66747,1,0,0:0:0:0:
320,192,66824,1,0,0:0:0:0:
192,192,66901,1,0,0:0:0:0:
64,192,66978,128,0,67439:0:0:0:0:
448,192,66978,128,0,67208:0:0:0:0:
192,192,67208,128,0,67439:0:0:0:0:
320,192,67439,128,0,67670:0:0:0:0:
448,192,67439,128,0,67901:0:0:0:0:
192,192,67670,128,0,67901:0:0:0:0:
64,192,67901,128,0,68131:0:0:0:0:
320,192,67901,128,0,68362:0:0:0:0:
64,192,68362,128,0,68593:0:0:0:0:
448,192,68362,128,0,68824:0:0:0:0:
64,192,68824,128,0,68978:0:0:0:0:
320,192,68824,128,0,68978:0:0:0:0:
192,192,68978,128,0,69285:0:0:0:0:
64,192,69285,128,0,69747:0:0:0:0:
448,192,69285,128,0,69516:0:0:0:0:
192,192,69747,128,0,70208:0:0:0:0:
448,192,69747,128,0,69978:0:0:0:0:
320,192,70208,128,0,70670:0:0:0:0:
448,192,70208,128,0,70439:0:0:0:0:
64,192,70670,1,0,0:0:0:0:
192,192,70747,1,0,0:0:0:0:
320,192,70824,1,0,0:0:0:0:
192,192,70901,1,0,0:0:0:0:
320,192,70978,1,0,0:0:0:0:
448,192,71055,1,0,0:0:0:0:
64,192,71131,128,0,72055:0:0:0:0:
192,192,71131,128,0,71593:0:0:0:0:
448,192,71593,128,0,72055:0:0:0:0:
192,192,72055,1,0,0:0:0:0:
320,192,72055,1,0,0:0:0:0:
64,192,72131,1,0,0:0:0:0:
320,192,72208,1,0,0:0:0:0:
192,192,72285,1,0,0:0:0:0:
448,192,72362,1,0,0:0:0:0:
64,192,72439,1,0,0:0:0:0:
192,192,72516,1,0,0:0:0:0:
320,192,72593,1,0,0:0:0:0:
64,192,72670,1,0,0:0:0:0:
448,192,72747,1,0,0:0:0:0:
320,192,72824,1,0,0:0:0:0:
192,192,72901,1,0,0:0:0:0:
320,192,72978,1,0,0:0:0:0:
448,192,72978,1,0,0:0:0:0:
64,192,73055,1,0,0:0:0:0:
192,192,73131,1,0,0:0:0:0:
320,192,73208,1,0,0:0:0:0:
64,192,73285,1,0,0:0:0:0:
320,192,73362,1,0,0:0:0:0:
448,192,73439,1,0,0:0:0:0:
192,192,73516,1,0,0:0:0:0:
64,192,73593,1,0,0:0:0:0:
320,192,73670,1,0,0:0:0:0:
192,192,73747,1,0,0:0:0:0:
64,192,73824,1,0,0:0:0:0:
320,192,73901,1,0,0:0:0:0:
448,192,73901,1,0,0:0:0:0:
192,192,73978,1,0,0:0:0:0:
448,192,74055,1,0,0:0:0:0:
320,192,74131,1,0,0:0:0:0:
64,192,74208,1,0,0:0:0:0:
192,192,74285,1,0,0:0:0:0:
320,192,74362,1,0,0:0:0:0:
448,192,74439,1,0,0:0:0:0:
192,192,74516,1,0,0:0:0:0:
64,192,74593,1,0,0:0:0:0:
320,192,74670,1,0,0:0:0:0:
192,192,74747,1,0,0:0:0:0:
64,192,74824,5,0,0:0:0:0:
448,192,74824,1,0,0:0:0:0:
64,192,75055,1,0,0:0:0:0:
448,192,75055,1,0,0:0:0:0:
320,192,75285,1,0,0:0:0:0:
320,192,75439,1,0,0:0:0:0:
320,192,75593,1,0,0:0:0:0:
64,192,75747,1,0,0:0:0:0:
192,192,75747,1,0,0:0:0:0:
448,192,75747,1,0,0:0:0:0:
448,192,75978,1,0,0:0:0:0:
64,192,76208,1,0,0:0:0:0:
320,192,76208,1,0,0:0:0:0:
192,192,76439,1,0,0:0:0:0:
320,192,76670,1,0,0:0:0:0:
448,192,76670,1,0,0:0:0:0:
320,192,76901,1,0,0:0:0:0:
448,192,76901,1,0,0:0:0:0:
192,192,77131,1,0,0:0:0:0:
192,192,77285,1,0,0:0:0:0:
192,192,77439,1,0,0:0:0:0:
64,192,77593,1,0,0:0:0:0:
320,192,77593,1,0,0:0:0:0:
448,192,77593,1,0,0:0:0:0:
448,192,77824,1,0,0:0:0:0:
64,192,78055,1,0,0:0:0:0:
192,192,78131,1,0,0:0:0:0:
320,192,78208,1,0,0:0:0:0:
192,192,78285,1,0,0:0:0:0:
320,192,78362,1,0,0:0:0:0:
448,192,78439,1,0,0:0:0:0:
64,192,78516,1,0,0:0:0:0:
192,192,78516,1,0,0:0:0:0:
64,192,78747,1,0,0:0:0:0:
192,192,78747,1,0,0:0:0:0:
448,192,78978,1,0,0:0:0:0:
448,192,79131,1,0,0:0:0:0:
448,192,79285,1,0,0:0:0:0:
64,192,79439,1,0,0:0:0:0:
192,192,79439,1,0,0:0:0:0:
320,192,79439,1,0,0:0:0:0:
192,192,79670,1,0,0:0:0:0:
64,192,79901,1,0,0:0:0:0:
448,192,79901,1,0,0:0:0:0:
320,192,80131,1,0,0:0:0:0:
192,192,80362,1,0,0:0:0:0:
448,192,80362,1,0,0:0:0:0:
192,192,80593,1,0,0:0:0:0:
448,192,80593,1,0,0:0:0:0:
320,192,80824,1,0,0:0:0:0:
320,192,80978,1,0,0:0:0:0:
320,192,81131,1,0,0:0:0:0:
64,192,81285,1,0,0:0:0:0:
192,192,81285,1,0,0:0:0:0:
320,192,81362,1,0,0:0:0:0:
192,192,81439,1,0,0:0:0:0:
320,192,81516,1,0,0:0:0:0:
192,192,81593,1,0,0:0:0:0:
320,192,81670,1,0,0:0:0:0:
64,192,81747,128,0,81978:0:0:0:0:
448,192,81747,128,0,82208:0:0:0:0:
192,192,81978,128,0,82208:0:0:0:0:
320,192,82208,1,0,0:0:0:0:
320,192,82362,1,0,0:0:0:0:
320,192,82516,1,0,0:0:0:0:
192,192,82670,1,0,0:0:0:0:
192,192,82824,1,0,0:0:0:0:
192,192,82978,1,0,0:0:0:0:
64,192,83131,1,0,0:0:0:0:
320,192,83131,1,0,0:0:0:0:
448,192,83131,1,0,0:0:0:0:
64,192,83362,1,0,0:0:0:0:
192,192,83593,1,0,0:0:0:0:
448,192,83593,1,0,0:0:0:0:
320,192,83824,1,0,0:0:0:0:
64,192,84055,1,0,0:0:0:0:
448,192,84055,1,0,0:0:0:0:
64,192,84285,1,0,0:0:0:0:
448,192,84285,1,0,0:0:0:0:
320,192,84516,1,0,0:0:0:0:
320,192,84670,1,0,0:0:0:0:
320,192,84824,1,0,0:0:0:0:
64,192,84978,1,0,0:0:0:0:
192,192,84978,1,0,0:0:0:0:
448,192,84978,1,0,0:0:0:0:
192,192,85208,1,0,0:0:0:0:
448,192,85439,1,0,0:0:0:0:
320,192,85516,1,0,0:0:0:0:
192,192,85593,1,0,0:0:0:0:
320,192,85670,1,0,0:0:0:0:
192,192,85747,1,0,0:0:0:0:
64,192,85824,1,0,0:0:0:0:
320,192,85901,128,0,86362:0:0:0:0:
448,192,85901,128,0,86824:0:0:0:0:
64,192,86362,128,0,86824:0:0:0:0:
192,192,86824,1,0,0:0:0:0:
320,192,86824,1,0,0:0:0:0:
448,192,86901,1,0,0:0:0:0:
64,192,86978,1,0,0:0:0:0:
192,192,87055,1,0,0:0:0:0:
320,192,87131,1,0,0:0:0:0:
64,192,87208,1,0,0:0:0:0:
448,192,87285,1,0,0:0:0:0:
192,192,87362,1,0,0:0:0:0:
320,192,87439,1,0,0:0:0:0:
448,192,87516,1,0,0:0:0:0:
192,192,87593,1,0,0:0:0:0:
64,192,87670,1,0,0:0:0:0:
320,192,87747,1,0,0:0:0:0:
448,192,87747,1,0,0:0:0:0:
192,192,87824,1,0,0:0:0:0:
64,192,87901,1,0,0:0:0:0:
320,192,87978,1,0,0:0:0:0:
448,192,88055,1,0,0:0:0:0:
192,192,88131,1,0,0:0:0:0:
320,192,88208,1,0,0:0:0:0:
448,192,88285,1,0,0:0:0:0:
192,192,88362,1,0,0:0:0:0:
64,192,88439,1,0,0:0:0:0:
320,192,88516,1,0,0:0:0:0:
448,192,88593,1,0,0:0:0:0:
64,192,88670,1,0,0:0:0:0:
192,192,88670,1,0,0:0:0:0:
320,192,88747,1,0,0:0:0:0:
64,192,88824,1,0,0:0:0:0:
320,192,88901,1,0,0:0:0:0:
192,192,88978,1,0,0:0:0:0:
448,192,89055,1,0,0:0:0:0:
64,192,89131,1,0,0:0:0:0:
320,192,89208,1,0,0:0:0:0:
192,192,89285,1,0,0:0:0:0:
448,192,89362,1,0,0:0:0:0:
192,192,89439,1,0,0:0:0:0:
320,192,89516,1,0,0:0:0:0:
64,192,89593,1,0,0:0:0:0:
192,192,89593,1,0,0:0:0:0:
448,192,89593,1,0,0:0:0:0:
448,192,89824,1,0,0:0:0:0:
320,192,90055,1,0,0:0:0:0:
64,192,90055,1,0,0:0:0:0:
64,192,90285,1,0,0:0:0:0:
192,192,90516,1,0,0:0:0:0:
320,192,90516,1,0,0:0:0:0:
320,192,90747,1,0,0:0:0:0:
192,192,90978,1,0,0:0:0:0:
448,192,90978,1,0,0:0:0:0:
192,192,91208,1,0,0:0:0:0:
320,192,91439,1,0,0:0:0:0:
448,192,91439,1,0,0:0:0:0:
448,192,91670,1,0,0:0:0:0:
192,192,91901,1,0,0:0:0:0:
64,192,91901,1,0,0:0:0:0:
64,192,92131,1,0,0:0:0:0:
448,192,92362,1,0,0:0:0:0:
320,192,92362,1,0,0:0:0:0:
320,192,92593,1,0,0:0:0:0:
192,192,92824,1,0,0:0:0:0:
448,192,92824,1,0,0:0:0:0:
192,192,93055,1,0,0:0:0:0:
192,192,93170,1,0,0:0:0:0:
64,192,93285,1,0,0:0:0:0:
320,192,93285,1,0,0:0:0:0:
448,192,93285,1,0,0:0:0:0:
64,192,93516,1,0,0:0:0:0:
320,192,93747,1,0,0:0:0:0:
448,192,93747,1,0,0:0:0:0:
320,192,93978,1,0,0:0:0:0:
192,192,94208,1,0,0:0:0:0:
448,192,94208,1,0,0:0:0:0:
192,192,94439,1,0,0:0:0:0:
64,192,94670,1,0,0:0:0:0:
448,192,94670,1,0,0:0:0:0:
448,192,94901,1,0,0:0:0:0:
64,192,95131,1,0,0:0:0:0:
320,192,95131,1,0,0:0:0:0:
64,192,95362,1,0,0:0:0:0:
192,192,95593,1,0,0:0:0:0:
448,192,95593,1,0,0:0:0:0:
448,192,95824,1,0,0:0:0:0:
192,192,96055,1,0,0:0:0:0:
320,192,96055,1,0,0:0:0:0:
192,192,96285,1,0,0:0:0:0:
64,192,96516,1,0,0:0:0:0:
320,192,96516,1,0,0:0:0:0:
320,192,96747,1,0,0:0:0:0:
192,192,96824,1,0,0:0:0:0:
64,192,96901,1,0,0:0:0:0:
320,192,96978,1,0,0:0:0:0:
320,192,97093,1,0,0:0:0:0:
64,192,97208,1,0,0:0:0:0:
64,192,97324,1,0,0:0:0:0:
320,192,97439,1,0,0:0:0:0:
320,192,97555,1,0,0:0:0:0:
192,192,97670,1,0,0:0:0:0:
192,192,97785,1,0,0:0:0:0:
448,192,97901,1,0,0:0:0:0:
448,192,98016,1,0,0:0:0:0:
64,192,98131,1,0,0:0:0:0:
64,192,98247,1,0,0:0:0:0:
320,192,98362,1,0,0:0:0:0:
320,192,98478,1,0,0:0:0:0:
192,192,98593,1,0,0:0:0:0:
192,192,98708,1,0,0:0:0:0:
448,192,98824,1,0,0:0:0:0:
448,192,98939,1,0,0:0:0:0:
64,192,99055,1,0,0:0:0:0:
64,192,99170,1,0,0:0:0:0:
320,192,99285,1,0,0:0:0:0:
320,192,99401,1,0,0:0:0:0:
192,192,99516,1,0,0:0:0:0:
192,192,99631,1,0,0:0:0:0:
448,192,99747,1,0,0:0:0:0:
448,192,99862,1,0,0:0:0:0:
192,192,99978,1,0,0:0:0:0:
192,192,100093,1,0,0:0:0:0:
320,192,100208,1,0,0:0:0:0:
320,192,100324,1,0,0:0:0:0:
64,192,100439,1,0,0:0:0:0:
64,192,100555,1,0,0:0:0:0:
320,192,100670,1,0,0:0:0:0:
448,192,100670,1,0,0:0:0:0:
448,192,100785,1,0,0:0:0:0:
64,192,100901,1,0,0:0:0:0:
192,192,100901,1,0,0:0:0:0:
192,192,101016,1,0,0:0:0:0:
320,192,101131,1,0,0:0:0:0:
448,192,101131,1,0,0:0:0:0:
320,192,101247,1,0,0:0:0:0:
64,192,101362,1,0,0:0:0:0:
192,192,101362,1,0,0:0:0:0:
64,192,101478,1,0,0:0:0:0:
320,192,101593,1,0,0:0:0:0:
448,192,101593,1,0,0:0:0:0:
320,192,101708,1,0,0:0:0:0:
64,192,101824,1,0,0:0:0:0:
192,192,101824,1,0,0:0:0:0:
192,192,101939,1,0,0:0:0:0:
320,192,102055,1,0,0:0:0:0:
448,192,102055,1,0,0:0:0:0:
448,192,102170,1,0,0:0:0:0:
64,192,102285,1,0,0:0:0:0:
192,192,102285,1,0,0:0:0:0:
192,192,102401,1,0,0:0:0:0:
320,192,102516,1,0,0:0:0:0:
448,192,102747,1,0,0:0:0:0:
192,192,102978,1,0,0:0:0:0:
320,192,103208,1,0,0:0:0:0:
64,192,103439,1,0,0:0:0:0:
192,192,103670,1,0,0:0:0:0:
320,192,103901,1,0,0:0:0:0:
64,192,103901,1,0,0:0:0:0:
448,192,103901,1,0,0:0:0:0:
192,192,103901,1,0,0:0:0:0:
64,192,104362,128,0,104824:0:0:0:0:
192,192,104362,128,0,104593:0:0:0:0:
448,192,104362,128,0,104824:0:0:0:0:
320,192,105285,1,0,0:0:0:0:
448,192,105285,1,0,0:0:0:0:
192,192,105401,1,0,0:0:0:0:
64,192,105516,1,0,0:0:0:0:
320,192,105631,1,0,0:0:0:0:
192,192,105747,1,0,0:0:0:0:
448,192,105862,1,0,0:0:0:0:
192,192,105978,1,0,0:0:0:0:
320,192,106093,1,0,0:0:0:0:
64,192,106208,1,0,0:0:0:0:
448,192,106324,1,0,0:0:0:0:
192,192,106439,1,0,0:0:0:0:
320,192,106555,1,0,0:0:0:0:
64,192,106670,1,0,0:0:0:0:
448,192,106670,1,0,0:0:0:0:
192,192,106785,1,0,0:0:0:0:
320,192,106901,1,0,0:0:0:0:
64,192,107016,1,0,0:0:0:0:
192,192,107131,1,0,0:0:0:0:
448,192,107131,1,0,0:0:0:0:
320,192,107247,1,0,0:0:0:0:
64,192,107362,1,0,0:0:0:0:
320,192,107478,1,0,0:0:0:0:
192,192,107593,1,0,0:0:0:0:
448,192,107708,1,0,0:0:0:0:
320,192,107824,1,0,0:0:0:0:
192,192,107939,1,0,0:0:0:0:
320,192,108055,1,0,0:0:0:0:
448,192,108055,1,0,0:0:0:0:
64,192,108170,1,0,0:0:0:0:
192,192,108285,1,0,0:0:0:0:
448,192,108401,1,0,0:0:0:0:
320,192,108516,1,0,0:0:0:0:
192,192,108631,1,0,0:0:0:0:
448,192,108747,1,0,0:0:0:0:
64,192,108862,1,0,0:0:0:0:
320,192,108978,1,0,0:0:0:0:
448,192,108978,128,0,109093:0:0:0:0:
64,192,109093,128,0,109208:0:0:0:0:
320,192,109208,1,0,0:0:0:0:
192,192,109324,1,0,0:0:0:0:
448,192,109439,1,0,0:0:0:0:
192,192,109555,1,0,0:0:0:0:
320,192,109670,1,0,0:0:0:0:
64,192,109785,1,0,0:0:0:0:
192,192,109901,1,0,0:0:0:0:
320,192,110016,1,0,0:0:0:0:
64,192,110131,1,0,0:0:0:0:
448,192,110247,1,0,0:0:0:0:
64,192,110362,1,0,0:0:0:0:
192,192,110362,1,0,0:0:0:0:
448,192,110478,1,0,0:0:0:0:
320,192,110593,1,0,0:0:0:0:
192,192,110708,1,0,0:0:0:0:
64,192,110824,1,0,0:0:0:0:
448,192,110824,1,0,0:0:0:0:
64,192,111055,1,0,0:0:0:0:
448,192,111055,1,0,0:0:0:0:
64,192,111285,1,0,0:0:0:0:
192,192,111285,1,0,0:0:0:0:
320,192,111362,1,0,0:0:0:0:
64,192,111439,1,0,0:0:0:0:
320,192,111516,1,0,0:0:0:0:
448,192,111516,1,0,0:0:0:0:
192,192,111593,1,0,0:0:0:0:
448,192,111670,1,0,0:0:0:0:
64,192,111747,128,0,111978:0:0:0:0:
320,192,111747,128,0,112208:0:0:0:0:
192,192,111978,128,0,112208:0:0:0:0:
64,192,112208,128,0,112439:0:0:0:0:
448,192,112208,128,0,112670:0:0:0:0:
320,192,112439,128,0,112670:0:0:0:0:
64,192,112670,1,0,0:0:0:0:
192,192,112670,1,0,0:0:0:0:
448,192,112785,1,0,0:0:0:0:
192,192,112901,1,0,0:0:0:0:
320,192,113016,1,0,0:0:0:0:
64,192,113131,1,0,0:0:0:0:
320,192,113247,1,0,0:0:0:0:
192,192,113362,1,0,0:0:0:0:
64,192,113478,1,0,0:0:0:0:
320,192,113593,1,0,0:0:0:0:
448,192,113708,1,0,0:0:0:0:
192,192,113824,1,0,0:0:0:0:
320,192,113939,1,0,0:0:0:0:
64,192,114055,1,0,0:0:0:0:
448,192,114055,1,0,0:0:0:0:
192,192,114170,1,0,0:0:0:0:
320,192,114285,1,0,0:0:0:0:
64,192,114401,1,0,0:0:0:0:
320,192,114516,1,0,0:0:0:0:
448,192,114516,1,0,0:0:0:0:
192,192,114631,1,0,0:0:0:0:
448,192,114747,1,0,0:0:0:0:
320,192,114862,1,0,0:0:0:0:
64,192,114978,1,0,0:0:0:0:
320,192,115093,1,0,0:0:0:0:
192,192,115208,1,0,0:0:0:0:
64,192,115324,1,0,0:0:0:0:
320,192,115439,1,0,0:0:0:0:
448,192,115439,1,0,0:0:0:0:
192,192,115555,128,0,115670:0:0:0:0:
320,192,115670,128,0,115785:0:0:0:0:
448,192,115785,128,0,115901:0:0:0:0:
64,192,115901,128,0,116016:0:0:0:0:
320,192,116016,128,0,116131:0:0:0:0:
192,192,116131,128,0,116247:0:0:0:0:
448,192,116247,128,0,116362:0:0:0:0:
64,192,116362,1,0,0:0:0:0:
320,192,116362,1,0,0:0:0:0:
192,192,116478,128,0,116593:0:0:0:0:
320,192,116593,128,0,116708:0:0:0:0:
64,192,116708,128,0,116824:0:0:0:0:
320,192,116824,128,0,116939:0:0:0:0:
192,192,116939,128,0,117055:0:0:0:0:
64,192,117055,128,0,117170:0:0:0:0:
448,192,117170,128,0,117285:0:0:0:0:
192,192,117285,128,0,117401:0:0:0:0:
320,192,117401,128,0,117516:0:0:0:0:
448,192,117516,128,0,117631:0:0:0:0:
64,192,117631,128,0,117747:0:0:0:0:
192,192,117747,1,0,0:0:0:0:
448,192,117747,1,0,0:0:0:0:
320,192,117862,128,0,117978:0:0:0:0:
192,192,117978,128,0,118093:0:0:0:0:
64,192,118093,128,0,118208:0:0:0:0:
320,192,118208,1,0,0:0:0:0:
448,192,118208,1,0,0:0:0:0:
64,192,118439,1,0,0:0:0:0:
192,192,118439,1,0,0:0:0:0:
320,192,118670,1,0,0:0:0:0:
64,192,118670,1,0,0:0:0:0:
448,192,118670,1,0,0:0:0:0:
192,192,118670,1,0,0:0:0:0:
64,192,119131,128,0,120055:0:0:0:0:
192,192,119131,128,0,120055:0:0:0:0:
448,192,119131,128,0,120055:0:0:0:0:
320,192,120055,1,0,0:0:0:0:
192,192,120170,1,0,0:0:0:0:
448,192,120285,1,0,0:0:0:0:
64,192,120401,1,0,0:0:0:0:
320,192,120516,1,0,0:0:0:0:
192,192,120631,1,0,0:0:0:0:
64,192,120747,1,0,0:0:0:0:
320,192,120862,1,0,0:0:0:0:
192,192,120978,1,0,0:0:0:0:
448,192,121093,1,0,0:0:0:0:
192,192,121208,1,0,0:0:0:0:
320,192,121324,1,0,0:0:0:0:
64,192,121439,1,0,0:0:0:0:
192,192,121439,1,0,0:0:0:0:
448,192,121555,1,0,0:0:0:0:
192,192,121670,1,0,0:0:0:0:
320,192,121785,1,0,0:0:0:0:
64,192,121901,1,0,0:0:0:0:
448,192,121901,1,0,0:0:0:0:
192,192,122016,1,0,0:0:0:0:
320,192,122131,1,0,0:0:0:0:
64,192,122247,1,0,0:0:0:0:
192,192,122362,1,0,0:0:0:0:
448,192,122478,1,0,0:0:0:0:
320,192,122593,1,0,0:0:0:0:
192,192,122708,1,0,0:0:0:0:
320,192,122824,1,0,0:0:0:0:
448,192,122824,1,0,0:0:0:0:
64,192,122939,1,0,0:0:0:0:
320,192,123055,1,0,0:0:0:0:
192,192,123170,1,0,0:0:0:0:
64,192,123285,1,0,0:0:0:0:
320,192,123401,1,0,0:0:0:0:
192,192,123516,1,0,0:0:0:0:
448,192,123631,1,0,0:0:0:0:
64,192,123747,128,0,123862:0:0:0:0:
192,192,123747,1,0,0:0:0:0:
448,192,123862,128,0,123978:0:0:0:0:
192,192,123978,1,0,0:0:0:0:
320,192,124093,1,0,0:0:0:0:
64,192,124208,1,0,0:0:0:0:
320,192,124324,1,0,0:0:0:0:
192,192,124439,128,0,124555:0:0:0:0:
448,192,124555,128,0,124670:0:0:0:0:
320,192,124670,128,0,124785:0:0:0:0:
192,192,124785,128,0,124901:0:0:0:0:
448,192,124901,128,0,125016:0:0:0:0:
64,192,125016,128,0,125131:0:0:0:0:
320,192,125131,1,0,0:0:0:0:
448,192,125131,1,0,0:0:0:0:
192,192,125247,128,0,125362:0:0:0:0:
64,192,125362,128,0,125478:0:0:0:0:
320,192,125478,128,0,125593:0:0:0:0:
64,192,125593,1,0,0:0:0:0:
448,192,125593,1,0,0:0:0:0:
64,192,125824,1,0,0:0:0:0:
320,192,125824,1,0,0:0:0:0:
192,192,126055,1,0,0:0:0:0:
448,192,126055,1,0,0:0:0:0:
64,192,126131,1,0,0:0:0:0:
320,192,126208,1,0,0:0:0:0:
64,192,126285,1,0,0:0:0:0:
192,192,126285,1,0,0:0:0:0:
448,192,126362,1,0,0:0:0:0:
320,192,126439,1,0,0:0:0:0:
64,192,126516,128,0,126978:0:0:0:0:
448,192,126516,128,0,126747:0:0:0:0:
320,192,126747,128,0,126978:0:0:0:0:
192,192,126978,128,0,127439:0:0:0:0:
448,192,126978,128,0,127208:0:0:0:0:
64,192,127208,128,0,127439:0:0:0:0:
320,192,127439,1,0,0:0:0:0:
448,192,127555,1,0,0:0:0:0:
192,192,127670,1,0,0:0:0:0:
64,192,127785,1,0,0:0:0:0:
320,192,127901,1,0,0:0:0:0:
192,192,128016,1,0,0:0:0:0:
64,192,128131,1,0,0:0:0:0:
448,192,128247,1,0,0:0:0:0:
192,192,128362,1,0,0:0:0:0:
320,192,128478,1,0,0:0:0:0:
448,192,128593,1,0,0:0:0:0:
192,192,128708,1,0,0:0:0:0:
320,192,128824,1,0,0:0:0:0:
448,192,128824,1,0,0:0:0:0:
64,192,128939,1,0,0:0:0:0:
320,192,129055,1,0,0:0:0:0:
192,192,129170,1,0,0:0:0:0:
64,192,129285,1,0,0:0:0:0:
448,192,129285,1,0,0:0:0:0:
320,192,129401,1,0,0:0:0:0:
192,192,129516,1,0,0:0:0:0:
448,192,129631,1,0,0:0:0:0:
64,192,129747,1,0,0:0:0:0:
320,192,129862,1,0,0:0:0:0:
192,192,129978,1,0,0:0:0:0:
64,192,130093,1,0,0:0:0:0:
320,192,130208,1,0,0:0:0:0:
448,192,130208,1,0,0:0:0:0:
64,192,130324,1,0,0:0:0:0:
320,192,130439,128,0,130555:0:0:0:0:
192,192,130555,128,0,130670:0:0:0:0:
448,192,130670,128,0,130785:0:0:0:0:
64,192,130785,128,0,130901:0:0:0:0:
320,192,130901,128,0,131016:0:0:0:0:
192,192,131016,128,0,131131:0:0:0:0:
64,192,131131,1,0,0:0:0:0:
448,192,131131,1,0,0:0:0:0:
320,192,131247,128,0,131362:0:0:0:0:
192,192,131362,128,0,131478:0:0:0:0:
448,192,131478,128,0,131593:0:0:0:0:
64,192,131593,128,0,131708:0:0:0:0:
192,192,131708,128,0,131824:0:0:0:0:
320,192,131824,128,0,131939:0:0:0:0:
64,192,131939,128,0,132055:0:0:0:0:
320,192,132055,128,0,132170:0:0:0:0:
192,192,132170,128,0,132285:0:0:0:0:
448,192,132285,128,0,132401:0:0:0:0:
320,192,132401,128,0,132516:0:0:0:0:
64,192,132516,1,0,0:0:0:0:
192,192,132516,1,0,0:0:0:0:
448,192,132631,128,0,132747:0:0:0:0:
192,192,132747,128,0,132862:0:0:0:0:
320,192,132862,128,0,132978:0:0:0:0:
64,192,132978,1,0,0:0:0:0:
448,192,132978,1,0,0:0:0:0:
192,192,133208,1,0,0:0:0:0:
448,192,133208,1,0,0:0:0:0:
192,192,133439,1,0,0:0:0:0:
320,192,133439,1,0,0:0:0:0:
64,192,133670,1,0,0:0:0:0:
320,192,133670,1,0,0:0:0:0:
64,192,133901,1,0,0:0:0:0:
192,192,133901,1,0,0:0:0:0:
448,192,133901,1,0,0:0:0:0:
320,192,133901,1,0,0:0:0:0:
