osu file format v14

[General]
AudioFilename: audio.mp3
AudioLeadIn: 0
PreviewTime: 102520
Countdown: 0
SampleSet: Normal
StackLeniency: 0.7
Mode: 3
LetterboxInBreaks: 0
SpecialStyle: 0
WidescreenStoryboard: 1

[Editor]
Bookmarks: 15747,30516,45285,58208,60054,74824,89597,102520,104369,119134,133900
DistanceSpacing: 0.8
BeatDivisor: 4
GridSize: 4
TimelineZoom: 1.9

[Metadata]
Title:Crankin (Cut Ver.)
TitleUnicode:Crankin (Cut Ver.)
Artist:Barely Alive & Eliminate
ArtistUnicode:Barely Alive & Eliminate
Creator:arccat
Version:Myocardial Infarction
Source:
Tags:Electronic English Instrumental Multiplayer EP Extended Play Dubstep Disciple ♛ ♜ ♞ osu!mania 4K World Cup 2022 Semifinals mwc22 SF SV Cranking Matt Meier Willie Watkins
BeatmapID:3774040
BeatmapSetID:1838002

[Difficulty]
HPDrainRate:7
CircleSize:4
OverallDifficulty:7
ApproachRate:5
SliderMultiplier:1.4
SliderTickRate:1

[Events]
//Background and Video events
0,0,"90377869_p0.jpg",0,0
//Break Periods
//Storyboard Layer 0 (Background)
//Storyboard Layer 1 (Fail)
//Storyboard Layer 2 (Pass)
//Storyboard Layer 3 (Foreground)
//Storyboard Layer 4 (Overlay)
//Storyboard Sound Samples

[TimingPoints]
55,461.538461538462,4,1,0,60,1,0
978,-66.6666666666667,4,1,0,60,0,0
1036,-200,4,1,0,60,0,0
1093,-10000,4,1,0,60,0,0
1304,-14.4927536231884,4,1,0,60,0,0
1324,-100,4,1,0,60,0,0
1439,-20,4,1,0,60,0,0
1459,-100,4,1,0,60,0,0
1670,-10000,4,1,0,60,0,0
1881,-14.4927536231884,4,1,0,60,0,0
1901,-100,4,1,0,60,0,0
2016,-10000,4,1,0,60,0,0
2227,-14.4927536231884,4,1,0,60,0,0
2247,-100,4,1,0,60,0,0
2362,-20,4,1,0,60,0,0
2382,-100,4,1,0,60,0,0
2593,-10000,4,1,0,60,0,0
2804,-14.4927536231884,4,1,0,60,0,0
2824,-100,4,1,0,60,0,0
2939,-10000,4,1,0,60,0,0
3150,-14.4927536231884,4,1,0,60,0,0
3170,-100,4,1,0,60,0,0
3285,-20,4,1,0,60,0,0
3305,-100,4,1,0,60,0,0
3516,-10000,4,1,0,60,0,0
3727,-14.4927536231884,4,1,0,60,0,0
3747,-100,4,1,0,60,0,0
3978,-10000,4,1,0,60,0,0
4189,-14.4927536231884,4,1,0,60,0,0
4208,-20,4,1,0,60,0,0
4228,-100,4,1,0,60,0,0
4439,-10000,4,1,0,60,0,0
4650,-14.4927536231884,4,1,0,60,0,0
4670,-100,4,1,0,60,0,0
4785,-10000,4,1,0,60,0,0
4996,-14.4927536231884,4,1,0,60,0,0
5016,-100,4,1,0,60,0,0
5131,-20,4,1,0,60,0,0
5151,-100,4,1,0,60,0,0
5362,-10000,4,1,0,60,0,0
5573,-14.4927536231884,4,1,0,60,0,0
5593,-100,4,1,0,60,0,0
5708,-10000,4,1,0,60,0,0
5919,-14.4927536231884,4,1,0,60,0,0
5939,-100,4,1,0,60,0,0
6054,-20,4,1,0,60,0,0
6074,-100,4,1,0,60,0,0
6285,-10000,4,1,0,60,0,0
6496,-14.4927536231884,4,1,0,60,0,0
6516,-100,4,1,0,60,0,0
6631,-10000,4,1,0,60,0,0
6842,-14.4927536231884,4,1,0,60,0,0
6862,-100,4,1,0,60,0,0
6978,-20,4,1,0,60,0,0
6998,-100,4,1,0,60,0,0
7208,-10000,4,1,0,60,0,0
7419,-14.4927536231884,4,1,0,60,0,0
7439,-12.5,4,1,0,60,0,0
7449,-1000,4,1,0,60,0,0
7555,-12.5,4,1,0,60,0,0
7565,-1000,4,1,0,60,0,0
7670,-10000,4,1,0,60,0,0
7881,-14.4927536231884,4,1,0,60,0,0
7901,-20,4,1,0,60,0,0
7921,-100,4,1,0,60,0,0
8362,-52.6315789473684,4,1,0,60,0,0
8420,-1000,4,1,0,60,0,0
8478,-52.6315789473684,4,1,0,60,0,0
8536,-1000,4,1,0,60,0,0
8593,-10000,4,1,0,60,0,0
8804,-14.4927536231884,4,1,0,60,0,0
8824,-20,4,1,0,60,0,0
8844,-100,4,1,0,60,0,0
9055,-10000,4,1,0,60,0,0
9266,-14.4927536231884,4,1,0,60,0,0
9286,-100,4,1,0,60,0,0
9401,-10000,4,1,0,60,0,0
9612,-14.4927536231884,4,1,0,60,0,0
9632,-100,4,1,0,60,0,0
9747,-20,4,1,0,60,0,0
9767,-100,4,1,0,60,0,0
9978,-10000,4,1,0,60,0,0
10189,-14.4927536231884,4,1,0,60,0,0
10209,-100,4,1,0,60,0,0
10324,-10000,4,1,0,60,0,0
10535,-14.4927536231884,4,1,0,60,0,0
10555,-100,4,1,0,60,0,0
10670,-20,4,1,0,60,0,0
10690,-100,4,1,0,60,0,0
10901,-10000,4,1,0,60,0,0
11112,-14.4927536231884,4,1,0,60,0,0
11132,-100,4,1,0,60,0,0
11362,-10000,4,1,0,60,0,0
11573,-14.4927536231884,4,1,0,60,0,0
11593,-20,4,1,0,60,0,0
11613,-100,4,1,0,60,0,0
12055,-52.6315789473684,4,1,0,60,0,0
12113,-1000,4,1,0,60,0,0
12171,-52.6315789473684,4,1,0,60,0,0
12229,-1000,4,1,0,60,0,0
12286,-52.6315789473684,4,1,0,60,0,0
12344,-1000,4,1,0,60,0,0
12401,-100,4,1,0,60,0,0
12516,-20,4,1,0,60,0,0
12536,-100,4,1,0,60,0,0
12747,-10000,4,1,0,60,0,0
12958,-14.4927536231884,4,1,0,60,0,0
12978,-100,4,1,0,60,0,0
13208,-10000,4,1,0,60,0,0
13419,-14.4927536231884,4,1,0,60,0,0
13439,-20,4,1,0,60,0,0
13459,-100,4,1,0,60,0,0
13670,-10000,4,1,0,60,0,0
13881,-14.4927536231884,4,1,0,60,0,0
13901,-66.6666666666667,4,1,0,60,0,0
13958,-200,4,1,0,60,0,0
14016,-66.6666666666667,4,1,0,60,0,0
14073,-200,4,1,0,60,0,0
14131,-66.6666666666667,4,1,0,60,0,0
14188,-200,4,1,0,60,0,0
14247,-66.6666666666667,4,1,0,60,0,0
14304,-200,4,1,0,60,0,0
14362,-25,4,1,0,60,0,0
14382,-100,4,1,0,60,0,0
14478,-66.6666666666667,4,1,0,60,0,0
14535,-200,4,1,0,60,0,0
14593,-66.6666666666667,4,1,0,60,0,0
14650,-200,4,1,0,60,0,0
14709,-66.6666666666667,4,1,0,60,0,0
14766,-200,4,1,0,60,0,0
14824,-66.6666666666667,4,1,0,60,0,0
14881,-200,4,1,0,60,0,0
14939,-66.6666666666667,4,1,0,60,0,0
14996,-200,4,1,0,60,0,0
15054,-66.6666666666667,4,1,0,60,0,0
15111,-200,4,1,0,60,0,0
15170,-66.6666666666667,4,1,0,60,0,0
15227,-200,4,1,0,60,0,0
15285,-25,4,1,0,60,0,0
15305,-100,4,1,0,60,0,0
15401,-66.6666666666667,4,1,0,60,0,0
15458,-200,4,1,0,60,0,0
15517,-66.6666666666667,4,1,0,60,0,0
15574,-200,4,1,0,60,0,0
15631,-66.6666666666667,4,1,0,60,0,0
15688,-200,4,1,0,60,0,0
15747,-30.03003003003,4,1,0,60,0,0
15776,-303.030303030303,4,1,0,60,0,0
15862,-30.03003003003,4,1,0,60,0,0
15891,-303.030303030303,4,1,0,60,0,0
15978,-100,4,1,0,60,0,0
16208,-20,4,1,0,60,0,0
16228,-100,4,1,0,60,0,0
16439,-10000,4,1,0,60,0,0
16650,-14.4927536231884,4,1,0,60,0,0
16670,-100,4,1,0,60,0,0
16901,-10000,4,1,0,60,0,0
17112,-14.4927536231884,4,1,0,60,0,0
17131,-20,4,1,0,60,0,0
17151,-100,4,1,0,60,0,0
17362,-10000,4,1,0,60,0,0
17573,-14.4927536231884,4,1,0,60,0,0
17593,-100,4,1,0,60,0,0
18054,-20,4,1,0,60,0,0
18074,-100,4,1,0,60,0,0
18285,-10000,4,1,0,60,0,0
18496,-14.4927536231884,4,1,0,60,0,0
18516,-500,4,1,0,60,0,0
18603,-33.3333333333333,4,1,0,60,0,0
18631,-500,4,1,0,60,0,0
18718,-33.3333333333333,4,1,0,60,0,0
18747,-500,4,1,0,60,0,0
18834,-33.3333333333333,4,1,0,60,0,0
18862,-500,4,1,0,60,0,0
18949,-33.3333333333333,4,1,0,60,0,0
18978,-500,4,1,0,60,0,0
19065,-33.3333333333333,4,1,0,60,0,0
19093,-500,4,1,0,60,0,0
19180,-33.3333333333333,4,1,0,60,0,0
19208,-100,4,1,0,60,0,0
19324,-500,4,1,0,60,0,0
19411,-33.3333333333333,4,1,0,60,0,0
19439,-30.03003003003,4,1,0,60,0,0
19468,-303.030303030303,4,1,0,60,0,0
19554,-30.03003003003,4,1,0,60,0,0
19583,-303.030303030303,4,1,0,60,0,0
19670,-100,4,1,0,60,0,0
19901,-20,4,1,0,60,0,0
19921,-100,4,1,0,60,0,0
20131,-10000,4,1,0,60,0,0
20342,-14.4927536231884,4,1,0,60,0,0
20362,-100,4,1,0,60,0,0
20593,-10000,4,1,0,60,0,0
20804,-14.4927536231884,4,1,0,60,0,0
20824,-20,4,1,0,60,0,0
20844,-100,4,1,0,60,0,0
21055,-10000,4,1,0,60,0,0
21266,-14.4927536231884,4,1,0,60,0,0
21286,-100,4,1,0,60,0,0
21516,-66.6666666666667,4,1,0,60,0,0
21574,-200,4,1,0,60,0,0
21631,-66.6666666666667,4,1,0,60,0,0
21689,-200,4,1,0,60,0,0
21747,-20,4,1,0,60,0,0
21767,-100,4,1,0,60,0,0
22093,-66.6666666666667,4,1,0,60,0,0
22151,-200,4,1,0,60,0,0
22208,-66.6666666666667,4,1,0,60,0,0
22266,-200,4,1,0,60,0,0
22324,-66.6666666666667,4,1,0,60,0,0
22382,-200,4,1,0,60,0,0
22439,-10000,4,1,0,60,0,0
22649,-10,4,1,0,15,0,0
22669,-10,4,1,0,15,0,0
22680.6,-10.5263157894737,4,1,0,15,0,0
22692.2,-11.1111111111111,4,1,0,15,0,0
22703.8,-11.7647058823529,4,1,0,15,0,0
22715.4,-12.5,4,1,0,15,0,0
22727,-13.3333333333333,4,1,0,15,0,0
22738.6,-14.2857142857143,4,1,0,15,0,0
22750.2,-15.3846153846154,4,1,0,15,0,0
22761.8,-16.6666666666667,4,1,0,15,0,0
22773.4,-18.1818181818182,4,1,0,15,0,0
22785,-19.9600798403194,4,1,0,15,0,0
22796.6,-22.1729490022173,4,1,0,15,0,0
22808.2,-24.9376558603491,4,1,0,15,0,0
22819.8,-28.4900284900285,4,1,0,15,0,0
22831.4,-33.2225913621262,4,1,0,15,0,0
22843,-39.8406374501992,4,1,0,15,0,0
22854.6,-49.7512437810945,4,1,0,15,0,0
22866.2,-66.2251655629139,4,1,0,15,0,0
22877.8,-99.009900990099,4,1,0,15,0,0
22889.4,-196.078431372549,4,1,0,15,0,0
22901,-10000,4,1,0,15,0,0
23111,-10,4,1,0,15,0,0
23131,-30.03003003003,4,1,0,60,0,0
23160,-303.030303030303,4,1,0,60,0,0
23246,-30.03003003003,4,1,0,60,0,0
23275,-303.030303030303,4,1,0,60,0,0
23362,-100,4,1,0,60,0,0
23593,-20,4,1,0,60,0,0
23613,-100,4,1,0,60,0,0
23824,-10000,4,1,0,60,0,0
24035,-14.4927536231884,4,1,0,60,0,0
24055,-100,4,1,0,60,0,0
24516,-12.5,4,1,0,60,0,0
24536,-100,4,1,0,60,0,0
24747,-10000,4,1,0,60,0,0
24958,-14.4927536231884,4,1,0,60,0,0
24978,-100,4,1,0,60,0,0
25439,-20,4,1,0,60,0,0
25459,-100,4,1,0,60,0,0
25670,-10000,4,1,0,60,0,0
25881,-14.4927536231884,4,1,0,60,0,0
25901,-500,4,1,0,60,0,0
25988,-33.3333333333333,4,1,0,60,0,0
26016,-500,4,1,0,60,0,0
26103,-33.3333333333333,4,1,0,60,0,0
26132,-500,4,1,0,60,0,0
26219,-33.3333333333333,4,1,0,60,0,0
26247,-500,4,1,0,60,0,0
26334,-33.3333333333333,4,1,0,60,0,0
26363,-500,4,1,0,60,0,0
26450,-33.3333333333333,4,1,0,60,0,0
26478,-500,4,1,0,60,0,0
26565,-33.3333333333333,4,1,0,60,0,0
26593,-100,4,1,0,60,0,0
26709,-500,4,1,0,60,0,0
26796,-33.3333333333333,4,1,0,60,0,0
26824,-30.03003003003,4,1,0,60,0,0
26853,-303.030303030303,4,1,0,60,0,0
26939,-30.03003003003,4,1,0,60,0,0
26968,-303.030303030303,4,1,0,60,0,0
27055,-100,4,1,0,60,0,0
27285,-20,4,1,0,60,0,0
27305,-100,4,1,0,60,0,0
27516,-10000,4,1,0,60,0,0
27727,-14.4927536231884,4,1,0,60,0,0
27747,-100,4,1,0,60,0,0
27978,-10000,4,1,0,60,0,0
28189,-14.4927536231884,4,1,0,60,0,0
28208,-20,4,1,0,60,0,0
28228,-100,4,1,0,60,0,0
28439,-10000,4,1,0,60,0,0
28650,-14.4927536231884,4,1,0,60,0,0
28670,-100,4,1,0,15,0,0
28702.32,-102.040816326531,4,1,0,15,0,0
28734.64,-103.092783505155,4,1,0,15,0,0
28766.96,-105.263157894737,4,1,0,15,0,0
28799.28,-106.382978723404,4,1,0,15,0,0
28831.6,-108.695652173913,4,1,0,15,0,0
28863.92,-111.111111111111,4,1,0,15,0,0
28896.24,-112.359550561798,4,1,0,15,0,0
28928.56,-114.942528735632,4,1,0,15,0,0
28960.88,-116.279069767442,4,1,0,15,0,0
28993.2,-119.047619047619,4,1,0,15,0,0
29025.52,-121.951219512195,4,1,0,15,0,0
29057.84,-123.456790123457,4,1,0,15,0,0
29090.16,-126.582278481013,4,1,0,15,0,0
29122.48,-128.205128205128,4,1,0,15,0,0
29154.8,-131.578947368421,4,1,0,15,0,0
29187.12,-135.135135135135,4,1,0,15,0,0
29219.44,-136.986301369863,4,1,0,15,0,0
29251.76,-140.845070422535,4,1,0,15,0,0
29284.08,-142.857142857143,4,1,0,15,0,0
29316.4,-147.058823529412,4,1,0,15,0,0
29348.72,-151.515151515152,4,1,0,15,0,0
29381.04,-153.846153846154,4,1,0,15,0,0
29413.36,-158.730158730159,4,1,0,15,0,0
29445.68,-161.290322580645,4,1,0,15,0,0
29478,-166.666666666667,4,1,0,15,0,0
29510.32,-172.413793103448,4,1,0,15,0,0
29542.64,-175.438596491228,4,1,0,15,0,0
29574.96,-181.818181818182,4,1,0,15,0,0
29607.28,-185.185185185185,4,1,0,15,0,0
29639.6,-192.307692307692,4,1,0,15,0,0
29671.92,-200,4,1,0,15,0,0
29704.24,-204.081632653061,4,1,0,15,0,0
29736.56,-212.765957446809,4,1,0,15,0,0
29768.88,-217.391304347826,4,1,0,15,0,0
29801.2,-227.272727272727,4,1,0,15,0,0
29833.52,-238.095238095238,4,1,0,15,0,0
29865.84,-243.90243902439,4,1,0,15,0,0
29898.16,-256.410256410256,4,1,0,15,0,0
29930.48,-263.157894736842,4,1,0,15,0,0
29962.8,-277.777777777778,4,1,0,15,0,0
29995.12,-294.117647058824,4,1,0,15,0,0
30027.44,-303.030303030303,4,1,0,15,0,0
30059.76,-322.58064516129,4,1,0,15,0,0
30092.08,-333.333333333333,4,1,0,15,0,0
30124.4,-357.142857142857,4,1,0,15,0,0
30156.72,-384.615384615385,4,1,0,15,0,0
30189.04,-400,4,1,0,15,0,0
30221.36,-434.782608695652,4,1,0,15,0,0
30253.68,-454.545454545455,4,1,0,15,0,0
30286,-500,4,1,0,15,0,0
30516,-76.9230769230769,4,1,0,15,0,0
30534.18,-77.5193798449612,4,1,0,15,0,0
30552.36,-78.125,4,1,0,15,0,0
30570.54,-79.3650793650794,4,1,0,15,0,0
30588.72,-80,4,1,0,15,0,0
30606.9,-80.6451612903226,4,1,0,15,0,0
30625.08,-81.3008130081301,4,1,0,15,0,0
30643.26,-81.9672131147541,4,1,0,15,0,0
30661.44,-83.3333333333333,4,1,0,15,0,0
30679.62,-84.0336134453782,4,1,0,15,0,0
30697.8,-84.7457627118644,4,1,0,15,0,0
30715.98,-85.4700854700855,4,1,0,15,0,0
30734.16,-86.2068965517241,4,1,0,15,0,0
30752.34,-87.719298245614,4,1,0,15,0,0
30770.52,-88.495575221239,4,1,0,15,0,0
30788.7,-89.2857142857143,4,1,0,15,0,0
30806.88,-90.0900900900901,4,1,0,15,0,0
30825.06,-90.9090909090909,4,1,0,15,0,0
30843.24,-92.5925925925926,4,1,0,15,0,0
30861.42,-93.4579439252336,4,1,0,15,0,0
30879.6,-94.3396226415094,4,1,0,15,0,0
30897.78,-95.2380952380952,4,1,0,15,0,0
30915.96,-96.1538461538461,4,1,0,15,0,0
30934.14,-98.0392156862745,4,1,0,15,0,0
30952.32,-99.009900990099,4,1,0,15,0,0
30970.5,-100,4,1,0,15,0,0
30988.68,-101.010101010101,4,1,0,15,0,0
31006.86,-102.040816326531,4,1,0,15,0,0
31025.04,-104.166666666667,4,1,0,15,0,0
31043.22,-105.263157894737,4,1,0,15,0,0
31061.4,-106.382978723404,4,1,0,15,0,0
31079.58,-107.52688172043,4,1,0,15,0,0
31097.76,-108.695652173913,4,1,0,15,0,0
31115.94,-111.111111111111,4,1,0,15,0,0
31134.12,-112.359550561798,4,1,0,15,0,0
31152.3,-113.636363636364,4,1,0,15,0,0
31170.48,-114.942528735632,4,1,0,15,0,0
31188.66,-116.279069767442,4,1,0,15,0,0
31206.84,-119.047619047619,4,1,0,15,0,0
31225.02,-120.481927710843,4,1,0,15,0,0
31243.2,-121.951219512195,4,1,0,15,0,0
31261.38,-123.456790123457,4,1,0,15,0,0
31279.56,-125,4,1,0,15,0,0
31297.74,-128.205128205128,4,1,0,15,0,0
31315.92,-129.87012987013,4,1,0,15,0,0
31334.1,-131.578947368421,4,1,0,15,0,0
31352.28,-133.333333333333,4,1,0,15,0,0
31370.46,-135.135135135135,4,1,0,15,0,0
31388.64,-138.888888888889,4,1,0,15,0,0
31406.82,-140.845070422535,4,1,0,15,0,0
31425,-142.857142857143,4,1,0,15,0,0
34208,-76.9230769230769,4,1,0,15,0,0
34226.18,-77.5193798449612,4,1,0,15,0,0
34244.36,-78.125,4,1,0,15,0,0
34262.54,-79.3650793650794,4,1,0,15,0,0
34280.72,-80,4,1,0,15,0,0
34298.9,-80.6451612903226,4,1,0,15,0,0
34317.08,-81.3008130081301,4,1,0,15,0,0
34335.26,-81.9672131147541,4,1,0,15,0,0
34353.44,-83.3333333333333,4,1,0,15,0,0
34371.62,-84.0336134453782,4,1,0,15,0,0
34389.8,-84.7457627118644,4,1,0,15,0,0
34407.98,-85.4700854700855,4,1,0,15,0,0
34426.16,-86.2068965517241,4,1,0,15,0,0
34444.34,-87.719298245614,4,1,0,15,0,0
34462.52,-88.495575221239,4,1,0,15,0,0
34480.7,-89.2857142857143,4,1,0,15,0,0
34498.88,-90.0900900900901,4,1,0,15,0,0
34517.06,-90.9090909090909,4,1,0,15,0,0
34535.24,-92.5925925925926,4,1,0,15,0,0
34553.42,-93.4579439252336,4,1,0,15,0,0
34571.6,-94.3396226415094,4,1,0,15,0,0
34589.78,-95.2380952380952,4,1,0,15,0,0
34607.96,-96.1538461538461,4,1,0,15,0,0
34626.14,-98.0392156862745,4,1,0,15,0,0
34644.32,-99.009900990099,4,1,0,15,0,0
34662.5,-100,4,1,0,15,0,0
34680.68,-101.010101010101,4,1,0,15,0,0
34698.86,-102.040816326531,4,1,0,15,0,0
34717.04,-104.166666666667,4,1,0,15,0,0
34735.22,-105.263157894737,4,1,0,15,0,0
34753.4,-106.382978723404,4,1,0,15,0,0
34771.58,-107.52688172043,4,1,0,15,0,0
34789.76,-108.695652173913,4,1,0,15,0,0
34807.94,-111.111111111111,4,1,0,15,0,0
34826.12,-112.359550561798,4,1,0,15,0,0
34844.3,-113.636363636364,4,1,0,15,0,0
34862.48,-114.942528735632,4,1,0,15,0,0
34880.66,-116.279069767442,4,1,0,15,0,0
34898.84,-119.047619047619,4,1,0,15,0,0
34917.02,-120.481927710843,4,1,0,15,0,0
34935.2,-121.951219512195,4,1,0,15,0,0
34953.38,-123.456790123457,4,1,0,15,0,0
34971.56,-125,4,1,0,15,0,0
34989.74,-128.205128205128,4,1,0,15,0,0
35007.92,-129.87012987013,4,1,0,15,0,0
35026.1,-131.578947368421,4,1,0,15,0,0
35044.28,-133.333333333333,4,1,0,15,0,0
35062.46,-135.135135135135,4,1,0,15,0,0
35080.64,-138.888888888889,4,1,0,15,0,0
35098.82,-140.845070422535,4,1,0,15,0,0
35117,-142.857142857143,4,1,0,15,0,0
37901,-76.9230769230769,4,1,0,15,0,0
37919.18,-77.5193798449612,4,1,0,15,0,0
37937.36,-78.125,4,1,0,15,0,0
37955.54,-79.3650793650794,4,1,0,15,0,0
37973.72,-80,4,1,0,15,0,0
37991.9,-80.6451612903226,4,1,0,15,0,0
38010.08,-81.3008130081301,4,1,0,15,0,0
38028.26,-81.9672131147541,4,1,0,15,0,0
38046.44,-83.3333333333333,4,1,0,15,0,0
38064.62,-84.0336134453782,4,1,0,15,0,0
38082.8,-84.7457627118644,4,1,0,15,0,0
38100.98,-85.4700854700855,4,1,0,15,0,0
38119.16,-86.2068965517241,4,1,0,15,0,0
38137.34,-87.719298245614,4,1,0,15,0,0
38155.52,-88.495575221239,4,1,0,15,0,0
38173.7,-89.2857142857143,4,1,0,15,0,0
38191.88,-90.0900900900901,4,1,0,15,0,0
38210.06,-90.9090909090909,4,1,0,15,0,0
38228.24,-92.5925925925926,4,1,0,15,0,0
38246.42,-93.4579439252336,4,1,0,15,0,0
38264.6,-94.3396226415094,4,1,0,15,0,0
38282.78,-95.2380952380952,4,1,0,15,0,0
38300.96,-96.1538461538461,4,1,0,15,0,0
38319.14,-98.0392156862745,4,1,0,15,0,0
38337.32,-99.009900990099,4,1,0,15,0,0
38355.5,-100,4,1,0,15,0,0
38373.68,-101.010101010101,4,1,0,15,0,0
38391.86,-102.040816326531,4,1,0,15,0,0
38410.04,-104.166666666667,4,1,0,15,0,0
38428.22,-105.263157894737,4,1,0,15,0,0
38446.4,-106.382978723404,4,1,0,15,0,0
38464.58,-107.52688172043,4,1,0,15,0,0
38482.76,-108.695652173913,4,1,0,15,0,0
38500.94,-111.111111111111,4,1,0,15,0,0
38519.12,-112.359550561798,4,1,0,15,0,0
38537.3,-113.636363636364,4,1,0,15,0,0
38555.48,-114.942528735632,4,1,0,15,0,0
38573.66,-116.279069767442,4,1,0,15,0,0
38591.84,-119.047619047619,4,1,0,15,0,0
38610.02,-120.481927710843,4,1,0,15,0,0
38628.2,-121.951219512195,4,1,0,15,0,0
38646.38,-123.456790123457,4,1,0,15,0,0
38664.56,-125,4,1,0,15,0,0
38682.74,-128.205128205128,4,1,0,15,0,0
38700.92,-129.87012987013,4,1,0,15,0,0
38719.1,-131.578947368421,4,1,0,15,0,0
38737.28,-133.333333333333,4,1,0,15,0,0
38755.46,-135.135135135135,4,1,0,15,0,0
38773.64,-138.888888888889,4,1,0,15,0,0
38791.82,-140.845070422535,4,1,0,15,0,0
38810,-142.857142857143,4,1,0,15,0,0
41593,-76.9230769230769,4,1,0,15,0,0
41611.18,-77.5193798449612,4,1,0,15,0,0
41629.36,-78.125,4,1,0,15,0,0
41647.54,-79.3650793650794,4,1,0,15,0,0
41665.72,-80,4,1,0,15,0,0
41683.9,-80.6451612903226,4,1,0,15,0,0
41702.08,-81.3008130081301,4,1,0,15,0,0
41720.26,-81.9672131147541,4,1,0,15,0,0
41738.44,-83.3333333333333,4,1,0,15,0,0
41756.62,-84.0336134453782,4,1,0,15,0,0
41774.8,-84.7457627118644,4,1,0,15,0,0
41792.98,-85.4700854700855,4,1,0,15,0,0
41811.16,-86.2068965517241,4,1,0,15,0,0
41829.34,-87.719298245614,4,1,0,15,0,0
41847.52,-88.495575221239,4,1,0,15,0,0
41865.7,-89.2857142857143,4,1,0,15,0,0
41883.88,-90.0900900900901,4,1,0,15,0,0
41902.06,-90.9090909090909,4,1,0,15,0,0
41920.24,-92.5925925925926,4,1,0,15,0,0
41938.42,-93.4579439252336,4,1,0,15,0,0
41956.6,-94.3396226415094,4,1,0,15,0,0
41974.78,-95.2380952380952,4,1,0,15,0,0
41992.96,-96.1538461538461,4,1,0,15,0,0
42011.14,-98.0392156862745,4,1,0,15,0,0
42029.32,-99.009900990099,4,1,0,15,0,0
42047.5,-100,4,1,0,15,0,0
42065.68,-101.010101010101,4,1,0,15,0,0
42083.86,-102.040816326531,4,1,0,15,0,0
42102.04,-104.166666666667,4,1,0,15,0,0
42120.22,-105.263157894737,4,1,0,15,0,0
42138.4,-106.382978723404,4,1,0,15,0,0
42156.58,-107.52688172043,4,1,0,15,0,0
42174.76,-108.695652173913,4,1,0,15,0,0
42192.94,-111.111111111111,4,1,0,15,0,0
42211.12,-112.359550561798,4,1,0,15,0,0
42229.3,-113.636363636364,4,1,0,15,0,0
42247.48,-114.942528735632,4,1,0,15,0,0
42265.66,-116.279069767442,4,1,0,15,0,0
42283.84,-119.047619047619,4,1,0,15,0,0
42302.02,-120.481927710843,4,1,0,15,0,0
42320.2,-121.951219512195,4,1,0,15,0,0
42338.38,-123.456790123457,4,1,0,15,0,0
42356.56,-125,4,1,0,15,0,0
42374.74,-128.205128205128,4,1,0,15,0,0
42392.92,-129.87012987013,4,1,0,15,0,0
42411.1,-131.578947368421,4,1,0,15,0,0
42429.28,-133.333333333333,4,1,0,15,0,0
42447.46,-135.135135135135,4,1,0,15,0,0
42465.64,-138.888888888889,4,1,0,15,0,0
42483.82,-140.845070422535,4,1,0,15,0,0
42502,-142.857142857143,4,1,0,15,0,0
43901,-142.857142857143,4,1,0,15,0,0
43928.28,-140.845070422535,4,1,0,15,0,0
43955.56,-136.986301369863,4,1,0,15,0,0
43982.84,-135.135135135135,4,1,0,15,0,0
44010.12,-131.578947368421,4,1,0,15,0,0
44037.4,-129.87012987013,4,1,0,15,0,0
44064.68,-128.205128205128,4,1,0,15,0,0
44091.96,-125,4,1,0,15,0,0
44119.24,-123.456790123457,4,1,0,15,0,0
44146.52,-121.951219512195,4,1,0,15,0,0
44173.8,-119.047619047619,4,1,0,15,0,0
44201.08,-117.647058823529,4,1,0,15,0,0
44228.36,-114.942528735632,4,1,0,15,0,0
44255.64,-113.636363636364,4,1,0,15,0,0
44282.92,-112.359550561798,4,1,0,15,0,0
44310.2,-109.89010989011,4,1,0,15,0,0
44337.48,-108.695652173913,4,1,0,15,0,0
44364.76,-107.52688172043,4,1,0,15,0,0
44392.04,-105.263157894737,4,1,0,15,0,0
44419.32,-104.166666666667,4,1,0,15,0,0
44446.6,-102.040816326531,4,1,0,15,0,0
44473.88,-101.010101010101,4,1,0,15,0,0
44501.16,-100,4,1,0,15,0,0
44528.44,-98.0392156862745,4,1,0,15,0,0
44555.72,-97.0873786407767,4,1,0,15,0,0
44583,-95.2380952380952,4,1,0,15,0,0
44610.28,-94.3396226415094,4,1,0,15,0,0
44637.56,-93.4579439252336,4,1,0,15,0,0
44664.84,-91.743119266055,4,1,0,15,0,0
44692.12,-90.9090909090909,4,1,0,15,0,0
44719.4,-90.0900900900901,4,1,0,15,0,0
44746.68,-88.495575221239,4,1,0,15,0,0
44773.96,-87.719298245614,4,1,0,15,0,0
44801.24,-86.2068965517241,4,1,0,15,0,0
44828.52,-85.4700854700855,4,1,0,15,0,0
44855.8,-84.7457627118644,4,1,0,15,0,0
44883.08,-83.3333333333333,4,1,0,15,0,0
44910.36,-82.6446280991736,4,1,0,15,0,0
44937.64,-81.9672131147541,4,1,0,15,0,0
44964.92,-80.6451612903226,4,1,0,15,0,0
44992.2,-80,4,1,0,15,0,0
45019.48,-78.740157480315,4,1,0,15,0,0
45046.76,-78.125,4,1,0,15,0,0
45074.04,-77.5193798449612,4,1,0,15,0,0
45101.32,-76.3358778625954,4,1,0,15,0,0
45128.6,-75.7575757575758,4,1,0,15,0,0
45155.88,-75.187969924812,4,1,0,15,0,0
45183.16,-74.0740740740741,4,1,0,15,0,0
45210.44,-73.5294117647059,4,1,0,15,0,0
45237.72,-72.463768115942,4,1,0,15,0,0
45265,-71.9424460431655,4,1,0,15,0,0
45285,-71.4285714285714,4,1,0,60,0,0
45296.5,-74.0740740740741,4,1,0,60,0,0
45308,-76.9230769230769,4,1,0,60,0,0
45319.5,-80,4,1,0,60,0,0
45331,-83.3333333333333,4,1,0,60,0,0
45342.5,-86.9565217391304,4,1,0,60,0,0
45354,-90.9090909090909,4,1,0,60,0,0
45365.5,-95.2380952380952,4,1,0,60,0,0
45377,-100,4,1,0,60,0,0
45388.5,-105.263157894737,4,1,0,60,0,0
45400,-111.111111111111,4,1,0,60,0,0
45411.5,-117.647058823529,4,1,0,60,0,0
45423,-125,4,1,0,60,0,0
45434.5,-133.333333333333,4,1,0,60,0,0
45446,-142.857142857143,4,1,0,60,0,0
45457.5,-153.846153846154,4,1,0,60,0,0
45469,-166.666666666667,4,1,0,60,0,0
45480.5,-181.818181818182,4,1,0,60,0,0
45492,-200,4,1,0,60,0,0
45503.5,-222.222222222222,4,1,0,60,0,0
45515,-250,4,1,0,60,0,0
45746,-71.4285714285714,4,1,0,60,0,0
45757.5,-74.0740740740741,4,1,0,60,0,0
45769,-76.9230769230769,4,1,0,60,0,0
45780.5,-80,4,1,0,60,0,0
45792,-83.3333333333333,4,1,0,60,0,0
45803.5,-86.9565217391304,4,1,0,60,0,0
45815,-90.9090909090909,4,1,0,60,0,0
45826.5,-95.2380952380952,4,1,0,60,0,0
45838,-100,4,1,0,60,0,0
45849.5,-105.263157894737,4,1,0,60,0,0
45861,-111.111111111111,4,1,0,60,0,0
45872.5,-117.647058823529,4,1,0,60,0,0
45884,-125,4,1,0,60,0,0
45895.5,-133.333333333333,4,1,0,60,0,0
45907,-142.857142857143,4,1,0,60,0,0
45918.5,-153.846153846154,4,1,0,60,0,0
45930,-166.666666666667,4,1,0,60,0,0
45941.5,-181.818181818182,4,1,0,60,0,0
45953,-200,4,1,0,60,0,0
45964.5,-222.222222222222,4,1,0,60,0,0
45976,-250,4,1,0,60,0,0
46208,-71.4285714285714,4,1,0,60,0,0
46219.5,-74.0740740740741,4,1,0,60,0,0
46231,-76.9230769230769,4,1,0,60,0,0
46242.5,-80,4,1,0,60,0,0
46254,-83.3333333333333,4,1,0,60,0,0
46265.5,-86.9565217391304,4,1,0,60,0,0
46277,-90.9090909090909,4,1,0,60,0,0
46288.5,-95.2380952380952,4,1,0,60,0,0
46300,-100,4,1,0,60,0,0
46311.5,-105.263157894737,4,1,0,60,0,0
46323,-111.111111111111,4,1,0,60,0,0
46334.5,-117.647058823529,4,1,0,60,0,0
46346,-125,4,1,0,60,0,0
46357.5,-133.333333333333,4,1,0,60,0,0
46369,-142.857142857143,4,1,0,60,0,0
46380.5,-153.846153846154,4,1,0,60,0,0
46392,-166.666666666667,4,1,0,60,0,0
46403.5,-181.818181818182,4,1,0,60,0,0
46415,-200,4,1,0,60,0,0
46426.5,-222.222222222222,4,1,0,60,0,0
46438,-250,4,1,0,60,0,0
46669,-71.4285714285714,4,1,0,60,0,0
46680.5,-74.0740740740741,4,1,0,60,0,0
46692,-76.9230769230769,4,1,0,60,0,0
46703.5,-80,4,1,0,60,0,0
46715,-83.3333333333333,4,1,0,60,0,0
46726.5,-86.9565217391304,4,1,0,60,0,0
46738,-90.9090909090909,4,1,0,60,0,0
46749.5,-95.2380952380952,4,1,0,60,0,0
46761,-100,4,1,0,60,0,0
46772.5,-105.263157894737,4,1,0,60,0,0
46784,-111.111111111111,4,1,0,60,0,0
46795.5,-117.647058823529,4,1,0,60,0,0
46807,-125,4,1,0,60,0,0
46818.5,-133.333333333333,4,1,0,60,0,0
46830,-142.857142857143,4,1,0,60,0,0
46841.5,-153.846153846154,4,1,0,60,0,0
46853,-166.666666666667,4,1,0,60,0,0
46864.5,-181.818181818182,4,1,0,60,0,0
46876,-200,4,1,0,60,0,0
46887.5,-222.222222222222,4,1,0,60,0,0
46899,-250,4,1,0,60,0,0
47131,-71.4285714285714,4,1,0,60,0,0
47142.5,-74.0740740740741,4,1,0,60,0,0
47154,-76.9230769230769,4,1,0,60,0,0
47165.5,-80,4,1,0,60,0,0
47177,-83.3333333333333,4,1,0,60,0,0
47188.5,-86.9565217391304,4,1,0,60,0,0
47200,-90.9090909090909,4,1,0,60,0,0
47211.5,-95.2380952380952,4,1,0,60,0,0
47223,-100,4,1,0,60,0,0
47234.5,-105.263157894737,4,1,0,60,0,0
47246,-111.111111111111,4,1,0,60,0,0
47257.5,-117.647058823529,4,1,0,60,0,0
47269,-125,4,1,0,60,0,0
47280.5,-133.333333333333,4,1,0,60,0,0
47292,-142.857142857143,4,1,0,60,0,0
47303.5,-153.846153846154,4,1,0,60,0,0
47315,-166.666666666667,4,1,0,60,0,0
47326.5,-181.818181818182,4,1,0,60,0,0
47338,-200,4,1,0,60,0,0
47349.5,-222.222222222222,4,1,0,60,0,0
47361,-250,4,1,0,60,0,0
47592,-71.4285714285714,4,1,0,60,0,0
47603.5,-74.0740740740741,4,1,0,60,0,0
47615,-76.9230769230769,4,1,0,60,0,0
47626.5,-80,4,1,0,60,0,0
47638,-83.3333333333333,4,1,0,60,0,0
47649.5,-86.9565217391304,4,1,0,60,0,0
47661,-90.9090909090909,4,1,0,60,0,0
47672.5,-95.2380952380952,4,1,0,60,0,0
47684,-100,4,1,0,60,0,0
47695.5,-105.263157894737,4,1,0,60,0,0
47707,-111.111111111111,4,1,0,60,0,0
47718.5,-117.647058823529,4,1,0,60,0,0
47730,-125,4,1,0,60,0,0
47741.5,-133.333333333333,4,1,0,60,0,0
47753,-142.857142857143,4,1,0,60,0,0
47764.5,-153.846153846154,4,1,0,60,0,0
47776,-166.666666666667,4,1,0,60,0,0
47787.5,-181.818181818182,4,1,0,60,0,0
47799,-200,4,1,0,60,0,0
47810.5,-222.222222222222,4,1,0,60,0,0
47822,-250,4,1,0,60,0,0
48054,-71.4285714285714,4,1,0,60,0,0
48065.5,-74.0740740740741,4,1,0,60,0,0
48077,-76.9230769230769,4,1,0,60,0,0
48088.5,-80,4,1,0,60,0,0
48100,-83.3333333333333,4,1,0,60,0,0
48111.5,-86.9565217391304,4,1,0,60,0,0
48123,-90.9090909090909,4,1,0,60,0,0
48134.5,-95.2380952380952,4,1,0,60,0,0
48146,-100,4,1,0,60,0,0
48157.5,-105.263157894737,4,1,0,60,0,0
48169,-111.111111111111,4,1,0,60,0,0
48180.5,-117.647058823529,4,1,0,60,0,0
48192,-125,4,1,0,60,0,0
48203.5,-133.333333333333,4,1,0,60,0,0
48215,-142.857142857143,4,1,0,60,0,0
48226.5,-153.846153846154,4,1,0,60,0,0
48238,-166.666666666667,4,1,0,60,0,0
48249.5,-181.818181818182,4,1,0,60,0,0
48261,-200,4,1,0,60,0,0
48272.5,-222.222222222222,4,1,0,60,0,0
48284,-250,4,1,0,60,0,0
48515,-71.4285714285714,4,1,0,60,0,0
48526.5,-74.0740740740741,4,1,0,60,0,0
48538,-76.9230769230769,4,1,0,60,0,0
48549.5,-80,4,1,0,60,0,0
48561,-83.3333333333333,4,1,0,60,0,0
48572.5,-86.9565217391304,4,1,0,60,0,0
48584,-90.9090909090909,4,1,0,60,0,0
48595.5,-95.2380952380952,4,1,0,60,0,0
48607,-100,4,1,0,60,0,0
48618.5,-105.263157894737,4,1,0,60,0,0
48630,-111.111111111111,4,1,0,60,0,0
48641.5,-117.647058823529,4,1,0,60,0,0
48653,-125,4,1,0,60,0,0
48664.5,-133.333333333333,4,1,0,60,0,0
48676,-142.857142857143,4,1,0,60,0,0
48687.5,-153.846153846154,4,1,0,60,0,0
48699,-166.666666666667,4,1,0,60,0,0
48710.5,-181.818181818182,4,1,0,60,0,0
48722,-200,4,1,0,60,0,0
48733.5,-222.222222222222,4,1,0,60,0,0
48745,-250,4,1,0,60,0,0
48977,-71.4285714285714,4,1,0,60,0,0
48988.5,-74.0740740740741,4,1,0,60,0,0
49000,-76.9230769230769,4,1,0,60,0,0
49011.5,-80,4,1,0,60,0,0
49023,-83.3333333333333,4,1,0,60,0,0
49034.5,-86.9565217391304,4,1,0,60,0,0
49046,-90.9090909090909,4,1,0,60,0,0
49057.5,-95.2380952380952,4,1,0,60,0,0
49069,-100,4,1,0,60,0,0
49080.5,-105.263157894737,4,1,0,60,0,0
49092,-111.111111111111,4,1,0,60,0,0
49103.5,-117.647058823529,4,1,0,60,0,0
49115,-125,4,1,0,60,0,0
49126.5,-133.333333333333,4,1,0,60,0,0
49138,-142.857142857143,4,1,0,60,0,0
49149.5,-153.846153846154,4,1,0,60,0,0
49161,-166.666666666667,4,1,0,60,0,0
49172.5,-181.818181818182,4,1,0,60,0,0
49184,-200,4,1,0,60,0,0
49195.5,-222.222222222222,4,1,0,60,0,0
49207,-250,4,1,0,60,0,0
49438,-71.4285714285714,4,1,0,60,0,0
49449.5,-74.0740740740741,4,1,0,60,0,0
49461,-76.9230769230769,4,1,0,60,0,0
49472.5,-80,4,1,0,60,0,0
49484,-83.3333333333333,4,1,0,60,0,0
49495.5,-86.9565217391304,4,1,0,60,0,0
49507,-90.9090909090909,4,1,0,60,0,0
49518.5,-95.2380952380952,4,1,0,60,0,0
49530,-100,4,1,0,60,0,0
49541.5,-105.263157894737,4,1,0,60,0,0
49553,-111.111111111111,4,1,0,60,0,0
49564.5,-117.647058823529,4,1,0,60,0,0
49576,-125,4,1,0,60,0,0
49587.5,-133.333333333333,4,1,0,60,0,0
49599,-142.857142857143,4,1,0,60,0,0
49610.5,-153.846153846154,4,1,0,60,0,0
49622,-166.666666666667,4,1,0,60,0,0
49633.5,-181.818181818182,4,1,0,60,0,0
49645,-200,4,1,0,60,0,0
49656.5,-222.222222222222,4,1,0,60,0,0
49668,-250,4,1,0,60,0,0
49900,-71.4285714285714,4,1,0,60,0,0
49911.5,-74.0740740740741,4,1,0,60,0,0
49923,-76.9230769230769,4,1,0,60,0,0
49934.5,-80,4,1,0,60,0,0
49946,-83.3333333333333,4,1,0,60,0,0
49957.5,-86.9565217391304,4,1,0,60,0,0
49969,-90.9090909090909,4,1,0,60,0,0
49980.5,-95.2380952380952,4,1,0,60,0,0
49992,-100,4,1,0,60,0,0
50003.5,-105.263157894737,4,1,0,60,0,0
50015,-111.111111111111,4,1,0,60,0,0
50026.5,-117.647058823529,4,1,0,60,0,0
50038,-125,4,1,0,60,0,0
50049.5,-133.333333333333,4,1,0,60,0,0
50061,-142.857142857143,4,1,0,60,0,0
50072.5,-153.846153846154,4,1,0,60,0,0
50084,-166.666666666667,4,1,0,60,0,0
50095.5,-181.818181818182,4,1,0,60,0,0
50107,-200,4,1,0,60,0,0
50118.5,-222.222222222222,4,1,0,60,0,0
50130,-250,4,1,0,60,0,0
50361,-71.4285714285714,4,1,0,60,0,0
50372.5,-74.0740740740741,4,1,0,60,0,0
50384,-76.9230769230769,4,1,0,60,0,0
50395.5,-80,4,1,0,60,0,0
50407,-83.3333333333333,4,1,0,60,0,0
50418.5,-86.9565217391304,4,1,0,60,0,0
50430,-90.9090909090909,4,1,0,60,0,0
50441.5,-95.2380952380952,4,1,0,60,0,0
50453,-100,4,1,0,60,0,0
50464.5,-105.263157894737,4,1,0,60,0,0
50476,-111.111111111111,4,1,0,60,0,0
50487.5,-117.647058823529,4,1,0,60,0,0
50499,-125,4,1,0,60,0,0
50510.5,-133.333333333333,4,1,0,60,0,0
50522,-142.857142857143,4,1,0,60,0,0
50533.5,-153.846153846154,4,1,0,60,0,0
50545,-166.666666666667,4,1,0,60,0,0
50556.5,-181.818181818182,4,1,0,60,0,0
50568,-200,4,1,0,60,0,0
50579.5,-222.222222222222,4,1,0,60,0,0
50591,-250,4,1,0,60,0,0
50823,-71.4285714285714,4,1,0,60,0,0
50834.5,-74.0740740740741,4,1,0,60,0,0
50846,-76.9230769230769,4,1,0,60,0,0
50857.5,-80,4,1,0,60,0,0
50869,-83.3333333333333,4,1,0,60,0,0
50880.5,-86.9565217391304,4,1,0,60,0,0
50892,-90.9090909090909,4,1,0,60,0,0
50903.5,-95.2380952380952,4,1,0,60,0,0
50915,-100,4,1,0,60,0,0
50926.5,-105.263157894737,4,1,0,60,0,0
50938,-111.111111111111,4,1,0,60,0,0
50949.5,-117.647058823529,4,1,0,60,0,0
50961,-125,4,1,0,60,0,0
50972.5,-133.333333333333,4,1,0,60,0,0
50984,-142.857142857143,4,1,0,60,0,0
50995.5,-153.846153846154,4,1,0,60,0,0
51007,-166.666666666667,4,1,0,60,0,0
51018.5,-181.818181818182,4,1,0,60,0,0
51030,-200,4,1,0,60,0,0
51041.5,-222.222222222222,4,1,0,60,0,0
51053,-250,4,1,0,60,0,0
51285,-71.4285714285714,4,1,0,60,0,0
51296.5,-74.0740740740741,4,1,0,60,0,0
51308,-76.9230769230769,4,1,0,60,0,0
51319.5,-80,4,1,0,60,0,0
51331,-83.3333333333333,4,1,0,60,0,0
51342.5,-86.9565217391304,4,1,0,60,0,0
51354,-90.9090909090909,4,1,0,60,0,0
51365.5,-95.2380952380952,4,1,0,60,0,0
51377,-100,4,1,0,60,0,0
51388.5,-105.263157894737,4,1,0,60,0,0
51400,-111.111111111111,4,1,0,60,0,0
51411.5,-117.647058823529,4,1,0,60,0,0
51423,-125,4,1,0,60,0,0
51434.5,-133.333333333333,4,1,0,60,0,0
51446,-142.857142857143,4,1,0,60,0,0
51457.5,-153.846153846154,4,1,0,60,0,0
51469,-166.666666666667,4,1,0,60,0,0
51480.5,-181.818181818182,4,1,0,60,0,0
51492,-200,4,1,0,60,0,0
51503.5,-222.222222222222,4,1,0,60,0,0
51515,-250,4,1,0,60,0,0
51746,-71.4285714285714,4,1,0,60,0,0
51757.5,-74.0740740740741,4,1,0,60,0,0
51769,-76.9230769230769,4,1,0,60,0,0
51780.5,-80,4,1,0,60,0,0
51792,-83.3333333333333,4,1,0,60,0,0
51803.5,-86.9565217391304,4,1,0,60,0,0
51815,-90.9090909090909,4,1,0,60,0,0
51826.5,-95.2380952380952,4,1,0,60,0,0
51838,-100,4,1,0,60,0,0
51849.5,-105.263157894737,4,1,0,60,0,0
51861,-111.111111111111,4,1,0,60,0,0
51872.5,-117.647058823529,4,1,0,60,0,0
51884,-125,4,1,0,60,0,0
51895.5,-133.333333333333,4,1,0,60,0,0
51907,-142.857142857143,4,1,0,60,0,0
51918.5,-153.846153846154,4,1,0,60,0,0
51930,-166.666666666667,4,1,0,60,0,0
51941.5,-181.818181818182,4,1,0,60,0,0
51953,-200,4,1,0,60,0,0
51964.5,-222.222222222222,4,1,0,60,0,0
51976,-250,4,1,0,60,0,0
52208,-71.4285714285714,4,1,0,60,0,0
52219.5,-74.0740740740741,4,1,0,60,0,0
52231,-76.9230769230769,4,1,0,60,0,0
52242.5,-80,4,1,0,60,0,0
52254,-83.3333333333333,4,1,0,60,0,0
52265.5,-86.9565217391304,4,1,0,60,0,0
52277,-90.9090909090909,4,1,0,60,0,0
52288.5,-95.2380952380952,4,1,0,60,0,0
52300,-100,4,1,0,60,0,0
52311.5,-105.263157894737,4,1,0,60,0,0
52323,-111.111111111111,4,1,0,60,0,0
52334.5,-117.647058823529,4,1,0,60,0,0
52346,-125,4,1,0,60,0,0
52357.5,-133.333333333333,4,1,0,60,0,0
52369,-142.857142857143,4,1,0,60,0,0
52380.5,-153.846153846154,4,1,0,60,0,0
52392,-166.666666666667,4,1,0,60,0,0
52403.5,-181.818181818182,4,1,0,60,0,0
52415,-200,4,1,0,60,0,0
52426.5,-222.222222222222,4,1,0,60,0,0
52439,-33.3333333333333,4,1,0,60,0,0
52458,-1000,4,1,0,60,0,0
52516,-33.3333333333333,4,1,0,60,0,0
52535,-1000,4,1,0,60,0,0
52593,-33.3333333333333,4,1,0,60,0,0
52612,-1000,4,1,0,60,0,0
52670,-20,4,1,0,60,0,0
52680,-1000,4,1,0,60,0,0
52786,-20,4,1,0,60,0,0
52796,-1000,4,1,0,60,0,0
52901,-20,4,1,0,60,0,0
52911,-1000,4,1,0,60,0,0
53016,-20,4,1,0,60,0,0
53026,-1000,4,1,0,60,0,0
53132,-20,4,1,0,60,0,0
53142,-1000,4,1,0,60,0,0
53248,-20,4,1,0,60,0,0
53258,-1000,4,1,0,60,0,0
53363,-20,4,1,0,60,0,0
53373,-1000,4,1,0,60,0,0
53478,-20,4,1,0,60,0,0
53488,-1000,4,1,0,60,0,0
53593,-16.6666666666667,4,1,0,60,0,0
53603,-1000,4,1,0,60,0,0
53709,-16.6666666666667,4,1,0,60,0,0
53719,-1000,4,1,0,60,0,0
53824,-16.6666666666667,4,1,0,60,0,0
53834,-1000,4,1,0,60,0,0
53939,-16.6666666666667,4,1,0,60,0,0
53949,-1000,4,1,0,60,0,0
54055,-16.6666666666667,4,1,0,60,0,0
54065,-1000,4,1,0,60,0,0
54171,-16.6666666666667,4,1,0,60,0,0
54181,-1000,4,1,0,60,0,0
54286,-16.6666666666667,4,1,0,60,0,0
54296,-1000,4,1,0,60,0,0
54401,-16.6666666666667,4,1,0,60,0,0
54411,-1000,4,1,0,60,0,0
54516,-14.2857142857143,4,1,0,60,0,0
54526,-1000,4,1,0,60,0,0
54632,-14.2857142857143,4,1,0,60,0,0
54642,-1000,4,1,0,60,0,0
54747,-14.2857142857143,4,1,0,60,0,0
54757,-1000,4,1,0,60,0,0
54862,-14.2857142857143,4,1,0,60,0,0
54872,-1000,4,1,0,60,0,0
54978,-14.2857142857143,4,1,0,60,0,0
54988,-1000,4,1,0,60,0,0
55094,-14.2857142857143,4,1,0,60,0,0
55104,-1000,4,1,0,60,0,0
55209,-14.2857142857143,4,1,0,60,0,0
55219,-1000,4,1,0,60,0,0
55324,-14.2857142857143,4,1,0,60,0,0
55334,-1000,4,1,0,60,0,0
55439,-12.5,4,1,0,60,0,0
55449,-1000,4,1,0,60,0,0
55555,-12.5,4,1,0,60,0,0
55565,-1000,4,1,0,60,0,0
55670,-12.5,4,1,0,60,0,0
55680,-1000,4,1,0,60,0,0
55785,-12.5,4,1,0,60,0,0
55795,-1000,4,1,0,60,0,0
55901,-12.5,4,1,0,60,0,0
55911,-1000,4,1,0,60,0,0
56017,-12.5,4,1,0,60,0,0
56027,-1000,4,1,0,60,0,0
56132,-12.5,4,1,0,60,0,0
56142,-1000,4,1,0,60,0,0
56247,-12.5,4,1,0,60,0,0
56257,-1000,4,1,0,60,0,0
56362,-41.6666666666667,4,1,0,60,0,0
56420,-1000,4,1,0,60,0,0
56478,-41.6666666666667,4,1,0,60,0,0
56536,-1000,4,1,0,60,0,0
56593,-41.6666666666667,4,1,0,60,0,0
56651,-1000,4,1,0,60,0,0
56709,-41.6666666666667,4,1,0,60,0,0
56767,-1000,4,1,0,60,0,0
56824,-41.6666666666667,4,1,0,60,0,0
56882,-1000,4,1,0,60,0,0
56939,-41.6666666666667,4,1,0,60,0,0
56997,-1000,4,1,0,60,0,0
57055,-41.6666666666667,4,1,0,60,0,0
57113,-1000,4,1,0,60,0,0
57170,-41.6666666666667,4,1,0,60,0,0
57228,-1000,4,1,0,60,0,0
57286,-41.6666666666667,4,1,0,60,0,0
57344,-1000,4,1,0,60,0,0
57402,-41.6666666666667,4,1,0,60,0,0
57460,-1000,4,1,0,60,0,0
57517,-41.6666666666667,4,1,0,60,0,0
57575,-1000,4,1,0,60,0,0
57633,-41.6666666666667,4,1,0,60,0,0
57691,-1000,4,1,0,60,0,0
57748,-41.6666666666667,4,1,0,60,0,0
57806,-1000,4,1,0,60,0,0
57863,-41.6666666666667,4,1,0,60,0,0
57921,-1000,4,1,0,60,0,0
57979,-41.6666666666667,4,1,0,60,0,0
58037,-1000,4,1,0,60,0,0
58094,-41.6666666666667,4,1,0,60,0,0
58152,-1000,4,1,0,60,0,0
58208,-100,4,1,0,15,0,0
58240.32,-102.040816326531,4,1,0,15,0,0
58272.64,-103.092783505155,4,1,0,15,0,0
58304.96,-105.263157894737,4,1,0,15,0,0
58337.28,-106.382978723404,4,1,0,15,0,0
58369.6,-108.695652173913,4,1,0,15,0,0
58401.92,-111.111111111111,4,1,0,15,0,0
58434.24,-112.359550561798,4,1,0,15,0,0
58466.56,-114.942528735632,4,1,0,15,0,0
58498.88,-116.279069767442,4,1,0,15,0,0
58531.2,-119.047619047619,4,1,0,15,0,0
58563.52,-121.951219512195,4,1,0,15,0,0
58595.84,-123.456790123457,4,1,0,15,0,0
58628.16,-126.582278481013,4,1,0,15,0,0
58660.48,-128.205128205128,4,1,0,15,0,0
58692.8,-131.578947368421,4,1,0,15,0,0
58725.12,-135.135135135135,4,1,0,15,0,0
58757.44,-136.986301369863,4,1,0,15,0,0
58789.76,-140.845070422535,4,1,0,15,0,0
58822.08,-142.857142857143,4,1,0,15,0,0
58854.4,-147.058823529412,4,1,0,15,0,0
58886.72,-151.515151515152,4,1,0,15,0,0
58919.04,-153.846153846154,4,1,0,15,0,0
58951.36,-158.730158730159,4,1,0,15,0,0
58983.68,-161.290322580645,4,1,0,15,0,0
59016,-166.666666666667,4,1,0,15,0,0
59048.32,-172.413793103448,4,1,0,15,0,0
59080.64,-175.438596491228,4,1,0,15,0,0
59112.96,-181.818181818182,4,1,0,15,0,0
59145.28,-185.185185185185,4,1,0,15,0,0
59177.6,-192.307692307692,4,1,0,15,0,0
59209.92,-200,4,1,0,15,0,0
59242.24,-204.081632653061,4,1,0,15,0,0
59274.56,-212.765957446809,4,1,0,15,0,0
59306.88,-217.391304347826,4,1,0,15,0,0
59339.2,-227.272727272727,4,1,0,15,0,0
59371.52,-238.095238095238,4,1,0,15,0,0
59403.84,-243.90243902439,4,1,0,15,0,0
59436.16,-256.410256410256,4,1,0,15,0,0
59468.48,-263.157894736842,4,1,0,15,0,0
59500.8,-277.777777777778,4,1,0,15,0,0
59533.12,-294.117647058824,4,1,0,15,0,0
59565.44,-303.030303030303,4,1,0,15,0,0
59597.76,-322.58064516129,4,1,0,15,0,0
59630.08,-333.333333333333,4,1,0,15,0,0
59662.4,-357.142857142857,4,1,0,15,0,0
59694.72,-384.615384615385,4,1,0,15,0,0
59727.04,-400,4,1,0,15,0,0
59759.36,-434.782608695652,4,1,0,15,0,0
59791.68,-454.545454545455,4,1,0,15,0,0
59824,-500,4,1,0,15,0,0
60039,-10,4,1,0,60,0,0
60054,-40,4,1,0,60,0,0
60066,-42.0168067226891,4,1,0,60,0,0
60077,-44.4444444444444,4,1,0,60,0,0
60089,-46.9483568075117,4,1,0,60,0,0
60100,-50,4,1,0,60,0,0
60112,-53.1914893617021,4,1,0,60,0,0
60123,-57.1428571428571,4,1,0,60,0,0
60135,-61.3496932515337,4,1,0,60,0,0
60146,-66.6666666666667,4,1,0,60,0,0
60158,-72.463768115942,4,1,0,60,0,0
60170,-80,4,1,0,60,0,0
60181,-88.495575221239,4,1,0,60,0,0
60193,-99.009900990099,4,1,0,60,0,0
60204,-113.636363636364,4,1,0,60,0,0
60216,-131.578947368421,4,1,0,60,0,0
60227,-158.730158730159,4,1,0,60,0,0
60239,-196.078431372549,4,1,0,60,0,0
60250,-263.157894736842,4,1,0,60,0,0
60262,-384.615384615385,4,1,0,60,0,0
60273,-769.230769230769,4,1,0,60,0,0
60501,-10,4,1,0,60,0,0
60516,-40,4,1,0,60,0,0
60528,-42.0168067226891,4,1,0,60,0,0
60539,-44.4444444444444,4,1,0,60,0,0
60551,-46.9483568075117,4,1,0,60,0,0
60562,-50,4,1,0,60,0,0
60574,-53.1914893617021,4,1,0,60,0,0
60585,-57.1428571428571,4,1,0,60,0,0
60597,-61.3496932515337,4,1,0,60,0,0
60608,-66.6666666666667,4,1,0,60,0,0
60620,-72.463768115942,4,1,0,60,0,0
60632,-80,4,1,0,60,0,0
60643,-88.495575221239,4,1,0,60,0,0
60655,-99.009900990099,4,1,0,60,0,0
60666,-113.636363636364,4,1,0,60,0,0
60678,-131.578947368421,4,1,0,60,0,0
60689,-158.730158730159,4,1,0,60,0,0
60701,-196.078431372549,4,1,0,60,0,0
60712,-263.157894736842,4,1,0,60,0,0
60724,-384.615384615385,4,1,0,60,0,0
60735,-769.230769230769,4,1,0,60,0,0
60963,-10,4,1,0,60,0,0
60978,-40,4,1,0,60,0,0
60990,-42.0168067226891,4,1,0,60,0,0
61001,-44.4444444444444,4,1,0,60,0,0
61013,-46.9483568075117,4,1,0,60,0,0
61024,-50,4,1,0,60,0,0
61036,-53.1914893617021,4,1,0,60,0,0
61047,-57.1428571428571,4,1,0,60,0,0
61059,-61.3496932515337,4,1,0,60,0,0
61070,-66.6666666666667,4,1,0,60,0,0
61082,-72.463768115942,4,1,0,60,0,0
61094,-80,4,1,0,60,0,0
61105,-88.495575221239,4,1,0,60,0,0
61117,-99.009900990099,4,1,0,60,0,0
61128,-113.636363636364,4,1,0,60,0,0
61140,-131.578947368421,4,1,0,60,0,0
61151,-158.730158730159,4,1,0,60,0,0
61163,-196.078431372549,4,1,0,60,0,0
61174,-263.157894736842,4,1,0,60,0,0
61186,-384.615384615385,4,1,0,60,0,0
61197,-769.230769230769,4,1,0,60,0,0
61410,-10,4,1,0,60,0,0
61439,-100,4,1,0,60,0,0
61554,-40,4,1,0,60,0,0
61566,-42.0168067226891,4,1,0,60,0,0
61577,-44.4444444444444,4,1,0,60,0,0
61589,-46.9483568075117,4,1,0,60,0,0
61600,-50,4,1,0,60,0,0
61612,-53.1914893617021,4,1,0,60,0,0
61623,-57.1428571428571,4,1,0,60,0,0
61635,-61.3496932515337,4,1,0,60,0,0
61646,-66.6666666666667,4,1,0,60,0,0
61658,-72.463768115942,4,1,0,60,0,0
61670,-80,4,1,0,60,0,0
61681,-88.495575221239,4,1,0,60,0,0
61693,-99.009900990099,4,1,0,60,0,0
61704,-113.636363636364,4,1,0,60,0,0
61716,-131.578947368421,4,1,0,60,0,0
61727,-158.730158730159,4,1,0,60,0,0
61739,-196.078431372549,4,1,0,60,0,0
61750,-263.157894736842,4,1,0,60,0,0
61762,-384.615384615385,4,1,0,60,0,0
61773,-769.230769230769,4,1,0,60,0,0
61886,-10,4,1,0,60,0,0
61901,-40,4,1,0,60,0,0
61913,-42.0168067226891,4,1,0,60,0,0
61924,-44.4444444444444,4,1,0,60,0,0
61936,-46.9483568075117,4,1,0,60,0,0
61947,-50,4,1,0,60,0,0
61959,-53.1914893617021,4,1,0,60,0,0
61970,-57.1428571428571,4,1,0,60,0,0
61982,-61.3496932515337,4,1,0,60,0,0
61993,-66.6666666666667,4,1,0,60,0,0
62005,-72.463768115942,4,1,0,60,0,0
62017,-80,4,1,0,60,0,0
62028,-88.495575221239,4,1,0,60,0,0
62040,-99.009900990099,4,1,0,60,0,0
62051,-113.636363636364,4,1,0,60,0,0
62063,-131.578947368421,4,1,0,60,0,0
62074,-158.730158730159,4,1,0,60,0,0
62086,-196.078431372549,4,1,0,60,0,0
62097,-263.157894736842,4,1,0,60,0,0
62109,-384.615384615385,4,1,0,60,0,0
62120,-769.230769230769,4,1,0,60,0,0
62347,-10,4,1,0,60,0,0
62362,-40,4,1,0,60,0,0
62374,-42.0168067226891,4,1,0,60,0,0
62385,-44.4444444444444,4,1,0,60,0,0
62397,-46.9483568075117,4,1,0,60,0,0
62408,-50,4,1,0,60,0,0
62420,-53.1914893617021,4,1,0,60,0,0
62431,-57.1428571428571,4,1,0,60,0,0
62443,-61.3496932515337,4,1,0,60,0,0
62454,-66.6666666666667,4,1,0,60,0,0
62466,-72.463768115942,4,1,0,60,0,0
62478,-80,4,1,0,60,0,0
62489,-88.495575221239,4,1,0,60,0,0
62501,-99.009900990099,4,1,0,60,0,0
62512,-113.636363636364,4,1,0,60,0,0
62524,-131.578947368421,4,1,0,60,0,0
62535,-158.730158730159,4,1,0,60,0,0
62547,-196.078431372549,4,1,0,60,0,0
62558,-263.157894736842,4,1,0,60,0,0
62570,-384.615384615385,4,1,0,60,0,0
62581,-769.230769230769,4,1,0,60,0,0
62809,-10,4,1,0,60,0,0
62824,-40,4,1,0,60,0,0
62836,-42.0168067226891,4,1,0,60,0,0
62847,-44.4444444444444,4,1,0,60,0,0
62859,-46.9483568075117,4,1,0,60,0,0
62870,-50,4,1,0,60,0,0
62882,-53.1914893617021,4,1,0,60,0,0
62893,-57.1428571428571,4,1,0,60,0,0
62905,-61.3496932515337,4,1,0,60,0,0
62916,-66.6666666666667,4,1,0,60,0,0
62928,-72.463768115942,4,1,0,60,0,0
62940,-80,4,1,0,60,0,0
62951,-88.495575221239,4,1,0,60,0,0
62963,-99.009900990099,4,1,0,60,0,0
62974,-113.636363636364,4,1,0,60,0,0
62986,-131.578947368421,4,1,0,60,0,0
62997,-158.730158730159,4,1,0,60,0,0
63009,-196.078431372549,4,1,0,60,0,0
63020,-263.157894736842,4,1,0,60,0,0
63032,-384.615384615385,4,1,0,60,0,0
63043,-769.230769230769,4,1,0,60,0,0
63270,-10,4,1,0,60,0,0
63285,-40,4,1,0,60,0,0
63299,-333.333333333333,4,1,0,60,0,0
63314,-40,4,1,0,60,0,0
63328,-333.333333333333,4,1,0,60,0,0
63343,-40,4,1,0,60,0,0
63357,-333.333333333333,4,1,0,60,0,0
63372,-40,4,1,0,60,0,0
63386,-333.333333333333,4,1,0,60,0,0
63401,-40,4,1,0,60,0,0
63415,-333.333333333333,4,1,0,60,0,0
63430,-40,4,1,0,60,0,0
63444,-333.333333333333,4,1,0,60,0,0
63459,-40,4,1,0,60,0,0
63473,-333.333333333333,4,1,0,60,0,0
63488,-40,4,1,0,60,0,0
63502,-333.333333333333,4,1,0,60,0,0
63516,-40,4,1,0,60,0,0
63530,-333.333333333333,4,1,0,60,0,0
63545,-40,4,1,0,60,0,0
63559,-333.333333333333,4,1,0,60,0,0
63574,-40,4,1,0,60,0,0
63588,-333.333333333333,4,1,0,60,0,0
63603,-40,4,1,0,60,0,0
63617,-333.333333333333,4,1,0,60,0,0
63631,-40,4,1,0,60,0,0
63645,-333.333333333333,4,1,0,60,0,0
63660,-40,4,1,0,60,0,0
63674,-333.333333333333,4,1,0,60,0,0
63689,-40,4,1,0,60,0,0
63703,-333.333333333333,4,1,0,60,0,0
63732,-10,4,1,0,60,0,0
63747,-40,4,1,0,60,0,0
63759,-42.0168067226891,4,1,0,60,0,0
63770,-44.4444444444444,4,1,0,60,0,0
63782,-46.9483568075117,4,1,0,60,0,0
63793,-50,4,1,0,60,0,0
63805,-53.1914893617021,4,1,0,60,0,0
63816,-57.1428571428571,4,1,0,60,0,0
63828,-61.3496932515337,4,1,0,60,0,0
63839,-66.6666666666667,4,1,0,60,0,0
63851,-72.463768115942,4,1,0,60,0,0
63863,-80,4,1,0,60,0,0
63874,-88.495575221239,4,1,0,60,0,0
63886,-99.009900990099,4,1,0,60,0,0
63897,-113.636363636364,4,1,0,60,0,0
63909,-131.578947368421,4,1,0,60,0,0
63920,-158.730158730159,4,1,0,60,0,0
63932,-196.078431372549,4,1,0,60,0,0
63943,-263.157894736842,4,1,0,60,0,0
63955,-384.615384615385,4,1,0,60,0,0
63966,-769.230769230769,4,1,0,60,0,0
64194,-10,4,1,0,60,0,0
64209,-40,4,1,0,60,0,0
64221,-42.0168067226891,4,1,0,60,0,0
64232,-44.4444444444444,4,1,0,60,0,0
64244,-46.9483568075117,4,1,0,60,0,0
64255,-50,4,1,0,60,0,0
64267,-53.1914893617021,4,1,0,60,0,0
64278,-57.1428571428571,4,1,0,60,0,0
64290,-61.3496932515337,4,1,0,60,0,0
64301,-66.6666666666667,4,1,0,60,0,0
64313,-72.463768115942,4,1,0,60,0,0
64325,-80,4,1,0,60,0,0
64336,-88.495575221239,4,1,0,60,0,0
64348,-99.009900990099,4,1,0,60,0,0
64359,-113.636363636364,4,1,0,60,0,0
64371,-131.578947368421,4,1,0,60,0,0
64382,-158.730158730159,4,1,0,60,0,0
64394,-196.078431372549,4,1,0,60,0,0
64405,-263.157894736842,4,1,0,60,0,0
64417,-384.615384615385,4,1,0,60,0,0
64428,-769.230769230769,4,1,0,60,0,0
64655,-10,4,1,0,60,0,0
64671,-40,4,1,0,60,0,0
64683,-42.0168067226891,4,1,0,60,0,0
64694,-44.4444444444444,4,1,0,60,0,0
64706,-46.9483568075117,4,1,0,60,0,0
64717,-50,4,1,0,60,0,0
64729,-53.1914893617021,4,1,0,60,0,0
64740,-57.1428571428571,4,1,0,60,0,0
64752,-61.3496932515337,4,1,0,60,0,0
64763,-66.6666666666667,4,1,0,60,0,0
64775,-72.463768115942,4,1,0,60,0,0
64787,-80,4,1,0,60,0,0
64798,-88.495575221239,4,1,0,60,0,0
64810,-99.009900990099,4,1,0,60,0,0
64821,-113.636363636364,4,1,0,60,0,0
64833,-131.578947368421,4,1,0,60,0,0
64844,-158.730158730159,4,1,0,60,0,0
64856,-196.078431372549,4,1,0,60,0,0
64867,-263.157894736842,4,1,0,60,0,0
64879,-384.615384615385,4,1,0,60,0,0
64890,-769.230769230769,4,1,0,60,0,0
65113,-10,4,1,0,60,0,0
65132,-100,4,1,0,60,0,0
65247,-40,4,1,0,60,0,0
65259,-42.0168067226891,4,1,0,60,0,0
65270,-44.4444444444444,4,1,0,60,0,0
65282,-46.9483568075117,4,1,0,60,0,0
65293,-50,4,1,0,60,0,0
65305,-53.1914893617021,4,1,0,60,0,0
65316,-57.1428571428571,4,1,0,60,0,0
65328,-61.3496932515337,4,1,0,60,0,0
65339,-66.6666666666667,4,1,0,60,0,0
65351,-72.463768115942,4,1,0,60,0,0
65363,-80,4,1,0,60,0,0
65374,-88.495575221239,4,1,0,60,0,0
65386,-99.009900990099,4,1,0,60,0,0
65397,-113.636363636364,4,1,0,60,0,0
65409,-131.578947368421,4,1,0,60,0,0
65420,-158.730158730159,4,1,0,60,0,0
65432,-196.078431372549,4,1,0,60,0,0
65443,-263.157894736842,4,1,0,60,0,0
65455,-384.615384615385,4,1,0,60,0,0
65466,-769.230769230769,4,1,0,60,0,0
65579,-10,4,1,0,60,0,0
65594,-40,4,1,0,60,0,0
65606,-42.0168067226891,4,1,0,60,0,0
65617,-44.4444444444444,4,1,0,60,0,0
65629,-46.9483568075117,4,1,0,60,0,0
65640,-50,4,1,0,60,0,0
65652,-53.1914893617021,4,1,0,60,0,0
65663,-57.1428571428571,4,1,0,60,0,0
65675,-61.3496932515337,4,1,0,60,0,0
65686,-66.6666666666667,4,1,0,60,0,0
65698,-72.463768115942,4,1,0,60,0,0
65710,-80,4,1,0,60,0,0
65721,-88.495575221239,4,1,0,60,0,0
65733,-99.009900990099,4,1,0,60,0,0
65744,-113.636363636364,4,1,0,60,0,0
65756,-131.578947368421,4,1,0,60,0,0
65767,-158.730158730159,4,1,0,60,0,0
65779,-196.078431372549,4,1,0,60,0,0
65790,-263.157894736842,4,1,0,60,0,0
65802,-384.615384615385,4,1,0,60,0,0
65813,-769.230769230769,4,1,0,60,0,0
66040,-10,4,1,0,60,0,0
66055,-40,4,1,0,60,0,0
66067,-42.0168067226891,4,1,0,60,0,0
66078,-44.4444444444444,4,1,0,60,0,0
66090,-46.9483568075117,4,1,0,60,0,0
66101,-50,4,1,0,60,0,0
66113,-53.1914893617021,4,1,0,60,0,0
66124,-57.1428571428571,4,1,0,60,0,0
66136,-61.3496932515337,4,1,0,60,0,0
66147,-66.6666666666667,4,1,0,60,0,0
66159,-72.463768115942,4,1,0,60,0,0
66171,-80,4,1,0,60,0,0
66182,-88.495575221239,4,1,0,60,0,0
66194,-99.009900990099,4,1,0,60,0,0
66205,-113.636363636364,4,1,0,60,0,0
66217,-131.578947368421,4,1,0,60,0,0
66228,-158.730158730159,4,1,0,60,0,0
66240,-196.078431372549,4,1,0,60,0,0
66251,-263.157894736842,4,1,0,60,0,0
66263,-384.615384615385,4,1,0,60,0,0
66274,-769.230769230769,4,1,0,60,0,0
66496,-10,4,1,0,60,0,0
66516,-40,4,1,0,60,0,0
66545,-333.333333333333,4,1,0,60,0,0
66593,-40,4,1,0,60,0,0
66622,-333.333333333333,4,1,0,60,0,0
66670,-40,4,1,0,60,0,0
66699,-333.333333333333,4,1,0,60,0,0
66747,-40,4,1,0,60,0,0
66776,-333.333333333333,4,1,0,60,0,0
66824,-40,4,1,0,60,0,0
66853,-333.333333333333,4,1,0,60,0,0
66901,-40,4,1,0,60,0,0
66930,-333.333333333333,4,1,0,60,0,0
66978,-33.3333333333333,4,1,0,60,0,0
66992,-500,4,1,0,60,0,0
67006,-33.3333333333333,4,1,0,60,0,0
67020,-500,4,1,0,60,0,0
67035,-33.3333333333333,4,1,0,60,0,0
67049,-500,4,1,0,60,0,0
67064,-33.3333333333333,4,1,0,60,0,0
67078,-500,4,1,0,60,0,0
67094,-33.3333333333333,4,1,0,60,0,0
67108,-500,4,1,0,60,0,0
67122,-33.3333333333333,4,1,0,60,0,0
67136,-500,4,1,0,60,0,0
67151,-33.3333333333333,4,1,0,60,0,0
67165,-500,4,1,0,60,0,0
67180,-33.3333333333333,4,1,0,60,0,0
67194,-500,4,1,0,60,0,0
67424,-10,4,1,0,60,0,0
67439,-33.3333333333333,4,1,0,60,0,0
67453,-500,4,1,0,60,0,0
67467,-33.3333333333333,4,1,0,60,0,0
67481,-500,4,1,0,60,0,0
67496,-33.3333333333333,4,1,0,60,0,0
67510,-500,4,1,0,60,0,0
67525,-33.3333333333333,4,1,0,60,0,0
67539,-500,4,1,0,60,0,0
67555,-33.3333333333333,4,1,0,60,0,0
67569,-500,4,1,0,60,0,0
67583,-33.3333333333333,4,1,0,60,0,0
67597,-500,4,1,0,60,0,0
67612,-33.3333333333333,4,1,0,60,0,0
67626,-500,4,1,0,60,0,0
67641,-33.3333333333333,4,1,0,60,0,0
67655,-500,4,1,0,60,0,0
67886,-10,4,1,0,60,0,0
67901,-40,4,1,0,60,0,0
67913,-42.0168067226891,4,1,0,60,0,0
67924,-44.4444444444444,4,1,0,60,0,0
67936,-46.9483568075117,4,1,0,60,0,0
67947,-50,4,1,0,60,0,0
67959,-53.1914893617021,4,1,0,60,0,0
67970,-57.1428571428571,4,1,0,60,0,0
67982,-61.3496932515337,4,1,0,60,0,0
67993,-66.6666666666667,4,1,0,60,0,0
68005,-72.463768115942,4,1,0,60,0,0
68017,-80,4,1,0,60,0,0
68028,-88.495575221239,4,1,0,60,0,0
68040,-99.009900990099,4,1,0,60,0,0
68051,-113.636363636364,4,1,0,60,0,0
68063,-131.578947368421,4,1,0,60,0,0
68074,-158.730158730159,4,1,0,60,0,0
68086,-196.078431372549,4,1,0,60,0,0
68097,-263.157894736842,4,1,0,60,0,0
68109,-384.615384615385,4,1,0,60,0,0
68120,-769.230769230769,4,1,0,60,0,0
68348,-10,4,1,0,60,0,0
68363,-40,4,1,0,60,0,0
68375,-42.0168067226891,4,1,0,60,0,0
68386,-44.4444444444444,4,1,0,60,0,0
68398,-46.9483568075117,4,1,0,60,0,0
68409,-50,4,1,0,60,0,0
68421,-53.1914893617021,4,1,0,60,0,0
68432,-57.1428571428571,4,1,0,60,0,0
68444,-61.3496932515337,4,1,0,60,0,0
68455,-66.6666666666667,4,1,0,60,0,0
68467,-72.463768115942,4,1,0,60,0,0
68479,-80,4,1,0,60,0,0
68490,-88.495575221239,4,1,0,60,0,0
68502,-99.009900990099,4,1,0,60,0,0
68513,-113.636363636364,4,1,0,60,0,0
68525,-131.578947368421,4,1,0,60,0,0
68536,-158.730158730159,4,1,0,60,0,0
68548,-196.078431372549,4,1,0,60,0,0
68559,-263.157894736842,4,1,0,60,0,0
68571,-384.615384615385,4,1,0,60,0,0
68582,-769.230769230769,4,1,0,60,0,0
68795,-10,4,1,0,60,0,0
68824,-100,4,1,0,60,0,0
68939,-40,4,1,0,60,0,0
68951,-42.0168067226891,4,1,0,60,0,0
68962,-44.4444444444444,4,1,0,60,0,0
68974,-46.9483568075117,4,1,0,60,0,0
68985,-50,4,1,0,60,0,0
68997,-53.1914893617021,4,1,0,60,0,0
69008,-57.1428571428571,4,1,0,60,0,0
69020,-61.3496932515337,4,1,0,60,0,0
69031,-66.6666666666667,4,1,0,60,0,0
69043,-72.463768115942,4,1,0,60,0,0
69055,-80,4,1,0,60,0,0
69066,-88.495575221239,4,1,0,60,0,0
69078,-99.009900990099,4,1,0,60,0,0
69089,-113.636363636364,4,1,0,60,0,0
69101,-131.578947368421,4,1,0,60,0,0
69112,-158.730158730159,4,1,0,60,0,0
69124,-196.078431372549,4,1,0,60,0,0
69135,-263.157894736842,4,1,0,60,0,0
69147,-384.615384615385,4,1,0,60,0,0
69158,-769.230769230769,4,1,0,60,0,0
69271,-10,4,1,0,60,0,0
69286,-40,4,1,0,60,0,0
69298,-42.0168067226891,4,1,0,60,0,0
69309,-44.4444444444444,4,1,0,60,0,0
69321,-46.9483568075117,4,1,0,60,0,0
69332,-50,4,1,0,60,0,0
69344,-53.1914893617021,4,1,0,60,0,0
69355,-57.1428571428571,4,1,0,60,0,0
69367,-61.3496932515337,4,1,0,60,0,0
69378,-66.6666666666667,4,1,0,60,0,0
69390,-72.463768115942,4,1,0,60,0,0
69402,-80,4,1,0,60,0,0
69413,-88.495575221239,4,1,0,60,0,0
69425,-99.009900990099,4,1,0,60,0,0
69436,-113.636363636364,4,1,0,60,0,0
69448,-131.578947368421,4,1,0,60,0,0
69459,-158.730158730159,4,1,0,60,0,0
69471,-196.078431372549,4,1,0,60,0,0
69482,-263.157894736842,4,1,0,60,0,0
69494,-384.615384615385,4,1,0,60,0,0
69505,-769.230769230769,4,1,0,60,0,0
69732,-10,4,1,0,60,0,0
69747,-40,4,1,0,60,0,0
69759,-42.0168067226891,4,1,0,60,0,0
69770,-44.4444444444444,4,1,0,60,0,0
69782,-46.9483568075117,4,1,0,60,0,0
69793,-50,4,1,0,60,0,0
69805,-53.1914893617021,4,1,0,60,0,0
69816,-57.1428571428571,4,1,0,60,0,0
69828,-61.3496932515337,4,1,0,60,0,0
69839,-66.6666666666667,4,1,0,60,0,0
69851,-72.463768115942,4,1,0,60,0,0
69863,-80,4,1,0,60,0,0
69874,-88.495575221239,4,1,0,60,0,0
69886,-99.009900990099,4,1,0,60,0,0
69897,-113.636363636364,4,1,0,60,0,0
69909,-131.578947368421,4,1,0,60,0,0
69920,-158.730158730159,4,1,0,60,0,0
69932,-196.078431372549,4,1,0,60,0,0
69943,-263.157894736842,4,1,0,60,0,0
69955,-384.615384615385,4,1,0,60,0,0
69966,-769.230769230769,4,1,0,60,0,0
70194,-10,4,1,0,60,0,0
70209,-40,4,1,0,60,0,0
70221,-42.0168067226891,4,1,0,60,0,0
70232,-44.4444444444444,4,1,0,60,0,0
70244,-46.9483568075117,4,1,0,60,0,0
70255,-50,4,1,0,60,0,0
70267,-53.1914893617021,4,1,0,60,0,0
70278,-57.1428571428571,4,1,0,60,0,0
70290,-61.3496932515337,4,1,0,60,0,0
70301,-66.6666666666667,4,1,0,60,0,0
70313,-72.463768115942,4,1,0,60,0,0
70325,-80,4,1,0,60,0,0
70336,-88.495575221239,4,1,0,60,0,0
70348,-99.009900990099,4,1,0,60,0,0
70359,-113.636363636364,4,1,0,60,0,0
70371,-131.578947368421,4,1,0,60,0,0
70382,-158.730158730159,4,1,0,60,0,0
70394,-196.078431372549,4,1,0,60,0,0
70405,-263.157894736842,4,1,0,60,0,0
70417,-384.615384615385,4,1,0,60,0,0
70428,-769.230769230769,4,1,0,60,0,0
70655,-10,4,1,0,60,0,0
70670,-40,4,1,0,60,0,0
70684,-333.333333333333,4,1,0,60,0,0
70699,-40,4,1,0,60,0,0
70713,-333.333333333333,4,1,0,60,0,0
70728,-40,4,1,0,60,0,0
70742,-333.333333333333,4,1,0,60,0,0
70757,-40,4,1,0,60,0,0
70771,-333.333333333333,4,1,0,60,0,0
70786,-40,4,1,0,60,0,0
70800,-333.333333333333,4,1,0,60,0,0
70815,-40,4,1,0,60,0,0
70829,-333.333333333333,4,1,0,60,0,0
70844,-40,4,1,0,60,0,0
70858,-333.333333333333,4,1,0,60,0,0
70873,-40,4,1,0,60,0,0
70887,-333.333333333333,4,1,0,60,0,0
70901,-40,4,1,0,60,0,0
70915,-333.333333333333,4,1,0,60,0,0
70930,-40,4,1,0,60,0,0
70944,-333.333333333333,4,1,0,60,0,0
70959,-40,4,1,0,60,0,0
70973,-333.333333333333,4,1,0,60,0,0
70988,-40,4,1,0,60,0,0
71002,-333.333333333333,4,1,0,60,0,0
71016,-40,4,1,0,60,0,0
71030,-333.333333333333,4,1,0,60,0,0
71045,-40,4,1,0,60,0,0
71059,-333.333333333333,4,1,0,60,0,0
71074,-40,4,1,0,60,0,0
71088,-333.333333333333,4,1,0,60,0,0
71117,-10,4,1,0,60,0,0
71131,-33.3333333333333,4,1,0,60,0,0
71145,-500,4,1,0,60,0,0
71160,-33.3333333333333,4,1,0,60,0,0
71174,-500,4,1,0,60,0,0
71189,-33.3333333333333,4,1,0,60,0,0
71203,-500,4,1,0,60,0,0
71218,-33.3333333333333,4,1,0,60,0,0
71232,-500,4,1,0,60,0,0
71247,-33.3333333333333,4,1,0,60,0,0
71261,-500,4,1,0,60,0,0
71276,-33.3333333333333,4,1,0,60,0,0
71290,-500,4,1,0,60,0,0
71305,-33.3333333333333,4,1,0,60,0,0
71319,-500,4,1,0,60,0,0
71334,-33.3333333333333,4,1,0,60,0,0
71348,-500,4,1,0,60,0,0
71362,-33.3333333333333,4,1,0,60,0,0
71376,-500,4,1,0,60,0,0
71391,-33.3333333333333,4,1,0,60,0,0
71405,-500,4,1,0,60,0,0
71420,-33.3333333333333,4,1,0,60,0,0
71434,-500,4,1,0,60,0,0
71449,-33.3333333333333,4,1,0,60,0,0
71463,-500,4,1,0,60,0,0
71477,-33.3333333333333,4,1,0,60,0,0
71491,-500,4,1,0,60,0,0
71506,-33.3333333333333,4,1,0,60,0,0
71520,-500,4,1,0,60,0,0
71535,-33.3333333333333,4,1,0,60,0,0
71549,-500,4,1,0,60,0,0
71564,-33.3333333333333,4,1,0,60,0,0
71578,-500,4,1,0,60,0,0
72034,-10,4,1,0,60,0,0
72054,-45.045045045045,4,1,0,60,0,0
72068,-500,4,1,0,60,0,0
72083,-45.045045045045,4,1,0,60,0,0
72097,-500,4,1,0,60,0,0
72112,-45.045045045045,4,1,0,60,0,0
72126,-500,4,1,0,60,0,0
72141,-45.045045045045,4,1,0,60,0,0
72155,-500,4,1,0,60,0,0
72170,-45.045045045045,4,1,0,60,0,0
72184,-500,4,1,0,60,0,0
72199,-45.045045045045,4,1,0,60,0,0
72213,-500,4,1,0,60,0,0
72228,-45.045045045045,4,1,0,60,0,0
72242,-500,4,1,0,60,0,0
72257,-45.045045045045,4,1,0,60,0,0
72271,-500,4,1,0,60,0,0
72285,-45.045045045045,4,1,0,60,0,0
72299,-500,4,1,0,60,0,0
72314,-45.045045045045,4,1,0,60,0,0
72328,-500,4,1,0,60,0,0
72343,-45.045045045045,4,1,0,60,0,0
72357,-500,4,1,0,60,0,0
72372,-45.045045045045,4,1,0,60,0,0
72386,-500,4,1,0,60,0,0
72400,-45.045045045045,4,1,0,60,0,0
72414,-500,4,1,0,60,0,0
72429,-45.045045045045,4,1,0,60,0,0
72443,-500,4,1,0,60,0,0
72458,-45.045045045045,4,1,0,60,0,0
72472,-500,4,1,0,60,0,0
72487,-45.045045045045,4,1,0,60,0,0
72501,-500,4,1,0,60,0,0
72516,-45.045045045045,4,1,0,60,0,0
72530,-500,4,1,0,60,0,0
72545,-45.045045045045,4,1,0,60,0,0
72559,-500,4,1,0,60,0,0
72574,-45.045045045045,4,1,0,60,0,0
72588,-500,4,1,0,60,0,0
72603,-45.045045045045,4,1,0,60,0,0
72617,-500,4,1,0,60,0,0
72632,-45.045045045045,4,1,0,60,0,0
72646,-500,4,1,0,60,0,0
72661,-45.045045045045,4,1,0,60,0,0
72675,-500,4,1,0,60,0,0
72690,-45.045045045045,4,1,0,60,0,0
72704,-500,4,1,0,60,0,0
72719,-45.045045045045,4,1,0,60,0,0
72733,-500,4,1,0,60,0,0
72747,-45.045045045045,4,1,0,60,0,0
72761,-500,4,1,0,60,0,0
72776,-45.045045045045,4,1,0,60,0,0
72790,-500,4,1,0,60,0,0
72805,-45.045045045045,4,1,0,60,0,0
72819,-500,4,1,0,60,0,0
72834,-45.045045045045,4,1,0,60,0,0
72848,-500,4,1,0,60,0,0
72862,-45.045045045045,4,1,0,60,0,0
72876,-500,4,1,0,60,0,0
72891,-45.045045045045,4,1,0,60,0,0
72905,-500,4,1,0,60,0,0
72920,-45.045045045045,4,1,0,60,0,0
72934,-500,4,1,0,60,0,0
72949,-45.045045045045,4,1,0,60,0,0
72963,-500,4,1,0,60,0,0
72978,-14.2857142857143,4,1,0,60,0,0
72992,-500,4,1,0,60,0,0
73007,-45.045045045045,4,1,0,60,0,0
73021,-500,4,1,0,60,0,0
73036,-45.045045045045,4,1,0,60,0,0
73050,-500,4,1,0,60,0,0
73065,-45.045045045045,4,1,0,60,0,0
73079,-500,4,1,0,60,0,0
73094,-45.045045045045,4,1,0,60,0,0
73108,-500,4,1,0,60,0,0
73123,-45.045045045045,4,1,0,60,0,0
73137,-500,4,1,0,60,0,0
73152,-45.045045045045,4,1,0,60,0,0
73166,-500,4,1,0,60,0,0
73181,-45.045045045045,4,1,0,60,0,0
73195,-500,4,1,0,60,0,0
73209,-45.045045045045,4,1,0,60,0,0
73223,-500,4,1,0,60,0,0
73238,-45.045045045045,4,1,0,60,0,0
73252,-500,4,1,0,60,0,0
73267,-45.045045045045,4,1,0,60,0,0
73281,-500,4,1,0,60,0,0
73296,-45.045045045045,4,1,0,60,0,0
73310,-500,4,1,0,60,0,0
73324,-45.045045045045,4,1,0,60,0,0
73338,-500,4,1,0,60,0,0
73353,-45.045045045045,4,1,0,60,0,0
73367,-500,4,1,0,60,0,0
73382,-45.045045045045,4,1,0,60,0,0
73396,-500,4,1,0,60,0,0
73411,-45.045045045045,4,1,0,60,0,0
73425,-500,4,1,0,60,0,0
73439,-45.045045045045,4,1,0,60,0,0
73453,-500,4,1,0,60,0,0
73468,-45.045045045045,4,1,0,60,0,0
73482,-500,4,1,0,60,0,0
73497,-45.045045045045,4,1,0,60,0,0
73511,-500,4,1,0,60,0,0
73526,-45.045045045045,4,1,0,60,0,0
73540,-500,4,1,0,60,0,0
73555,-45.045045045045,4,1,0,60,0,0
73569,-500,4,1,0,60,0,0
73584,-45.045045045045,4,1,0,60,0,0
73598,-500,4,1,0,60,0,0
73613,-45.045045045045,4,1,0,60,0,0
73627,-500,4,1,0,60,0,0
73642,-45.045045045045,4,1,0,60,0,0
73656,-500,4,1,0,60,0,0
73670,-45.045045045045,4,1,0,60,0,0
73684,-500,4,1,0,60,0,0
73699,-45.045045045045,4,1,0,60,0,0
73713,-500,4,1,0,60,0,0
73728,-45.045045045045,4,1,0,60,0,0
73742,-500,4,1,0,60,0,0
73757,-45.045045045045,4,1,0,60,0,0
73771,-500,4,1,0,60,0,0
73785,-45.045045045045,4,1,0,60,0,0
73799,-500,4,1,0,60,0,0
73814,-45.045045045045,4,1,0,60,0,0
73828,-500,4,1,0,60,0,0
73843,-45.045045045045,4,1,0,60,0,0
73857,-500,4,1,0,60,0,0
73872,-45.045045045045,4,1,0,60,0,0
73886,-500,4,1,0,60,0,0
73901,-14.2857142857143,4,1,0,60,0,0
73915,-500,4,1,0,60,0,0
73930,-45.045045045045,4,1,0,60,0,0
73944,-500,4,1,0,60,0,0
73959,-45.045045045045,4,1,0,60,0,0
73973,-500,4,1,0,60,0,0
73988,-45.045045045045,4,1,0,60,0,0
74002,-500,4,1,0,60,0,0
74017,-45.045045045045,4,1,0,60,0,0
74031,-500,4,1,0,60,0,0
74046,-45.045045045045,4,1,0,60,0,0
74060,-500,4,1,0,60,0,0
74075,-45.045045045045,4,1,0,60,0,0
74089,-500,4,1,0,60,0,0
74104,-45.045045045045,4,1,0,60,0,0
74118,-500,4,1,0,60,0,0
74132,-45.045045045045,4,1,0,60,0,0
74146,-500,4,1,0,60,0,0
74161,-45.045045045045,4,1,0,60,0,0
74175,-500,4,1,0,60,0,0
74190,-45.045045045045,4,1,0,60,0,0
74204,-500,4,1,0,60,0,0
74219,-45.045045045045,4,1,0,60,0,0
74233,-500,4,1,0,60,0,0
74247,-45.045045045045,4,1,0,60,0,0
74261,-500,4,1,0,60,0,0
74276,-45.045045045045,4,1,0,60,0,0
74290,-500,4,1,0,60,0,0
74305,-45.045045045045,4,1,0,60,0,0
74319,-500,4,1,0,60,0,0
74334,-45.045045045045,4,1,0,60,0,0
74348,-500,4,1,0,60,0,0
74362,-45.045045045045,4,1,0,60,0,0
74376,-500,4,1,0,60,0,0
74391,-45.045045045045,4,1,0,60,0,0
74405,-500,4,1,0,60,0,0
74420,-45.045045045045,4,1,0,60,0,0
74434,-500,4,1,0,60,0,0
74449,-45.045045045045,4,1,0,60,0,0
74463,-500,4,1,0,60,0,0
74478,-45.045045045045,4,1,0,60,0,0
74492,-500,4,1,0,60,0,0
74507,-45.045045045045,4,1,0,60,0,0
74521,-500,4,1,0,60,0,0
74536,-45.045045045045,4,1,0,60,0,0
74550,-500,4,1,0,60,0,0
74565,-45.045045045045,4,1,0,60,0,0
74579,-500,4,1,0,60,0,0
74593,-45.045045045045,4,1,0,60,0,0
74607,-500,4,1,0,60,0,0
74622,-45.045045045045,4,1,0,60,0,0
74636,-500,4,1,0,60,0,0
74651,-45.045045045045,4,1,0,60,0,0
74665,-500,4,1,0,60,0,0
74680,-45.045045045045,4,1,0,60,0,0
74694,-500,4,1,0,60,0,0
74708,-45.045045045045,4,1,0,60,0,0
74722,-500,4,1,0,60,0,0
74737,-45.045045045045,4,1,0,60,0,0
74751,-500,4,1,0,60,0,0
74766,-45.045045045045,4,1,0,60,0,0
74780,-500,4,1,0,60,0,0
74795,-45.045045045045,4,1,0,60,0,0
74809,-500,4,1,0,60,0,0
74824,-12.5,4,1,0,60,0,0
74852.8461538462,-400,4,1,0,60,0,0
75055.3464000051,-50,4,1,0,60,0,0
75084.1925538513,-400,4,1,0,60,0,0
75286.1156307743,6E-96,4,1,0,60,1,0
75286.1156307743,-10,4,1,0,60,0,0
75286.1256307743,461.538461538462,4,1,0,60,1,0
75286.1256307743,-1000000,4,1,0,60,0,0
75324.5771692359,-400,4,1,0,60,0,0
75363.0387076974,-200,4,1,0,60,0,0
75401.500246159,-100,4,1,0,60,0,0
75439.9617846205,6E-96,4,1,0,60,1,0
75439.9617846205,-10,4,1,0,60,0,0
75439.9717846205,461.538461538462,4,1,0,60,1,0
75439.9717846205,-1000000,4,1,0,60,0,0
75478.423323082,-400,4,1,0,60,0,0
75516.8848615436,-200,4,1,0,60,0,0
75555.3464000051,-100,4,1,0,60,0,0
75593.8079384666,-1000000,4,1,0,60,0,0
75632.2694769282,-400,4,1,0,60,0,0
75670.7310153897,-200,4,1,0,60,0,0
75709.1925538513,-100,4,1,0,60,0,0
75747.6540923128,-12.5,4,1,0,60,0,0
75776.500246159,-400,4,1,0,60,0,0
75978.423323082,-50,4,1,0,60,0,0
76007.2694769282,-400,4,1,0,60,0,0
76209.1925538513,-25,4,1,0,60,0,0
76238.0387076974,-400,4,1,0,60,0,0
76324,-50,4,1,0,60,0,0
76352.8461538461,-400,4,1,0,60,0,0
76439.9617846205,-50,4,1,0,60,0,0
76468.8079384666,-400,4,1,0,60,0,0
76670.7310153897,-12.5,4,1,0,60,0,0
76699.5771692359,-400,4,1,0,60,0,0
76901.500246159,-50,4,1,0,60,0,0
76930.3464000051,-400,4,1,0,60,0,0
77132.2694769282,6E-96,4,1,0,60,1,0
77132.2694769282,-10,4,1,0,60,0,0
77132.2794769282,461.538461538462,4,1,0,60,1,0
77132.2794769282,-1000000,4,1,0,60,0,0
77170.7310153897,-400,4,1,0,60,0,0
77209.1925538513,-200,4,1,0,60,0,0
77247.6540923128,-100,4,1,0,60,0,0
77286.1156307743,6E-96,4,1,0,60,1,0
77286.1156307743,-10,4,1,0,60,0,0
77286.1256307743,461.538461538462,4,1,0,60,1,0
77286.1256307743,-1000000,4,1,0,60,0,0
77324.5771692359,-400,4,1,0,60,0,0
77363.0387076974,-200,4,1,0,60,0,0
77401.500246159,-100,4,1,0,60,0,0
77439.9617846205,-1000000,4,1,0,60,0,0
77478.423323082,-400,4,1,0,60,0,0
77516.8848615436,-200,4,1,0,60,0,0
77555.3464000051,-100,4,1,0,60,0,0
77593.8079384666,-12.5,4,1,0,60,0,0
77622.6540923128,-400,4,1,0,60,0,0
77824.5771692359,-50,4,1,0,60,0,0
77853.423323082,-400,4,1,0,60,0,0
78055,-45.045045045045,4,1,0,60,0,0
78069,-500,4,1,0,60,0,0
78084,-45.045045045045,4,1,0,60,0,0
78098,-500,4,1,0,60,0,0
78113,-45.045045045045,4,1,0,60,0,0
78127,-500,4,1,0,60,0,0
78142,-45.045045045045,4,1,0,60,0,0
78156,-500,4,1,0,60,0,0
78170,-45.045045045045,4,1,0,60,0,0
78184,-500,4,1,0,60,0,0
78199,-45.045045045045,4,1,0,60,0,0
78213,-500,4,1,0,60,0,0
78228,-45.045045045045,4,1,0,60,0,0
78242,-500,4,1,0,60,0,0
78257,-45.045045045045,4,1,0,60,0,0
78271,-500,4,1,0,60,0,0
78286,-45.045045045045,4,1,0,60,0,0
78300,-500,4,1,0,60,0,0
78315,-45.045045045045,4,1,0,60,0,0
78329,-500,4,1,0,60,0,0
78344,-45.045045045045,4,1,0,60,0,0
78358,-500,4,1,0,60,0,0
78373,-45.045045045045,4,1,0,60,0,0
78387,-500,4,1,0,60,0,0
78401,-45.045045045045,4,1,0,60,0,0
78415,-500,4,1,0,60,0,0
78430,-45.045045045045,4,1,0,60,0,0
78444,-500,4,1,0,60,0,0
78459,-45.045045045045,4,1,0,60,0,0
78473,-500,4,1,0,60,0,0
78488,-45.045045045045,4,1,0,60,0,0
78502,-500,4,1,0,60,0,0
78516.8848615436,-12.5,4,1,0,60,0,0
78545.7310153897,-400,4,1,0,60,0,0
78747.6540923128,-50,4,1,0,60,0,0
78776.500246159,-400,4,1,0,60,0,0
78978.423323082,6E-96,4,1,0,60,1,0
78978.423323082,-10,4,1,0,60,0,0
78978.433323082,461.538461538462,4,1,0,60,1,0
78978.433323082,-1000000,4,1,0,60,0,0
79016.8848615436,-400,4,1,0,60,0,0
79055.3464000051,-200,4,1,0,60,0,0
79093.8079384666,-100,4,1,0,60,0,0
79132.2694769282,6E-96,4,1,0,60,1,0
79132.2694769282,-10,4,1,0,60,0,0
79132.2794769282,461.538461538462,4,1,0,60,1,0
79132.2794769282,-1000000,4,1,0,60,0,0
79170.7310153897,-400,4,1,0,60,0,0
79209.1925538513,-200,4,1,0,60,0,0
79247.6540923128,-100,4,1,0,60,0,0
79286.1156307743,-1000000,4,1,0,60,0,0
79324.5771692359,-400,4,1,0,60,0,0
79363.0387076974,-200,4,1,0,60,0,0
79401.500246159,-100,4,1,0,60,0,0
79439.9617846205,-12.5,4,1,0,60,0,0
79468.8079384666,-400,4,1,0,60,0,0
79670.7310153897,-50,4,1,0,60,0,0
79699.5771692359,-400,4,1,0,60,0,0
79901.500246159,-25,4,1,0,60,0,0
79930.3464000051,-400,4,1,0,60,0,0
80016,-50,4,1,0,60,0,0
80044.8461538461,-400,4,1,0,60,0,0
80132.2694769282,-50,4,1,0,60,0,0
80161.1156307743,-400,4,1,0,60,0,0
80363.0387076974,-12.5,4,1,0,60,0,0
80391.8848615436,-400,4,1,0,60,0,0
80593.8079384666,-50,4,1,0,60,0,0
80622.6540923128,-400,4,1,0,60,0,0
80824.5771692359,6E-96,4,1,0,60,1,0
80824.5771692359,-10,4,1,0,60,0,0
80824.5871692359,461.538461538462,4,1,0,60,1,0
80824.5871692359,-1000000,4,1,0,60,0,0
80863.0387076974,-400,4,1,0,60,0,0
80901.500246159,-200,4,1,0,60,0,0
80939.9617846205,-100,4,1,0,60,0,0
80978.423323082,6E-96,4,1,0,60,1,0
80978.423323082,-10,4,1,0,60,0,0
80978.433323082,461.538461538462,4,1,0,60,1,0
80978.433323082,-1000000,4,1,0,60,0,0
81016.8848615436,-400,4,1,0,60,0,0
81055.3464000051,-200,4,1,0,60,0,0
81093.8079384666,-100,4,1,0,60,0,0
81132.2694769282,-1000000,4,1,0,60,0,0
81170.7310153897,-400,4,1,0,60,0,0
81209.1925538513,-200,4,1,0,60,0,0
81247.6540923128,-100,4,1,0,60,0,0
81286,-33.3333333333333,4,1,0,60,0,0
81315,-333.333333333333,4,1,0,60,0,0
81363,-33.3333333333333,4,1,0,60,0,0
81392,-333.333333333333,4,1,0,60,0,0
81440,-33.3333333333333,4,1,0,60,0,0
81469,-333.333333333333,4,1,0,60,0,0
81517,-33.3333333333333,4,1,0,60,0,0
81546,-333.333333333333,4,1,0,60,0,0
81594,-33.3333333333333,4,1,0,60,0,0
81623,-333.333333333333,4,1,0,60,0,0
81671,-33.3333333333333,4,1,0,60,0,0
81700,-333.333333333333,4,1,0,60,0,0
81747,-45.045045045045,4,1,0,60,0,0
81761,-500,4,1,0,60,0,0
81776,-45.045045045045,4,1,0,60,0,0
81790,-500,4,1,0,60,0,0
81805,-45.045045045045,4,1,0,60,0,0
81819,-500,4,1,0,60,0,0
81834,-45.045045045045,4,1,0,60,0,0
81848,-500,4,1,0,60,0,0
81863,-45.045045045045,4,1,0,60,0,0
81877,-500,4,1,0,60,0,0
81892,-45.045045045045,4,1,0,60,0,0
81906,-500,4,1,0,60,0,0
81921,-45.045045045045,4,1,0,60,0,0
81935,-500,4,1,0,60,0,0
81950,-45.045045045045,4,1,0,60,0,0
81964,-500,4,1,0,60,0,0
81978,-45.045045045045,4,1,0,60,0,0
81992,-500,4,1,0,60,0,0
82007,-45.045045045045,4,1,0,60,0,0
82021,-500,4,1,0,60,0,0
82036,-45.045045045045,4,1,0,60,0,0
82050,-500,4,1,0,60,0,0
82065,-45.045045045045,4,1,0,60,0,0
82079,-500,4,1,0,60,0,0
82093,-45.045045045045,4,1,0,60,0,0
82107,-500,4,1,0,60,0,0
82122,-45.045045045045,4,1,0,60,0,0
82136,-500,4,1,0,60,0,0
82151,-45.045045045045,4,1,0,60,0,0
82165,-500,4,1,0,60,0,0
82209.1925538513,6E-96,4,1,0,60,1,0
82209.1925538513,-10,4,1,0,60,0,0
82209.2025538513,461.538461538462,4,1,0,60,1,0
82209.2025538513,-1000000,4,1,0,60,0,0
82247.6540923128,-400,4,1,0,60,0,0
82286.1156307743,-200,4,1,0,60,0,0
82324.5771692359,-100,4,1,0,60,0,0
82363.0387076974,6E-96,4,1,0,60,1,0
82363.0387076974,-10,4,1,0,60,0,0
82363.0487076974,461.538461538462,4,1,0,60,1,0
82363.0487076974,-1000000,4,1,0,60,0,0
82401.500246159,-400,4,1,0,60,0,0
82439.9617846205,-200,4,1,0,60,0,0
82478.423323082,-100,4,1,0,60,0,0
82516.8848615436,-1000000,4,1,0,60,0,0
82555.3464000051,-400,4,1,0,60,0,0
82593.8079384666,-200,4,1,0,60,0,0
82632.2694769282,-100,4,1,0,60,0,0
82670.7310153897,6E-96,4,1,0,60,1,0
82670.7310153897,-10,4,1,0,60,0,0
82670.7410153897,461.538461538462,4,1,0,60,1,0
82670.7410153897,-1000000,4,1,0,60,0,0
82709.1925538513,-400,4,1,0,60,0,0
82747.6540923128,-200,4,1,0,60,0,0
82786.1156307743,-100,4,1,0,60,0,0
82824.5771692359,6E-96,4,1,0,60,1,0
82824.5771692359,-10,4,1,0,60,0,0
82824.5871692359,461.538461538462,4,1,0,60,1,0
82824.5871692359,-1000000,4,1,0,60,0,0
82863.0387076974,-400,4,1,0,60,0,0
82901.500246159,-200,4,1,0,60,0,0
82939.9617846205,-100,4,1,0,60,0,0
82978.423323082,-1000000,4,1,0,60,0,0
83016.8848615436,-400,4,1,0,60,0,0
83055.3464000051,-200,4,1,0,60,0,0
83093.8079384666,-100,4,1,0,60,0,0
83132.2694769282,-12.5,4,1,0,60,0,0
83161.1156307743,-400,4,1,0,60,0,0
83363.0387076974,-50,4,1,0,60,0,0
83391.8848615436,-400,4,1,0,60,0,0
83593.8079384666,-25,4,1,0,60,0,0
83622.6540923128,-400,4,1,0,60,0,0
83709,-50,4,1,0,60,0,0
83737.8461538461,-400,4,1,0,60,0,0
83824.5771692359,-50,4,1,0,60,0,0
83853.423323082,-400,4,1,0,60,0,0
84055.3464000051,-12.5,4,1,0,60,0,0
84084.1925538513,-400,4,1,0,60,0,0
84286.1156307743,-50,4,1,0,60,0,0
84314.9617846205,-400,4,1,0,60,0,0
84516.8848615436,6E-96,4,1,0,60,1,0
84516.8848615436,-10,4,1,0,60,0,0
84516.8948615436,461.538461538462,4,1,0,60,1,0
84516.8948615436,-1000000,4,1,0,60,0,0
84555.3464000051,-400,4,1,0,60,0,0
84593.8079384666,-200,4,1,0,60,0,0
84632.2694769282,-100,4,1,0,60,0,0
84670.7310153897,6E-96,4,1,0,60,1,0
84670.7310153897,-10,4,1,0,60,0,0
84670.7410153897,461.538461538462,4,1,0,60,1,0
84670.7410153897,-1000000,4,1,0,60,0,0
84709.1925538513,-400,4,1,0,60,0,0
84747.6540923128,-200,4,1,0,60,0,0
84786.1156307743,-100,4,1,0,60,0,0
84824.5771692359,-1000000,4,1,0,60,0,0
84863.0387076974,-400,4,1,0,60,0,0
84901.500246159,-200,4,1,0,60,0,0
84939.9617846205,-100,4,1,0,60,0,0
84978.423323082,-12.5,4,1,0,60,0,0
85007.2694769282,-400,4,1,0,60,0,0
85209.1925538513,-50,4,1,0,60,0,0
85238.0387076974,-400,4,1,0,60,0,0
85439,-45.045045045045,4,1,0,60,0,0
85453,-500,4,1,0,60,0,0
85468,-45.045045045045,4,1,0,60,0,0
85482,-500,4,1,0,60,0,0
85497,-45.045045045045,4,1,0,60,0,0
85511,-500,4,1,0,60,0,0
85526,-45.045045045045,4,1,0,60,0,0
85540,-500,4,1,0,60,0,0
85554,-45.045045045045,4,1,0,60,0,0
85568,-500,4,1,0,60,0,0
85583,-45.045045045045,4,1,0,60,0,0
85597,-500,4,1,0,60,0,0
85612,-45.045045045045,4,1,0,60,0,0
85626,-500,4,1,0,60,0,0
85641,-45.045045045045,4,1,0,60,0,0
85655,-500,4,1,0,60,0,0
85670,-45.045045045045,4,1,0,60,0,0
85684,-500,4,1,0,60,0,0
85699,-45.045045045045,4,1,0,60,0,0
85713,-500,4,1,0,60,0,0
85728,-45.045045045045,4,1,0,60,0,0
85742,-500,4,1,0,60,0,0
85757,-45.045045045045,4,1,0,60,0,0
85771,-500,4,1,0,60,0,0
85785,-45.045045045045,4,1,0,60,0,0
85799,-500,4,1,0,60,0,0
85814,-45.045045045045,4,1,0,60,0,0
85828,-500,4,1,0,60,0,0
85843,-45.045045045045,4,1,0,60,0,0
85857,-500,4,1,0,60,0,0
85886,-10,4,1,0,60,0,0
85901,-33.3333333333333,4,1,0,60,0,0
85915,-500,4,1,0,60,0,0
85932,-33.3333333333333,4,1,0,60,0,0
85946,-500,4,1,0,60,0,0
85961,-33.3333333333333,4,1,0,60,0,0
85975,-500,4,1,0,60,0,0
85990,-33.3333333333333,4,1,0,60,0,0
86004,-500,4,1,0,60,0,0
86019,-33.3333333333333,4,1,0,60,0,0
86033,-500,4,1,0,60,0,0
86048,-33.3333333333333,4,1,0,60,0,0
86062,-500,4,1,0,60,0,0
86077,-33.3333333333333,4,1,0,60,0,0
86091,-500,4,1,0,60,0,0
86106,-33.3333333333333,4,1,0,60,0,0
86120,-500,4,1,0,60,0,0
86134,-33.3333333333333,4,1,0,60,0,0
86148,-500,4,1,0,60,0,0
86163,-33.3333333333333,4,1,0,60,0,0
86177,-500,4,1,0,60,0,0
86192,-33.3333333333333,4,1,0,60,0,0
86206,-500,4,1,0,60,0,0
86221,-33.3333333333333,4,1,0,60,0,0
86235,-500,4,1,0,60,0,0
86249,-33.3333333333333,4,1,0,60,0,0
86263,-500,4,1,0,60,0,0
86278,-33.3333333333333,4,1,0,60,0,0
86292,-500,4,1,0,60,0,0
86307,-33.3333333333333,4,1,0,60,0,0
86321,-500,4,1,0,60,0,0
86336,-33.3333333333333,4,1,0,60,0,0
86350,-500,4,1,0,60,0,0
86806,-10,4,1,0,60,0,0
86826,-45.045045045045,4,1,0,60,0,0
86840,-500,4,1,0,60,0,0
86855,-45.045045045045,4,1,0,60,0,0
86869,-500,4,1,0,60,0,0
86884,-45.045045045045,4,1,0,60,0,0
86898,-500,4,1,0,60,0,0
86913,-45.045045045045,4,1,0,60,0,0
86927,-500,4,1,0,60,0,0
86942,-45.045045045045,4,1,0,60,0,0
86956,-500,4,1,0,60,0,0
86971,-45.045045045045,4,1,0,60,0,0
86985,-500,4,1,0,60,0,0
87000,-45.045045045045,4,1,0,60,0,0
87014,-500,4,1,0,60,0,0
87029,-45.045045045045,4,1,0,60,0,0
87043,-500,4,1,0,60,0,0
87057,-45.045045045045,4,1,0,60,0,0
87071,-500,4,1,0,60,0,0
87086,-45.045045045045,4,1,0,60,0,0
87100,-500,4,1,0,60,0,0
87115,-45.045045045045,4,1,0,60,0,0
87129,-500,4,1,0,60,0,0
87144,-45.045045045045,4,1,0,60,0,0
87158,-500,4,1,0,60,0,0
87172,-45.045045045045,4,1,0,60,0,0
87186,-500,4,1,0,60,0,0
87201,-45.045045045045,4,1,0,60,0,0
87215,-500,4,1,0,60,0,0
87230,-45.045045045045,4,1,0,60,0,0
87244,-500,4,1,0,60,0,0
87259,-45.045045045045,4,1,0,60,0,0
87273,-500,4,1,0,60,0,0
87288,-45.045045045045,4,1,0,60,0,0
87302,-500,4,1,0,60,0,0
87317,-45.045045045045,4,1,0,60,0,0
87331,-500,4,1,0,60,0,0
87346,-45.045045045045,4,1,0,60,0,0
87360,-500,4,1,0,60,0,0
87375,-45.045045045045,4,1,0,60,0,0
87389,-500,4,1,0,60,0,0
87404,-45.045045045045,4,1,0,60,0,0
87418,-500,4,1,0,60,0,0
87433,-45.045045045045,4,1,0,60,0,0
87447,-500,4,1,0,60,0,0
87462,-45.045045045045,4,1,0,60,0,0
87476,-500,4,1,0,60,0,0
87491,-45.045045045045,4,1,0,60,0,0
87505,-500,4,1,0,60,0,0
87519,-45.045045045045,4,1,0,60,0,0
87533,-500,4,1,0,60,0,0
87548,-45.045045045045,4,1,0,60,0,0
87562,-500,4,1,0,60,0,0
87577,-45.045045045045,4,1,0,60,0,0
87591,-500,4,1,0,60,0,0
87606,-45.045045045045,4,1,0,60,0,0
87620,-500,4,1,0,60,0,0
87634,-45.045045045045,4,1,0,60,0,0
87648,-500,4,1,0,60,0,0
87663,-45.045045045045,4,1,0,60,0,0
87677,-500,4,1,0,60,0,0
87692,-45.045045045045,4,1,0,60,0,0
87706,-500,4,1,0,60,0,0
87721,-45.045045045045,4,1,0,60,0,0
87735,-500,4,1,0,60,0,0
87750,-14.2857142857143,4,1,0,60,0,0
87764,-500,4,1,0,60,0,0
87779,-45.045045045045,4,1,0,60,0,0
87793,-500,4,1,0,60,0,0
87808,-45.045045045045,4,1,0,60,0,0
87822,-500,4,1,0,60,0,0
87837,-45.045045045045,4,1,0,60,0,0
87851,-500,4,1,0,60,0,0
87866,-45.045045045045,4,1,0,60,0,0
87880,-500,4,1,0,60,0,0
87895,-45.045045045045,4,1,0,60,0,0
87909,-500,4,1,0,60,0,0
87924,-45.045045045045,4,1,0,60,0,0
87938,-500,4,1,0,60,0,0
87953,-45.045045045045,4,1,0,60,0,0
87967,-500,4,1,0,60,0,0
87981,-45.045045045045,4,1,0,60,0,0
87995,-500,4,1,0,60,0,0
88010,-45.045045045045,4,1,0,60,0,0
88024,-500,4,1,0,60,0,0
88039,-45.045045045045,4,1,0,60,0,0
88053,-500,4,1,0,60,0,0
88068,-45.045045045045,4,1,0,60,0,0
88082,-500,4,1,0,60,0,0
88096,-45.045045045045,4,1,0,60,0,0
88110,-500,4,1,0,60,0,0
88125,-45.045045045045,4,1,0,60,0,0
88139,-500,4,1,0,60,0,0
88154,-45.045045045045,4,1,0,60,0,0
88168,-500,4,1,0,60,0,0
88183,-45.045045045045,4,1,0,60,0,0
88197,-500,4,1,0,60,0,0
88211,-45.045045045045,4,1,0,60,0,0
88225,-500,4,1,0,60,0,0
88240,-45.045045045045,4,1,0,60,0,0
88254,-500,4,1,0,60,0,0
88269,-45.045045045045,4,1,0,60,0,0
88283,-500,4,1,0,60,0,0
88298,-45.045045045045,4,1,0,60,0,0
88312,-500,4,1,0,60,0,0
88327,-45.045045045045,4,1,0,60,0,0
88341,-500,4,1,0,60,0,0
88356,-45.045045045045,4,1,0,60,0,0
88370,-500,4,1,0,60,0,0
88385,-45.045045045045,4,1,0,60,0,0
88399,-500,4,1,0,60,0,0
88414,-45.045045045045,4,1,0,60,0,0
88428,-500,4,1,0,60,0,0
88442,-45.045045045045,4,1,0,60,0,0
88456,-500,4,1,0,60,0,0
88471,-45.045045045045,4,1,0,60,0,0
88485,-500,4,1,0,60,0,0
88500,-45.045045045045,4,1,0,60,0,0
88514,-500,4,1,0,60,0,0
88529,-45.045045045045,4,1,0,60,0,0
88543,-500,4,1,0,60,0,0
88557,-45.045045045045,4,1,0,60,0,0
88571,-500,4,1,0,60,0,0
88586,-45.045045045045,4,1,0,60,0,0
88600,-500,4,1,0,60,0,0
88615,-45.045045045045,4,1,0,60,0,0
88629,-500,4,1,0,60,0,0
88644,-45.045045045045,4,1,0,60,0,0
88658,-500,4,1,0,60,0,0
88673,-14.2857142857143,4,1,0,60,0,0
88687,-500,4,1,0,60,0,0
88702,-45.045045045045,4,1,0,60,0,0
88716,-500,4,1,0,60,0,0
88731,-45.045045045045,4,1,0,60,0,0
88745,-500,4,1,0,60,0,0
88760,-45.045045045045,4,1,0,60,0,0
88774,-500,4,1,0,60,0,0
88789,-45.045045045045,4,1,0,60,0,0
88803,-500,4,1,0,60,0,0
88818,-45.045045045045,4,1,0,60,0,0
88832,-500,4,1,0,60,0,0
88847,-45.045045045045,4,1,0,60,0,0
88861,-500,4,1,0,60,0,0
88876,-45.045045045045,4,1,0,60,0,0
88890,-500,4,1,0,60,0,0
88904,-45.045045045045,4,1,0,60,0,0
88918,-500,4,1,0,60,0,0
88933,-45.045045045045,4,1,0,60,0,0
88947,-500,4,1,0,60,0,0
88962,-45.045045045045,4,1,0,60,0,0
88976,-500,4,1,0,60,0,0
88991,-45.045045045045,4,1,0,60,0,0
89005,-500,4,1,0,60,0,0
89019,-45.045045045045,4,1,0,60,0,0
89033,-500,4,1,0,60,0,0
89048,-45.045045045045,4,1,0,60,0,0
89062,-500,4,1,0,60,0,0
89077,-45.045045045045,4,1,0,60,0,0
89091,-500,4,1,0,60,0,0
89106,-45.045045045045,4,1,0,60,0,0
89120,-500,4,1,0,60,0,0
89134,-45.045045045045,4,1,0,60,0,0
89148,-500,4,1,0,60,0,0
89163,-45.045045045045,4,1,0,60,0,0
89177,-500,4,1,0,60,0,0
89192,-45.045045045045,4,1,0,60,0,0
89206,-500,4,1,0,60,0,0
89221,-45.045045045045,4,1,0,60,0,0
89235,-500,4,1,0,60,0,0
89250,-45.045045045045,4,1,0,60,0,0
89264,-500,4,1,0,60,0,0
89279,-45.045045045045,4,1,0,60,0,0
89293,-500,4,1,0,60,0,0
89308,-45.045045045045,4,1,0,60,0,0
89322,-500,4,1,0,60,0,0
89337,-45.045045045045,4,1,0,60,0,0
89351,-500,4,1,0,60,0,0
89365,-45.045045045045,4,1,0,60,0,0
89379,-500,4,1,0,60,0,0
89394,-45.045045045045,4,1,0,60,0,0
89408,-500,4,1,0,60,0,0
89423,-45.045045045045,4,1,0,60,0,0
89437,-500,4,1,0,60,0,0
89452,-45.045045045045,4,1,0,60,0,0
89466,-500,4,1,0,60,0,0
89480,-45.045045045045,4,1,0,60,0,0
89494,-500,4,1,0,60,0,0
89509,-45.045045045045,4,1,0,60,0,0
89523,-500,4,1,0,60,0,0
89538,-45.045045045045,4,1,0,60,0,0
89552,-500,4,1,0,60,0,0
89567,-45.045045045045,4,1,0,60,0,0
89581,-500,4,1,0,60,0,0
89593,461.538461538462,4,1,0,60,1,0
89596,-71.4285714285714,4,1,0,60,0,0
89607.5,-74.0740740740741,4,1,0,60,0,0
89619,-76.9230769230769,4,1,0,60,0,0
89630.5,-80,4,1,0,60,0,0
89642,-83.3333333333333,4,1,0,60,0,0
89653.5,-86.9565217391304,4,1,0,60,0,0
89665,-90.9090909090909,4,1,0,60,0,0
89676.5,-95.2380952380952,4,1,0,60,0,0
89688,-100,4,1,0,60,0,0
89699.5,-105.263157894737,4,1,0,60,0,0
89711,-111.111111111111,4,1,0,60,0,0
89722.5,-117.647058823529,4,1,0,60,0,0
89734,-125,4,1,0,60,0,0
89745.5,-133.333333333333,4,1,0,60,0,0
89757,-142.857142857143,4,1,0,60,0,0
89768.5,-153.846153846154,4,1,0,60,0,0
89780,-166.666666666667,4,1,0,60,0,0
89791.5,-181.818181818182,4,1,0,60,0,0
89803,-200,4,1,0,60,0,0
89814.5,-222.222222222222,4,1,0,60,0,0
89826,-250,4,1,0,60,0,0
90057,-71.4285714285714,4,1,0,60,0,0
90068.5,-74.0740740740741,4,1,0,60,0,0
90080,-76.9230769230769,4,1,0,60,0,0
90091.5,-80,4,1,0,60,0,0
90103,-83.3333333333333,4,1,0,60,0,0
90114.5,-86.9565217391304,4,1,0,60,0,0
90126,-90.9090909090909,4,1,0,60,0,0
90137.5,-95.2380952380952,4,1,0,60,0,0
90149,-100,4,1,0,60,0,0
90160.5,-105.263157894737,4,1,0,60,0,0
90172,-111.111111111111,4,1,0,60,0,0
90183.5,-117.647058823529,4,1,0,60,0,0
90195,-125,4,1,0,60,0,0
90206.5,-133.333333333333,4,1,0,60,0,0
90218,-142.857142857143,4,1,0,60,0,0
90229.5,-153.846153846154,4,1,0,60,0,0
90241,-166.666666666667,4,1,0,60,0,0
90252.5,-181.818181818182,4,1,0,60,0,0
90264,-200,4,1,0,60,0,0
90275.5,-222.222222222222,4,1,0,60,0,0
90287,-250,4,1,0,60,0,0
90519,-71.4285714285714,4,1,0,60,0,0
90530.5,-74.0740740740741,4,1,0,60,0,0
90542,-76.9230769230769,4,1,0,60,0,0
90553.5,-80,4,1,0,60,0,0
90565,-83.3333333333333,4,1,0,60,0,0
90576.5,-86.9565217391304,4,1,0,60,0,0
90588,-90.9090909090909,4,1,0,60,0,0
90599.5,-95.2380952380952,4,1,0,60,0,0
90611,-100,4,1,0,60,0,0
90622.5,-105.263157894737,4,1,0,60,0,0
90634,-111.111111111111,4,1,0,60,0,0
90645.5,-117.647058823529,4,1,0,60,0,0
90657,-125,4,1,0,60,0,0
90668.5,-133.333333333333,4,1,0,60,0,0
90680,-142.857142857143,4,1,0,60,0,0
90691.5,-153.846153846154,4,1,0,60,0,0
90703,-166.666666666667,4,1,0,60,0,0
90714.5,-181.818181818182,4,1,0,60,0,0
90726,-200,4,1,0,60,0,0
90737.5,-222.222222222222,4,1,0,60,0,0
90749,-250,4,1,0,60,0,0
90980,-71.4285714285714,4,1,0,60,0,0
90991.5,-74.0740740740741,4,1,0,60,0,0
91003,-76.9230769230769,4,1,0,60,0,0
91014.5,-80,4,1,0,60,0,0
91026,-83.3333333333333,4,1,0,60,0,0
91037.5,-86.9565217391304,4,1,0,60,0,0
91049,-90.9090909090909,4,1,0,60,0,0
91060.5,-95.2380952380952,4,1,0,60,0,0
91072,-100,4,1,0,60,0,0
91083.5,-105.263157894737,4,1,0,60,0,0
91095,-111.111111111111,4,1,0,60,0,0
91106.5,-117.647058823529,4,1,0,60,0,0
91118,-125,4,1,0,60,0,0
91129.5,-133.333333333333,4,1,0,60,0,0
91141,-142.857142857143,4,1,0,60,0,0
91152.5,-153.846153846154,4,1,0,60,0,0
91164,-166.666666666667,4,1,0,60,0,0
91175.5,-181.818181818182,4,1,0,60,0,0
91187,-200,4,1,0,60,0,0
91198.5,-222.222222222222,4,1,0,60,0,0
91210,-250,4,1,0,60,0,0
91442,-71.4285714285714,4,1,0,60,0,0
91453.5,-74.0740740740741,4,1,0,60,0,0
91465,-76.9230769230769,4,1,0,60,0,0
91476.5,-80,4,1,0,60,0,0
91488,-83.3333333333333,4,1,0,60,0,0
91499.5,-86.9565217391304,4,1,0,60,0,0
91511,-90.9090909090909,4,1,0,60,0,0
91522.5,-95.2380952380952,4,1,0,60,0,0
91534,-100,4,1,0,60,0,0
91545.5,-105.263157894737,4,1,0,60,0,0
91557,-111.111111111111,4,1,0,60,0,0
91568.5,-117.647058823529,4,1,0,60,0,0
91580,-125,4,1,0,60,0,0
91591.5,-133.333333333333,4,1,0,60,0,0
91603,-142.857142857143,4,1,0,60,0,0
91614.5,-153.846153846154,4,1,0,60,0,0
91626,-166.666666666667,4,1,0,60,0,0
91637.5,-181.818181818182,4,1,0,60,0,0
91649,-200,4,1,0,60,0,0
91660.5,-222.222222222222,4,1,0,60,0,0
91672,-250,4,1,0,60,0,0
91903,-71.4285714285714,4,1,0,60,0,0
91914.5,-74.0740740740741,4,1,0,60,0,0
91926,-76.9230769230769,4,1,0,60,0,0
91937.5,-80,4,1,0,60,0,0
91949,-83.3333333333333,4,1,0,60,0,0
91960.5,-86.9565217391304,4,1,0,60,0,0
91972,-90.9090909090909,4,1,0,60,0,0
91983.5,-95.2380952380952,4,1,0,60,0,0
91995,-100,4,1,0,60,0,0
92006.5,-105.263157894737,4,1,0,60,0,0
92018,-111.111111111111,4,1,0,60,0,0
92029.5,-117.647058823529,4,1,0,60,0,0
92041,-125,4,1,0,60,0,0
92052.5,-133.333333333333,4,1,0,60,0,0
92064,-142.857142857143,4,1,0,60,0,0
92075.5,-153.846153846154,4,1,0,60,0,0
92087,-166.666666666667,4,1,0,60,0,0
92098.5,-181.818181818182,4,1,0,60,0,0
92110,-200,4,1,0,60,0,0
92121.5,-222.222222222222,4,1,0,60,0,0
92133,-250,4,1,0,60,0,0
92365,-71.4285714285714,4,1,0,60,0,0
92376.5,-74.0740740740741,4,1,0,60,0,0
92388,-76.9230769230769,4,1,0,60,0,0
92399.5,-80,4,1,0,60,0,0
92411,-83.3333333333333,4,1,0,60,0,0
92422.5,-86.9565217391304,4,1,0,60,0,0
92434,-90.9090909090909,4,1,0,60,0,0
92445.5,-95.2380952380952,4,1,0,60,0,0
92457,-100,4,1,0,60,0,0
92468.5,-105.263157894737,4,1,0,60,0,0
92480,-111.111111111111,4,1,0,60,0,0
92491.5,-117.647058823529,4,1,0,60,0,0
92503,-125,4,1,0,60,0,0
92514.5,-133.333333333333,4,1,0,60,0,0
92526,-142.857142857143,4,1,0,60,0,0
92537.5,-153.846153846154,4,1,0,60,0,0
92549,-166.666666666667,4,1,0,60,0,0
92560.5,-181.818181818182,4,1,0,60,0,0
92572,-200,4,1,0,60,0,0
92583.5,-222.222222222222,4,1,0,60,0,0
92595,-250,4,1,0,60,0,0
92826,-71.4285714285714,4,1,0,60,0,0
92837.5,-74.0740740740741,4,1,0,60,0,0
92849,-76.9230769230769,4,1,0,60,0,0
92860.5,-80,4,1,0,60,0,0
92872,-83.3333333333333,4,1,0,60,0,0
92883.5,-86.9565217391304,4,1,0,60,0,0
92895,-90.9090909090909,4,1,0,60,0,0
92906.5,-95.2380952380952,4,1,0,60,0,0
92918,-100,4,1,0,60,0,0
92929.5,-105.263157894737,4,1,0,60,0,0
92941,-111.111111111111,4,1,0,60,0,0
92952.5,-117.647058823529,4,1,0,60,0,0
92964,-125,4,1,0,60,0,0
92975.5,-133.333333333333,4,1,0,60,0,0
92987,-142.857142857143,4,1,0,60,0,0
92998.5,-153.846153846154,4,1,0,60,0,0
93010,-166.666666666667,4,1,0,60,0,0
93021.5,-181.818181818182,4,1,0,60,0,0
93033,-200,4,1,0,60,0,0
93044.5,-222.222222222222,4,1,0,60,0,0
93056,-250,4,1,0,60,0,0
93288,-71.4285714285714,4,1,0,60,0,0
93299.5,-74.0740740740741,4,1,0,60,0,0
93311,-76.9230769230769,4,1,0,60,0,0
93322.5,-80,4,1,0,60,0,0
93334,-83.3333333333333,4,1,0,60,0,0
93345.5,-86.9565217391304,4,1,0,60,0,0
93357,-90.9090909090909,4,1,0,60,0,0
93368.5,-95.2380952380952,4,1,0,60,0,0
93380,-100,4,1,0,60,0,0
93391.5,-105.263157894737,4,1,0,60,0,0
93403,-111.111111111111,4,1,0,60,0,0
93414.5,-117.647058823529,4,1,0,60,0,0
93426,-125,4,1,0,60,0,0
93437.5,-133.333333333333,4,1,0,60,0,0
93449,-142.857142857143,4,1,0,60,0,0
93460.5,-153.846153846154,4,1,0,60,0,0
93472,-166.666666666667,4,1,0,60,0,0
93483.5,-181.818181818182,4,1,0,60,0,0
93495,-200,4,1,0,60,0,0
93506.5,-222.222222222222,4,1,0,60,0,0
93518,-250,4,1,0,60,0,0
93749,-71.4285714285714,4,1,0,60,0,0
93760.5,-74.0740740740741,4,1,0,60,0,0
93772,-76.9230769230769,4,1,0,60,0,0
93783.5,-80,4,1,0,60,0,0
93795,-83.3333333333333,4,1,0,60,0,0
93806.5,-86.9565217391304,4,1,0,60,0,0
93818,-90.9090909090909,4,1,0,60,0,0
93829.5,-95.2380952380952,4,1,0,60,0,0
93841,-100,4,1,0,60,0,0
93852.5,-105.263157894737,4,1,0,60,0,0
93864,-111.111111111111,4,1,0,60,0,0
93875.5,-117.647058823529,4,1,0,60,0,0
93887,-125,4,1,0,60,0,0
93898.5,-133.333333333333,4,1,0,60,0,0
93910,-142.857142857143,4,1,0,60,0,0
93921.5,-153.846153846154,4,1,0,60,0,0
93933,-166.666666666667,4,1,0,60,0,0
93944.5,-181.818181818182,4,1,0,60,0,0
93956,-200,4,1,0,60,0,0
93967.5,-222.222222222222,4,1,0,60,0,0
93979,-250,4,1,0,60,0,0
94211,-71.4285714285714,4,1,0,60,0,0
94222.5,-74.0740740740741,4,1,0,60,0,0
94234,-76.9230769230769,4,1,0,60,0,0
94245.5,-80,4,1,0,60,0,0
94257,-83.3333333333333,4,1,0,60,0,0
94268.5,-86.9565217391304,4,1,0,60,0,0
94280,-90.9090909090909,4,1,0,60,0,0
94291.5,-95.2380952380952,4,1,0,60,0,0
94303,-100,4,1,0,60,0,0
94314.5,-105.263157894737,4,1,0,60,0,0
94326,-111.111111111111,4,1,0,60,0,0
94337.5,-117.647058823529,4,1,0,60,0,0
94349,-125,4,1,0,60,0,0
94360.5,-133.333333333333,4,1,0,60,0,0
94372,-142.857142857143,4,1,0,60,0,0
94383.5,-153.846153846154,4,1,0,60,0,0
94395,-166.666666666667,4,1,0,60,0,0
94406.5,-181.818181818182,4,1,0,60,0,0
94418,-200,4,1,0,60,0,0
94429.5,-222.222222222222,4,1,0,60,0,0
94441,-250,4,1,0,60,0,0
94672,-71.4285714285714,4,1,0,60,0,0
94683.5,-74.0740740740741,4,1,0,60,0,0
94695,-76.9230769230769,4,1,0,60,0,0
94706.5,-80,4,1,0,60,0,0
94718,-83.3333333333333,4,1,0,60,0,0
94729.5,-86.9565217391304,4,1,0,60,0,0
94741,-90.9090909090909,4,1,0,60,0,0
94752.5,-95.2380952380952,4,1,0,60,0,0
94764,-100,4,1,0,60,0,0
94775.5,-105.263157894737,4,1,0,60,0,0
94787,-111.111111111111,4,1,0,60,0,0
94798.5,-117.647058823529,4,1,0,60,0,0
94810,-125,4,1,0,60,0,0
94821.5,-133.333333333333,4,1,0,60,0,0
94833,-142.857142857143,4,1,0,60,0,0
94844.5,-153.846153846154,4,1,0,60,0,0
94856,-166.666666666667,4,1,0,60,0,0
94867.5,-181.818181818182,4,1,0,60,0,0
94879,-200,4,1,0,60,0,0
94890.5,-222.222222222222,4,1,0,60,0,0
94902,-250,4,1,0,60,0,0
95134,-71.4285714285714,4,1,0,60,0,0
95145.5,-74.0740740740741,4,1,0,60,0,0
95157,-76.9230769230769,4,1,0,60,0,0
95168.5,-80,4,1,0,60,0,0
95180,-83.3333333333333,4,1,0,60,0,0
95191.5,-86.9565217391304,4,1,0,60,0,0
95203,-90.9090909090909,4,1,0,60,0,0
95214.5,-95.2380952380952,4,1,0,60,0,0
95226,-100,4,1,0,60,0,0
95237.5,-105.263157894737,4,1,0,60,0,0
95249,-111.111111111111,4,1,0,60,0,0
95260.5,-117.647058823529,4,1,0,60,0,0
95272,-125,4,1,0,60,0,0
95283.5,-133.333333333333,4,1,0,60,0,0
95295,-142.857142857143,4,1,0,60,0,0
95306.5,-153.846153846154,4,1,0,60,0,0
95318,-166.666666666667,4,1,0,60,0,0
95329.5,-181.818181818182,4,1,0,60,0,0
95341,-200,4,1,0,60,0,0
95352.5,-222.222222222222,4,1,0,60,0,0
95364,-250,4,1,0,60,0,0
95596,-71.4285714285714,4,1,0,60,0,0
95607.5,-74.0740740740741,4,1,0,60,0,0
95619,-76.9230769230769,4,1,0,60,0,0
95630.5,-80,4,1,0,60,0,0
95642,-83.3333333333333,4,1,0,60,0,0
95653.5,-86.9565217391304,4,1,0,60,0,0
95665,-90.9090909090909,4,1,0,60,0,0
95676.5,-95.2380952380952,4,1,0,60,0,0
95688,-100,4,1,0,60,0,0
95699.5,-105.263157894737,4,1,0,60,0,0
95711,-111.111111111111,4,1,0,60,0,0
95722.5,-117.647058823529,4,1,0,60,0,0
95734,-125,4,1,0,60,0,0
95745.5,-133.333333333333,4,1,0,60,0,0
95757,-142.857142857143,4,1,0,60,0,0
95768.5,-153.846153846154,4,1,0,60,0,0
95780,-166.666666666667,4,1,0,60,0,0
95791.5,-181.818181818182,4,1,0,60,0,0
95803,-200,4,1,0,60,0,0
95814.5,-222.222222222222,4,1,0,60,0,0
95826,-250,4,1,0,60,0,0
96057,-71.4285714285714,4,1,0,60,0,0
96068.5,-74.0740740740741,4,1,0,60,0,0
96080,-76.9230769230769,4,1,0,60,0,0
96091.5,-80,4,1,0,60,0,0
96103,-83.3333333333333,4,1,0,60,0,0
96114.5,-86.9565217391304,4,1,0,60,0,0
96126,-90.9090909090909,4,1,0,60,0,0
96137.5,-95.2380952380952,4,1,0,60,0,0
96149,-100,4,1,0,60,0,0
96160.5,-105.263157894737,4,1,0,60,0,0
96172,-111.111111111111,4,1,0,60,0,0
96183.5,-117.647058823529,4,1,0,60,0,0
96195,-125,4,1,0,60,0,0
96206.5,-133.333333333333,4,1,0,60,0,0
96218,-142.857142857143,4,1,0,60,0,0
96229.5,-153.846153846154,4,1,0,60,0,0
96241,-166.666666666667,4,1,0,60,0,0
96252.5,-181.818181818182,4,1,0,60,0,0
96264,-200,4,1,0,60,0,0
96275.5,-222.222222222222,4,1,0,60,0,0
96287,-250,4,1,0,60,0,0
96519,-71.4285714285714,4,1,0,60,0,0
96530.5,-74.0740740740741,4,1,0,60,0,0
96542,-76.9230769230769,4,1,0,60,0,0
96553.5,-80,4,1,0,60,0,0
96565,-83.3333333333333,4,1,0,60,0,0
96576.5,-86.9565217391304,4,1,0,60,0,0
96588,-90.9090909090909,4,1,0,60,0,0
96599.5,-95.2380952380952,4,1,0,60,0,0
96611,-100,4,1,0,60,0,0
96622.5,-105.263157894737,4,1,0,60,0,0
96634,-111.111111111111,4,1,0,60,0,0
96645.5,-117.647058823529,4,1,0,60,0,0
96657,-125,4,1,0,60,0,0
96668.5,-133.333333333333,4,1,0,60,0,0
96680,-142.857142857143,4,1,0,60,0,0
96691.5,-153.846153846154,4,1,0,60,0,0
96703,-166.666666666667,4,1,0,60,0,0
96714.5,-181.818181818182,4,1,0,60,0,0
96726,-200,4,1,0,60,0,0
96737.5,-222.222222222222,4,1,0,60,0,0
96750,-33.3333333333333,4,1,0,60,0,0
96769,-1000,4,1,0,60,0,0
96827,-33.3333333333333,4,1,0,60,0,0
96846,-1000,4,1,0,60,0,0
96904,-33.3333333333333,4,1,0,60,0,0
96923,-1000,4,1,0,60,0,0
96981,-20,4,1,0,60,0,0
96991,-1000,4,1,0,60,0,0
97097,-20,4,1,0,60,0,0
97107,-1000,4,1,0,60,0,0
97212,-20,4,1,0,60,0,0
97222,-1000,4,1,0,60,0,0
97327,-20,4,1,0,60,0,0
97337,-1000,4,1,0,60,0,0
97443,-20,4,1,0,60,0,0
97453,-1000,4,1,0,60,0,0
97559,-20,4,1,0,60,0,0
97569,-1000,4,1,0,60,0,0
97674,-20,4,1,0,60,0,0
97684,-1000,4,1,0,60,0,0
97789,-20,4,1,0,60,0,0
97799,-1000,4,1,0,60,0,0
97904,-16.6666666666667,4,1,0,60,0,0
97914,-1000,4,1,0,60,0,0
98020,-16.6666666666667,4,1,0,60,0,0
98030,-1000,4,1,0,60,0,0
98135,-16.6666666666667,4,1,0,60,0,0
98145,-1000,4,1,0,60,0,0
98250,-16.6666666666667,4,1,0,60,0,0
98260,-1000,4,1,0,60,0,0
98366,-16.6666666666667,4,1,0,60,0,0
98376,-1000,4,1,0,60,0,0
98482,-16.6666666666667,4,1,0,60,0,0
98492,-1000,4,1,0,60,0,0
98597,-16.6666666666667,4,1,0,60,0,0
98607,-1000,4,1,0,60,0,0
98712,-16.6666666666667,4,1,0,60,0,0
98722,-1000,4,1,0,60,0,0
98827,-14.2857142857143,4,1,0,60,0,0
98837,-1000,4,1,0,60,0,0
98943,-14.2857142857143,4,1,0,60,0,0
98953,-1000,4,1,0,60,0,0
99058,-14.2857142857143,4,1,0,60,0,0
99068,-1000,4,1,0,60,0,0
99173,-14.2857142857143,4,1,0,60,0,0
99183,-1000,4,1,0,60,0,0
99289,-14.2857142857143,4,1,0,60,0,0
99299,-1000,4,1,0,60,0,0
99405,-14.2857142857143,4,1,0,60,0,0
99415,-1000,4,1,0,60,0,0
99520,-14.2857142857143,4,1,0,60,0,0
99530,-1000,4,1,0,60,0,0
99635,-14.2857142857143,4,1,0,60,0,0
99645,-1000,4,1,0,60,0,0
99750,-12.5,4,1,0,60,0,0
99760,-1000,4,1,0,60,0,0
99866,-12.5,4,1,0,60,0,0
99876,-1000,4,1,0,60,0,0
99981,-12.5,4,1,0,60,0,0
99991,-1000,4,1,0,60,0,0
100096,-12.5,4,1,0,60,0,0
100106,-1000,4,1,0,60,0,0
100212,-12.5,4,1,0,60,0,0
100222,-1000,4,1,0,60,0,0
100328,-12.5,4,1,0,60,0,0
100338,-1000,4,1,0,60,0,0
100443,-12.5,4,1,0,60,0,0
100453,-1000,4,1,0,60,0,0
100558,-12.5,4,1,0,60,0,0
100568,-1000,4,1,0,60,0,0
100673,-41.6666666666667,4,1,0,60,0,0
100731,-1000,4,1,0,60,0,0
100789,-41.6666666666667,4,1,0,60,0,0
100847,-1000,4,1,0,60,0,0
100904,-41.6666666666667,4,1,0,60,0,0
100962,-1000,4,1,0,60,0,0
101020,-41.6666666666667,4,1,0,60,0,0
101078,-1000,4,1,0,60,0,0
101135,-41.6666666666667,4,1,0,60,0,0
101193,-1000,4,1,0,60,0,0
101250,-41.6666666666667,4,1,0,60,0,0
101308,-1000,4,1,0,60,0,0
101366,-41.6666666666667,4,1,0,60,0,0
101424,-1000,4,1,0,60,0,0
101481,-41.6666666666667,4,1,0,60,0,0
101539,-1000,4,1,0,60,0,0
101597,-41.6666666666667,4,1,0,60,0,0
101655,-1000,4,1,0,60,0,0
101713,-41.6666666666667,4,1,0,60,0,0
101771,-1000,4,1,0,60,0,0
101828,-41.6666666666667,4,1,0,60,0,0
101886,-1000,4,1,0,60,0,0
101944,-41.6666666666667,4,1,0,60,0,0
102002,-1000,4,1,0,60,0,0
102059,-41.6666666666667,4,1,0,60,0,0
102117,-1000,4,1,0,60,0,0
102174,-41.6666666666667,4,1,0,60,0,0
102232,-1000,4,1,0,60,0,0
102290,-41.6666666666667,4,1,0,60,0,0
102348,-1000,4,1,0,60,0,0
102405,-41.6666666666667,4,1,0,60,0,0
102463,-1000,4,1,0,60,0,0
102520,-71.4285714285714,4,1,0,60,0,0
102548.825,-72.992700729927,4,1,0,60,0,0
102577.65,-74.6268656716418,4,1,0,60,0,0
102606.475,-76.3358778625954,4,1,0,60,0,0
102635.3,-78.125,4,1,0,60,0,0
102664.125,-80,4,1,0,60,0,0
102692.95,-81.9672131147541,4,1,0,60,0,0
102721.775,-84.0336134453782,4,1,0,60,0,0
102750.6,-86.2068965517241,4,1,0,60,0,0
102779.425,-88.495575221239,4,1,0,60,0,0
102808.25,-90.9090909090909,4,1,0,60,0,0
102837.075,-93.4579439252336,4,1,0,60,0,0
102865.9,-96.1538461538461,4,1,0,60,0,0
102894.725,-99.009900990099,4,1,0,60,0,0
102923.55,-102.040816326531,4,1,0,60,0,0
102952.375,-105.263157894737,4,1,0,60,0,0
102981.2,-108.695652173913,4,1,0,60,0,0
103010.025,-112.359550561798,4,1,0,60,0,0
103038.85,-116.279069767442,4,1,0,60,0,0
103067.675,-120.481927710843,4,1,0,60,0,0
103096.5,-125,4,1,0,60,0,0
103125.325,-129.87012987013,4,1,0,60,0,0
103154.15,-135.135135135135,4,1,0,60,0,0
103182.975,-140.845070422535,4,1,0,60,0,0
103211.8,-147.058823529412,4,1,0,60,0,0
103240.625,-153.846153846154,4,1,0,60,0,0
103269.45,-161.290322580645,4,1,0,60,0,0
103298.275,-169.491525423729,4,1,0,60,0,0
103327.1,-178.571428571429,4,1,0,60,0,0
103355.925,-188.679245283019,4,1,0,60,0,0
103384.75,-200,4,1,0,60,0,0
103413.575,-212.765957446809,4,1,0,60,0,0
103442.4,-227.272727272727,4,1,0,60,0,0
103471.225,-243.90243902439,4,1,0,60,0,0
103500.05,-263.157894736842,4,1,0,60,0,0
103528.875,-285.714285714286,4,1,0,60,0,0
103557.7,-312.5,4,1,0,60,0,0
103586.525,-344.827586206897,4,1,0,60,0,0
103615.35,-384.615384615385,4,1,0,60,0,0
103644.175,-434.782608695652,4,1,0,60,0,0
103673,-500,4,1,0,60,0,0
103888,-10,4,1,0,60,0,0
103903,6.59340659340659,4,1,0,60,1,0
103903,-250,4,1,0,60,0,0
103913,150000000,4,1,0,60,1,0
104023,461.538461538462,4,1,0,60,1,0
104352,-10,4,1,0,60,0,0
104362,-33.3333333333333,4,1,0,60,0,0
104376,-333.333333333333,4,1,0,60,0,0
104391,-33.3333333333333,4,1,0,60,0,0
104405,-333.333333333333,4,1,0,60,0,0
104420,-33.3333333333333,4,1,0,60,0,0
104434,-333.333333333333,4,1,0,60,0,0
104449,-33.3333333333333,4,1,0,60,0,0
104463,-333.333333333333,4,1,0,60,0,0
104478,-33.3333333333333,4,1,0,60,0,0
104492,-333.333333333333,4,1,0,60,0,0
104506,-33.3333333333333,4,1,0,60,0,0
104520,-333.333333333333,4,1,0,60,0,0
104535,-33.3333333333333,4,1,0,60,0,0
104549,-333.333333333333,4,1,0,60,0,0
104564,-33.3333333333333,4,1,0,60,0,0
104578,-333.333333333333,4,1,0,60,0,0
104593,-33.3333333333333,4,1,0,60,0,0
104607,-35.5871886120996,4,1,0,60,0,0
104622,-38.0228136882129,4,1,0,60,0,0
104636,-40.9836065573771,4,1,0,60,0,0
104651,-44.4444444444444,4,1,0,60,0,0
104665,-48.3091787439614,4,1,0,60,0,0
104680,-53.1914893617021,4,1,0,60,0,0
104694,-59.1715976331361,4,1,0,60,0,0
104709,-66.2251655629139,4,1,0,60,0,0
104723,-75.7575757575758,4,1,0,60,0,0
104737,-88.495575221239,4,1,0,60,0,0
104752,-106.382978723404,4,1,0,60,0,0
104766,-131.578947368421,4,1,0,60,0,0
104781,-175.438596491228,4,1,0,60,0,0
104795,-263.157894736842,4,1,0,60,0,0
104810,-500,4,1,0,60,0,0
104824,-10000,4,1,0,60,0,0
105275,-10,4,1,0,60,0,0
105285,6.59340659340659,4,1,0,60,1,0
105285,-100,4,1,0,60,0,0
105287,150000000,4,1,0,60,1,0
105401,6.59340659340659,4,1,0,60,1,0
105401,-100,4,1,0,60,0,0
105403,150000000,4,1,0,60,1,0
105516,6.59340659340659,4,1,0,60,1,0
105516,-100,4,1,0,60,0,0
105518,150000000,4,1,0,60,1,0
105635,6.59340659340659,4,1,0,60,1,0
105635,-100,4,1,0,60,0,0
105637,150000000,4,1,0,60,1,0
105751,6.59340659340659,4,1,0,60,1,0
105751,-100,4,1,0,60,0,0
105753,150000000,4,1,0,60,1,0
105866,6.59340659340659,4,1,0,60,1,0
105866,-100,4,1,0,60,0,0
105868,150000000,4,1,0,60,1,0
105985,6.59340659340659,4,1,0,60,1,0
105985,-100,4,1,0,60,0,0
105987,150000000,4,1,0,60,1,0
106101,6.59340659340659,4,1,0,60,1,0
106101,-100,4,1,0,60,0,0
106103,150000000,4,1,0,60,1,0
106216,6.59340659340659,4,1,0,60,1,0
106216,-100,4,1,0,60,0,0
106218,150000000,4,1,0,60,1,0
106335,6.59340659340659,4,1,0,60,1,0
106335,-100,4,1,0,60,0,0
106337,150000000,4,1,0,60,1,0
106451,6.59340659340659,4,1,0,60,1,0
106451,-100,4,1,0,60,0,0
106453,150000000,4,1,0,60,1,0
106566,6.59340659340659,4,1,0,60,1,0
106566,-100,4,1,0,60,0,0
106568,150000000,4,1,0,60,1,0
106685,6.59340659340659,4,1,0,60,1,0
106685,-100,4,1,0,60,0,0
106687,150000000,4,1,0,60,1,0
106801,6.59340659340659,4,1,0,60,1,0
106801,-100,4,1,0,60,0,0
106803,150000000,4,1,0,60,1,0
106916,6.59340659340659,4,1,0,60,1,0
106916,-100,4,1,0,60,0,0
106918,150000000,4,1,0,60,1,0
107035,6.59340659340659,4,1,0,60,1,0
107035,-100,4,1,0,60,0,0
107037,150000000,4,1,0,60,1,0
107151,6.59340659340659,4,1,0,60,1,0
107151,-100,4,1,0,60,0,0
107153,150000000,4,1,0,60,1,0
107266,6.59340659340659,4,1,0,60,1,0
107266,-100,4,1,0,60,0,0
107268,150000000,4,1,0,60,1,0
107385,6.59340659340659,4,1,0,60,1,0
107385,-100,4,1,0,60,0,0
107387,150000000,4,1,0,60,1,0
107501,6.59340659340659,4,1,0,60,1,0
107501,-100,4,1,0,60,0,0
107503,150000000,4,1,0,60,1,0
107616,6.59340659340659,4,1,0,60,1,0
107616,-100,4,1,0,60,0,0
107618,150000000,4,1,0,60,1,0
107735,6.59340659340659,4,1,0,60,1,0
107735,-100,4,1,0,60,0,0
107737,150000000,4,1,0,60,1,0
107851,6.59340659340659,4,1,0,60,1,0
107851,-100,4,1,0,60,0,0
107853,150000000,4,1,0,60,1,0
107966,6.59340659340659,4,1,0,60,1,0
107966,-100,4,1,0,60,0,0
107968,150000000,4,1,0,60,1,0
108085,6.59340659340659,4,1,0,60,1,0
108085,-100,4,1,0,60,0,0
108087,150000000,4,1,0,60,1,0
108201,6.59340659340659,4,1,0,60,1,0
108201,-100,4,1,0,60,0,0
108203,150000000,4,1,0,60,1,0
108316,6.59340659340659,4,1,0,60,1,0
108316,-100,4,1,0,60,0,0
108318,150000000,4,1,0,60,1,0
108435,6.59340659340659,4,1,0,60,1,0
108435,-100,4,1,0,60,0,0
108437,150000000,4,1,0,60,1,0
108551,6.59340659340659,4,1,0,60,1,0
108551,-100,4,1,0,60,0,0
108553,150000000,4,1,0,60,1,0
108666,6.59340659340659,4,1,0,60,1,0
108666,-100,4,1,0,60,0,0
108668,150000000,4,1,0,60,1,0
108785,6.59340659340659,4,1,0,60,1,0
108785,-100,4,1,0,60,0,0
108787,150000000,4,1,0,60,1,0
108901,6.59340659340659,4,1,0,60,1,0
108901,-100,4,1,0,60,0,0
108903,150000000,4,1,0,60,1,0
109016,6.59340659340659,4,1,0,60,1,0
109016,-62.5,4,1,0,60,0,0
109018,150000000,4,1,0,60,1,0
109135,6.59340659340659,4,1,0,60,1,0
109135,-62.5,4,1,0,60,0,0
109137,150000000,4,1,0,60,1,0
109251,6.59340659340659,4,1,0,60,1,0
109251,-100,4,1,0,60,0,0
109253,150000000,4,1,0,60,1,0
109366,6.59340659340659,4,1,0,60,1,0
109366,-100,4,1,0,60,0,0
109368,150000000,4,1,0,60,1,0
109485,6.59340659340659,4,1,0,60,1,0
109485,-100,4,1,0,60,0,0
109487,150000000,4,1,0,60,1,0
109601,6.59340659340659,4,1,0,60,1,0
109601,-100,4,1,0,60,0,0
109603,150000000,4,1,0,60,1,0
109716,6.59340659340659,4,1,0,60,1,0
109716,-100,4,1,0,60,0,0
109718,150000000,4,1,0,60,1,0
109835,6.59340659340659,4,1,0,60,1,0
109835,-100,4,1,0,60,0,0
109837,150000000,4,1,0,60,1,0
109951,6.59340659340659,4,1,0,60,1,0
109951,-100,4,1,0,60,0,0
109953,150000000,4,1,0,60,1,0
110066,6.59340659340659,4,1,0,60,1,0
110066,-100,4,1,0,60,0,0
110068,150000000,4,1,0,60,1,0
110185,6.59340659340659,4,1,0,60,1,0
110185,-100,4,1,0,60,0,0
110187,150000000,4,1,0,60,1,0
110301,6.59340659340659,4,1,0,60,1,0
110301,-100,4,1,0,60,0,0
110303,150000000,4,1,0,60,1,0
110416,6.59340659340659,4,1,0,60,1,0
110416,-100,4,1,0,60,0,0
110418,150000000,4,1,0,60,1,0
110515,6.59340659340659,4,1,0,60,1,0
110515,-100,4,1,0,60,0,0
110517,150000000,4,1,0,60,1,0
110621,6.59340659340659,4,1,0,60,1,0
110621,-100,4,1,0,60,0,0
110623,150000000,4,1,0,60,1,0
110736,6.59340659340659,4,1,0,60,1,0
110736,-100,4,1,0,60,0,0
110738,150000000,4,1,0,60,1,0
110823,461.538461538462,4,1,0,60,1,0
111053,-10000,4,1,0,60,0,0
111264,-10,4,1,0,60,0,0
111284,-40,4,1,0,60,0,0
111313,-333.333333333333,4,1,0,60,0,0
111361,-40,4,1,0,60,0,0
111390,-333.333333333333,4,1,0,60,0,0
111438,-40,4,1,0,60,0,0
111467,-333.333333333333,4,1,0,60,0,0
111515,-40,4,1,0,60,0,0
111544,-333.333333333333,4,1,0,60,0,0
111592,-40,4,1,0,60,0,0
111621,-333.333333333333,4,1,0,60,0,0
111669,-40,4,1,0,60,0,0
111698,-333.333333333333,4,1,0,60,0,0
111746,-33.3333333333333,4,1,0,60,0,0
111760,-500,4,1,0,60,0,0
111774,-33.3333333333333,4,1,0,60,0,0
111788,-500,4,1,0,60,0,0
111803,-33.3333333333333,4,1,0,60,0,0
111817,-500,4,1,0,60,0,0
111832,-33.3333333333333,4,1,0,60,0,0
111846,-500,4,1,0,60,0,0
111862,-33.3333333333333,4,1,0,60,0,0
111876,-500,4,1,0,60,0,0
111890,-33.3333333333333,4,1,0,60,0,0
111904,-500,4,1,0,60,0,0
111919,-33.3333333333333,4,1,0,60,0,0
111933,-500,4,1,0,60,0,0
111948,-33.3333333333333,4,1,0,60,0,0
111962,-500,4,1,0,60,0,0
112187,-10,4,1,0,60,0,0
112207,-33.3333333333333,4,1,0,60,0,0
112221,-500,4,1,0,60,0,0
112235,-33.3333333333333,4,1,0,60,0,0
112249,-500,4,1,0,60,0,0
112264,-33.3333333333333,4,1,0,60,0,0
112278,-500,4,1,0,60,0,0
112293,-33.3333333333333,4,1,0,60,0,0
112307,-500,4,1,0,60,0,0
112323,-33.3333333333333,4,1,0,60,0,0
112337,-500,4,1,0,60,0,0
112351,-33.3333333333333,4,1,0,60,0,0
112365,-500,4,1,0,60,0,0
112380,-33.3333333333333,4,1,0,60,0,0
112394,-500,4,1,0,60,0,0
112409,-33.3333333333333,4,1,0,60,0,0
112423,-500,4,1,0,60,0,0
112659,-10,4,1,0,60,0,0
112669,6.59340659340659,4,1,0,60,1,0
112669,-100,4,1,0,60,0,0
112671,150000000,4,1,0,60,1,0
112785,6.59340659340659,4,1,0,60,1,0
112785,-100,4,1,0,60,0,0
112787,150000000,4,1,0,60,1,0
112898,6.59340659340659,4,1,0,60,1,0
112898,-100,4,1,0,60,0,0
112900,150000000,4,1,0,60,1,0
113019,6.59340659340659,4,1,0,60,1,0
113019,-100,4,1,0,60,0,0
113021,150000000,4,1,0,60,1,0
113135,6.59340659340659,4,1,0,60,1,0
113135,-100,4,1,0,60,0,0
113137,150000000,4,1,0,60,1,0
113250,6.59340659340659,4,1,0,60,1,0
113250,-100,4,1,0,60,0,0
113252,150000000,4,1,0,60,1,0
113369,6.59340659340659,4,1,0,60,1,0
113369,-100,4,1,0,60,0,0
113371,150000000,4,1,0,60,1,0
113485,6.59340659340659,4,1,0,60,1,0
113485,-100,4,1,0,60,0,0
113487,150000000,4,1,0,60,1,0
113600,6.59340659340659,4,1,0,60,1,0
113600,-100,4,1,0,60,0,0
113602,150000000,4,1,0,60,1,0
113719,6.59340659340659,4,1,0,60,1,0
113719,-100,4,1,0,60,0,0
113721,150000000,4,1,0,60,1,0
113835,6.59340659340659,4,1,0,60,1,0
113835,-100,4,1,0,60,0,0
113837,150000000,4,1,0,60,1,0
113950,6.59340659340659,4,1,0,60,1,0
113950,-100,4,1,0,60,0,0
113952,150000000,4,1,0,60,1,0
114069,6.59340659340659,4,1,0,60,1,0
114069,-100,4,1,0,60,0,0
114071,150000000,4,1,0,60,1,0
114185,6.59340659340659,4,1,0,60,1,0
114185,-100,4,1,0,60,0,0
114187,150000000,4,1,0,60,1,0
114300,6.59340659340659,4,1,0,60,1,0
114300,-100,4,1,0,60,0,0
114302,150000000,4,1,0,60,1,0
114419,6.59340659340659,4,1,0,60,1,0
114419,-100,4,1,0,60,0,0
114421,150000000,4,1,0,60,1,0
114535,6.59340659340659,4,1,0,60,1,0
114535,-100,4,1,0,60,0,0
114537,150000000,4,1,0,60,1,0
114650,6.59340659340659,4,1,0,60,1,0
114650,-100,4,1,0,60,0,0
114652,150000000,4,1,0,60,1,0
114769,6.59340659340659,4,1,0,60,1,0
114769,-100,4,1,0,60,0,0
114771,150000000,4,1,0,60,1,0
114885,6.59340659340659,4,1,0,60,1,0
114885,-100,4,1,0,60,0,0
114887,150000000,4,1,0,60,1,0
115000,6.59340659340659,4,1,0,60,1,0
115000,-100,4,1,0,60,0,0
115002,150000000,4,1,0,60,1,0
115119,6.59340659340659,4,1,0,60,1,0
115119,-100,4,1,0,60,0,0
115121,150000000,4,1,0,60,1,0
115235,6.59340659340659,4,1,0,60,1,0
115235,-100,4,1,0,60,0,0
115237,150000000,4,1,0,60,1,0
115350,6.59340659340659,4,1,0,60,1,0
115350,-100,4,1,0,60,0,0
115352,150000000,4,1,0,60,1,0
115469,6.59340659340659,4,1,0,60,1,0
115469,-100,4,1,0,60,0,0
115471,150000000,4,1,0,60,1,0
115585,6.59340659340659,4,1,0,60,1,0
115585,-100,4,1,0,60,0,0
115587,150000000,4,1,0,60,1,0
115700,6.59340659340659,4,1,0,60,1,0
115700,-100,4,1,0,60,0,0
115702,150000000,4,1,0,60,1,0
115819,6.59340659340659,4,1,0,60,1,0
115819,-100,4,1,0,60,0,0
115821,150000000,4,1,0,60,1,0
115935,6.59340659340659,4,1,0,60,1,0
115935,-100,4,1,0,60,0,0
115937,150000000,4,1,0,60,1,0
116050,6.59340659340659,4,1,0,60,1,0
116050,-100,4,1,0,60,0,0
116052,150000000,4,1,0,60,1,0
116169,6.59340659340659,4,1,0,60,1,0
116169,-100,4,1,0,60,0,0
116171,150000000,4,1,0,60,1,0
116285,6.59340659340659,4,1,0,60,1,0
116285,-100,4,1,0,60,0,0
116287,150000000,4,1,0,60,1,0
116400,6.59340659340659,4,1,0,60,1,0
116400,-100,4,1,0,60,0,0
116402,150000000,4,1,0,60,1,0
116519,6.59340659340659,4,1,0,60,1,0
116519,-100,4,1,0,60,0,0
116521,150000000,4,1,0,60,1,0
116635,6.59340659340659,4,1,0,60,1,0
116635,-100,4,1,0,60,0,0
116637,150000000,4,1,0,60,1,0
116750,6.59340659340659,4,1,0,60,1,0
116750,-100,4,1,0,60,0,0
116752,150000000,4,1,0,60,1,0
116869,6.59340659340659,4,1,0,60,1,0
116869,-100,4,1,0,60,0,0
116871,150000000,4,1,0,60,1,0
116985,6.59340659340659,4,1,0,60,1,0
116985,-100,4,1,0,60,0,0
116987,150000000,4,1,0,60,1,0
117100,6.59340659340659,4,1,0,60,1,0
117100,-100,4,1,0,60,0,0
117102,150000000,4,1,0,60,1,0
117219,6.59340659340659,4,1,0,60,1,0
117219,-100,4,1,0,60,0,0
117221,150000000,4,1,0,60,1,0
117335,6.59340659340659,4,1,0,60,1,0
117335,-100,4,1,0,60,0,0
117337,150000000,4,1,0,60,1,0
117450,6.59340659340659,4,1,0,60,1,0
117450,-100,4,1,0,60,0,0
117452,150000000,4,1,0,60,1,0
117569,6.59340659340659,4,1,0,60,1,0
117569,-100,4,1,0,60,0,0
117571,150000000,4,1,0,60,1,0
117685,6.59340659340659,4,1,0,60,1,0
117685,-100,4,1,0,60,0,0
117687,150000000,4,1,0,60,1,0
117800,6.59340659340659,4,1,0,60,1,0
117800,-100,4,1,0,60,0,0
117802,150000000,4,1,0,60,1,0
117899,6.59340659340659,4,1,0,60,1,0
117899,-100,4,1,0,60,0,0
117901,150000000,4,1,0,60,1,0
118005,6.59340659340659,4,1,0,60,1,0
118005,-100,4,1,0,60,0,0
118007,150000000,4,1,0,60,1,0
118120,6.59340659340659,4,1,0,60,1,0
118120,-100,4,1,0,60,0,0
118122,150000000,4,1,0,60,1,0
118207,461.538461538462,4,1,0,60,1,0
118668,6.59340659340659,4,1,0,60,1,0
118668,-250,4,1,0,60,0,0
118678,150000000,4,1,0,60,1,0
118788,461.538461538462,4,1,0,60,1,0
118788,-10000,4,1,0,60,0,0
119104,-10,4,1,0,60,0,0
119134,-100,4,1,0,60,0,0
119148,-500,4,1,0,60,0,0
119163,-100,4,1,0,60,0,0
119177,-500,4,1,0,60,0,0
119192,-100,4,1,0,60,0,0
119206,-500,4,1,0,60,0,0
119221,-100,4,1,0,60,0,0
119235,-500,4,1,0,60,0,0
119250,-100,4,1,0,60,0,0
119264,-500,4,1,0,60,0,0
119279,-100,4,1,0,60,0,0
119293,-500,4,1,0,60,0,0
119308,-100,4,1,0,60,0,0
119322,-500,4,1,0,60,0,0
119337,-100,4,1,0,60,0,0
119351,-500,4,1,0,60,0,0
119365,-100,4,1,0,60,0,0
119379,-500,4,1,0,60,0,0
119394,-100,4,1,0,60,0,0
119408,-500,4,1,0,60,0,0
119423,-100,4,1,0,60,0,0
119437,-500,4,1,0,60,0,0
119452,-100,4,1,0,60,0,0
119466,-500,4,1,0,60,0,0
119480,-100,4,1,0,60,0,0
119494,-500,4,1,0,60,0,0
119509,-100,4,1,0,60,0,0
119523,-500,4,1,0,60,0,0
119538,-100,4,1,0,60,0,0
119552,-500,4,1,0,60,0,0
119567,-100,4,1,0,60,0,0
119581,-500,4,1,0,60,0,0
119595,-100,4,1,0,60,0,0
119609,-500,4,1,0,60,0,0
119624,-100,4,1,0,60,0,0
119638,-500,4,1,0,60,0,0
119653,-100,4,1,0,60,0,0
119667,-500,4,1,0,60,0,0
119682,-100,4,1,0,60,0,0
119696,-500,4,1,0,60,0,0
119711,-100,4,1,0,60,0,0
119725,-500,4,1,0,60,0,0
119740,-100,4,1,0,60,0,0
119754,-500,4,1,0,60,0,0
119769,-100,4,1,0,60,0,0
119783,-500,4,1,0,60,0,0
119798,-100,4,1,0,60,0,0
119812,-500,4,1,0,60,0,0
119826,-100,4,1,0,60,0,0
119840,-500,4,1,0,60,0,0
119855,-100,4,1,0,60,0,0
119869,-500,4,1,0,60,0,0
119884,-100,4,1,0,60,0,0
119898,-500,4,1,0,60,0,0
119913,-100,4,1,0,60,0,0
119927,-500,4,1,0,60,0,0
119941,-100,4,1,0,60,0,0
119955,-500,4,1,0,60,0,0
119970,-100,4,1,0,60,0,0
119984,-500,4,1,0,60,0,0
119999,-100,4,1,0,60,0,0
120013,-500,4,1,0,60,0,0
120042,-10,4,1,0,60,0,0
120056,6.59340659340659,4,1,0,60,1,0
120056,-100,4,1,0,60,0,0
120058,150000000,4,1,0,60,1,0
120172,6.59340659340659,4,1,0,60,1,0
120172,-100,4,1,0,60,0,0
120174,150000000,4,1,0,60,1,0
120287,6.59340659340659,4,1,0,60,1,0
120287,-100,4,1,0,60,0,0
120289,150000000,4,1,0,60,1,0
120406,6.59340659340659,4,1,0,60,1,0
120406,-100,4,1,0,60,0,0
120408,150000000,4,1,0,60,1,0
120522,6.59340659340659,4,1,0,60,1,0
120522,-100,4,1,0,60,0,0
120524,150000000,4,1,0,60,1,0
120637,6.59340659340659,4,1,0,60,1,0
120637,-100,4,1,0,60,0,0
120639,150000000,4,1,0,60,1,0
120756,6.59340659340659,4,1,0,60,1,0
120756,-100,4,1,0,60,0,0
120758,150000000,4,1,0,60,1,0
120872,6.59340659340659,4,1,0,60,1,0
120872,-100,4,1,0,60,0,0
120874,150000000,4,1,0,60,1,0
120987,6.59340659340659,4,1,0,60,1,0
120987,-100,4,1,0,60,0,0
120989,150000000,4,1,0,60,1,0
121106,6.59340659340659,4,1,0,60,1,0
121106,-100,4,1,0,60,0,0
121108,150000000,4,1,0,60,1,0
121222,6.59340659340659,4,1,0,60,1,0
121222,-100,4,1,0,60,0,0
121224,150000000,4,1,0,60,1,0
121337,6.59340659340659,4,1,0,60,1,0
121337,-100,4,1,0,60,0,0
121339,150000000,4,1,0,60,1,0
121456,6.59340659340659,4,1,0,60,1,0
121456,-100,4,1,0,60,0,0
121458,150000000,4,1,0,60,1,0
121572,6.59340659340659,4,1,0,60,1,0
121572,-100,4,1,0,60,0,0
121574,150000000,4,1,0,60,1,0
121687,6.59340659340659,4,1,0,60,1,0
121687,-100,4,1,0,60,0,0
121689,150000000,4,1,0,60,1,0
121806,6.59340659340659,4,1,0,60,1,0
121806,-100,4,1,0,60,0,0
121808,150000000,4,1,0,60,1,0
121922,6.59340659340659,4,1,0,60,1,0
121922,-100,4,1,0,60,0,0
121924,150000000,4,1,0,60,1,0
122037,6.59340659340659,4,1,0,60,1,0
122037,-100,4,1,0,60,0,0
122039,150000000,4,1,0,60,1,0
122156,6.59340659340659,4,1,0,60,1,0
122156,-100,4,1,0,60,0,0
122158,150000000,4,1,0,60,1,0
122272,6.59340659340659,4,1,0,60,1,0
122272,-100,4,1,0,60,0,0
122274,150000000,4,1,0,60,1,0
122387,6.59340659340659,4,1,0,60,1,0
122387,-100,4,1,0,60,0,0
122389,150000000,4,1,0,60,1,0
122506,6.59340659340659,4,1,0,60,1,0
122506,-100,4,1,0,60,0,0
122508,150000000,4,1,0,60,1,0
122622,6.59340659340659,4,1,0,60,1,0
122622,-100,4,1,0,60,0,0
122624,150000000,4,1,0,60,1,0
122737,6.59340659340659,4,1,0,60,1,0
122737,-100,4,1,0,60,0,0
122739,150000000,4,1,0,60,1,0
122856,6.59340659340659,4,1,0,60,1,0
122856,-100,4,1,0,60,0,0
122858,150000000,4,1,0,60,1,0
122972,6.59340659340659,4,1,0,60,1,0
122972,-100,4,1,0,60,0,0
122974,150000000,4,1,0,60,1,0
123087,6.59340659340659,4,1,0,60,1,0
123087,-100,4,1,0,60,0,0
123089,150000000,4,1,0,60,1,0
123206,6.59340659340659,4,1,0,60,1,0
123206,-100,4,1,0,60,0,0
123208,150000000,4,1,0,60,1,0
123322,6.59340659340659,4,1,0,60,1,0
123322,-100,4,1,0,60,0,0
123324,150000000,4,1,0,60,1,0
123437,6.59340659340659,4,1,0,60,1,0
123437,-100,4,1,0,60,0,0
123439,150000000,4,1,0,60,1,0
123556,6.59340659340659,4,1,0,60,1,0
123556,-100,4,1,0,60,0,0
123558,150000000,4,1,0,60,1,0
123672,6.59340659340659,4,1,0,60,1,0
123672,-100,4,1,0,60,0,0
123674,150000000,4,1,0,60,1,0
123787,6.59340659340659,4,1,0,60,1,0
123787,-62.5,4,1,0,60,0,0
123789,150000000,4,1,0,60,1,0
123906,6.59340659340659,4,1,0,60,1,0
123906,-62.5,4,1,0,60,0,0
123908,150000000,4,1,0,60,1,0
124022,6.59340659340659,4,1,0,60,1,0
124022,-100,4,1,0,60,0,0
124024,150000000,4,1,0,60,1,0
124137,6.59340659340659,4,1,0,60,1,0
124137,-100,4,1,0,60,0,0
124139,150000000,4,1,0,60,1,0
124256,6.59340659340659,4,1,0,60,1,0
124256,-100,4,1,0,60,0,0
124258,150000000,4,1,0,60,1,0
124372,6.59340659340659,4,1,0,60,1,0
124372,-100,4,1,0,60,0,0
124374,150000000,4,1,0,60,1,0
124487,6.59340659340659,4,1,0,60,1,0
124487,-100,4,1,0,60,0,0
124489,150000000,4,1,0,60,1,0
124606,6.59340659340659,4,1,0,60,1,0
124606,-100,4,1,0,60,0,0
124608,150000000,4,1,0,60,1,0
124722,6.59340659340659,4,1,0,60,1,0
124722,-100,4,1,0,60,0,0
124724,150000000,4,1,0,60,1,0
124837,6.59340659340659,4,1,0,60,1,0
124837,-100,4,1,0,60,0,0
124839,150000000,4,1,0,60,1,0
124956,6.59340659340659,4,1,0,60,1,0
124956,-100,4,1,0,60,0,0
124958,150000000,4,1,0,60,1,0
125072,6.59340659340659,4,1,0,60,1,0
125072,-100,4,1,0,60,0,0
125074,150000000,4,1,0,60,1,0
125187,6.59340659340659,4,1,0,60,1,0
125187,-100,4,1,0,60,0,0
125189,150000000,4,1,0,60,1,0
125286,6.59340659340659,4,1,0,60,1,0
125286,-100,4,1,0,60,0,0
125288,150000000,4,1,0,60,1,0
125392,6.59340659340659,4,1,0,60,1,0
125392,-100,4,1,0,60,0,0
125394,150000000,4,1,0,60,1,0
125507,6.59340659340659,4,1,0,60,1,0
125507,-100,4,1,0,60,0,0
125509,150000000,4,1,0,60,1,0
125594,461.538461538462,4,1,0,60,1,0
126055,-40,4,1,0,60,0,0
126084,-333.333333333333,4,1,0,60,0,0
126132,-40,4,1,0,60,0,0
126161,-333.333333333333,4,1,0,60,0,0
126209,-40,4,1,0,60,0,0
126238,-333.333333333333,4,1,0,60,0,0
126286,-40,4,1,0,60,0,0
126315,-333.333333333333,4,1,0,60,0,0
126363,-40,4,1,0,60,0,0
126392,-333.333333333333,4,1,0,60,0,0
126440,-40,4,1,0,60,0,0
126469,-333.333333333333,4,1,0,60,0,0
126517,-33.3333333333333,4,1,0,60,0,0
126531,-500,4,1,0,60,0,0
126545,-33.3333333333333,4,1,0,60,0,0
126559,-500,4,1,0,60,0,0
126574,-33.3333333333333,4,1,0,60,0,0
126588,-500,4,1,0,60,0,0
126603,-33.3333333333333,4,1,0,60,0,0
126617,-500,4,1,0,60,0,0
126633,-33.3333333333333,4,1,0,60,0,0
126647,-500,4,1,0,60,0,0
126661,-33.3333333333333,4,1,0,60,0,0
126675,-500,4,1,0,60,0,0
126690,-33.3333333333333,4,1,0,60,0,0
126704,-500,4,1,0,60,0,0
126719,-33.3333333333333,4,1,0,60,0,0
126733,-500,4,1,0,60,0,0
126958,-10,4,1,0,60,0,0
126978,-33.3333333333333,4,1,0,60,0,0
126992,-500,4,1,0,60,0,0
127006,-33.3333333333333,4,1,0,60,0,0
127020,-500,4,1,0,60,0,0
127035,-33.3333333333333,4,1,0,60,0,0
127049,-500,4,1,0,60,0,0
127064,-33.3333333333333,4,1,0,60,0,0
127078,-500,4,1,0,60,0,0
127094,-33.3333333333333,4,1,0,60,0,0
127108,-500,4,1,0,60,0,0
127122,-33.3333333333333,4,1,0,60,0,0
127136,-500,4,1,0,60,0,0
127151,-33.3333333333333,4,1,0,60,0,0
127165,-500,4,1,0,60,0,0
127180,-33.3333333333333,4,1,0,60,0,0
127194,-500,4,1,0,60,0,0
127419,-10,4,1,0,60,0,0
127439,6.59340659340659,4,1,0,60,1,0
127439,-100,4,1,0,60,0,0
127441,150000000,4,1,0,60,1,0
127555,6.59340659340659,4,1,0,60,1,0
127555,-100,4,1,0,60,0,0
127557,150000000,4,1,0,60,1,0
127670,6.59340659340659,4,1,0,60,1,0
127670,-100,4,1,0,60,0,0
127672,150000000,4,1,0,60,1,0
127789,6.59340659340659,4,1,0,60,1,0
127789,-100,4,1,0,60,0,0
127791,150000000,4,1,0,60,1,0
127905,6.59340659340659,4,1,0,60,1,0
127905,-100,4,1,0,60,0,0
127907,150000000,4,1,0,60,1,0
128020,6.59340659340659,4,1,0,60,1,0
128020,-100,4,1,0,60,0,0
128022,150000000,4,1,0,60,1,0
128139,6.59340659340659,4,1,0,60,1,0
128139,-100,4,1,0,60,0,0
128141,150000000,4,1,0,60,1,0
128255,6.59340659340659,4,1,0,60,1,0
128255,-100,4,1,0,60,0,0
128257,150000000,4,1,0,60,1,0
128370,6.59340659340659,4,1,0,60,1,0
128370,-100,4,1,0,60,0,0
128372,150000000,4,1,0,60,1,0
128489,6.59340659340659,4,1,0,60,1,0
128489,-100,4,1,0,60,0,0
128491,150000000,4,1,0,60,1,0
128605,6.59340659340659,4,1,0,60,1,0
128605,-100,4,1,0,60,0,0
128607,150000000,4,1,0,60,1,0
128720,6.59340659340659,4,1,0,60,1,0
128720,-100,4,1,0,60,0,0
128722,150000000,4,1,0,60,1,0
128839,6.59340659340659,4,1,0,60,1,0
128839,-100,4,1,0,60,0,0
128841,150000000,4,1,0,60,1,0
128955,6.59340659340659,4,1,0,60,1,0
128955,-100,4,1,0,60,0,0
128957,150000000,4,1,0,60,1,0
129070,6.59340659340659,4,1,0,60,1,0
129070,-100,4,1,0,60,0,0
129072,150000000,4,1,0,60,1,0
129189,6.59340659340659,4,1,0,60,1,0
129189,-100,4,1,0,60,0,0
129191,150000000,4,1,0,60,1,0
129305,6.59340659340659,4,1,0,60,1,0
129305,-100,4,1,0,60,0,0
129307,150000000,4,1,0,60,1,0
129420,6.59340659340659,4,1,0,60,1,0
129420,-100,4,1,0,60,0,0
129422,150000000,4,1,0,60,1,0
129539,6.59340659340659,4,1,0,60,1,0
129539,-100,4,1,0,60,0,0
129541,150000000,4,1,0,60,1,0
129655,6.59340659340659,4,1,0,60,1,0
129655,-100,4,1,0,60,0,0
129657,150000000,4,1,0,60,1,0
129770,6.59340659340659,4,1,0,60,1,0
129770,-100,4,1,0,60,0,0
129772,150000000,4,1,0,60,1,0
129889,6.59340659340659,4,1,0,60,1,0
129889,-100,4,1,0,60,0,0
129891,150000000,4,1,0,60,1,0
130005,6.59340659340659,4,1,0,60,1,0
130005,-100,4,1,0,60,0,0
130007,150000000,4,1,0,60,1,0
130120,6.59340659340659,4,1,0,60,1,0
130120,-100,4,1,0,60,0,0
130122,150000000,4,1,0,60,1,0
130239,6.59340659340659,4,1,0,60,1,0
130239,-100,4,1,0,60,0,0
130241,150000000,4,1,0,60,1,0
130355,6.59340659340659,4,1,0,60,1,0
130355,-100,4,1,0,60,0,0
130357,150000000,4,1,0,60,1,0
130470,6.59340659340659,4,1,0,60,1,0
130470,-100,4,1,0,60,0,0
130472,150000000,4,1,0,60,1,0
130589,6.59340659340659,4,1,0,60,1,0
130589,-100,4,1,0,60,0,0
130591,150000000,4,1,0,60,1,0
130705,6.59340659340659,4,1,0,60,1,0
130705,-100,4,1,0,60,0,0
130707,150000000,4,1,0,60,1,0
130820,6.59340659340659,4,1,0,60,1,0
130820,-100,4,1,0,60,0,0
130822,150000000,4,1,0,60,1,0
130939,6.59340659340659,4,1,0,60,1,0
130939,-100,4,1,0,60,0,0
130941,150000000,4,1,0,60,1,0
131055,6.59340659340659,4,1,0,60,1,0
131055,-100,4,1,0,60,0,0
131057,150000000,4,1,0,60,1,0
131170,6.59340659340659,4,1,0,60,1,0
131170,-100,4,1,0,60,0,0
131172,150000000,4,1,0,60,1,0
131289,6.59340659340659,4,1,0,60,1,0
131289,-100,4,1,0,60,0,0
131291,150000000,4,1,0,60,1,0
131405,6.59340659340659,4,1,0,60,1,0
131405,-100,4,1,0,60,0,0
131407,150000000,4,1,0,60,1,0
131520,6.59340659340659,4,1,0,60,1,0
131520,-100,4,1,0,60,0,0
131522,150000000,4,1,0,60,1,0
131639,6.59340659340659,4,1,0,60,1,0
131639,-100,4,1,0,60,0,0
131641,150000000,4,1,0,60,1,0
131755,6.59340659340659,4,1,0,60,1,0
131755,-100,4,1,0,60,0,0
131757,150000000,4,1,0,60,1,0
131870,6.59340659340659,4,1,0,60,1,0
131870,-100,4,1,0,60,0,0
131872,150000000,4,1,0,60,1,0
131989,6.59340659340659,4,1,0,60,1,0
131989,-100,4,1,0,60,0,0
131991,150000000,4,1,0,60,1,0
132105,6.59340659340659,4,1,0,60,1,0
132105,-100,4,1,0,60,0,0
132107,150000000,4,1,0,60,1,0
132220,6.59340659340659,4,1,0,60,1,0
132220,-100,4,1,0,60,0,0
132222,150000000,4,1,0,60,1,0
132339,6.59340659340659,4,1,0,60,1,0
132339,-100,4,1,0,60,0,0
132341,150000000,4,1,0,60,1,0
132455,6.59340659340659,4,1,0,60,1,0
132455,-100,4,1,0,60,0,0
132457,150000000,4,1,0,60,1,0
132570,6.59340659340659,4,1,0,60,1,0
132570,-100,4,1,0,60,0,0
132572,150000000,4,1,0,60,1,0
132669,6.59340659340659,4,1,0,60,1,0
132669,-100,4,1,0,60,0,0
132671,150000000,4,1,0,60,1,0
132775,6.59340659340659,4,1,0,60,1,0
132775,-100,4,1,0,60,0,0
132777,150000000,4,1,0,60,1,0
132890,6.59340659340659,4,1,0,60,1,0
132890,-100,4,1,0,60,0,0
132892,150000000,4,1,0,60,1,0
132977,461.538461538462,4,1,0,60,1,0
132977,-71.4285714285714,4,1,0,60,0,0
132994.3,-72.463768115942,4,1,0,60,0,0
133011.6,-74.0740740740741,4,1,0,60,0,0
133028.9,-75.187969924812,4,1,0,60,0,0
133046.2,-76.9230769230769,4,1,0,60,0,0
133063.5,-78.740157480315,4,1,0,60,0,0
133080.8,-80,4,1,0,60,0,0
133098.1,-81.9672131147541,4,1,0,60,0,0
133115.4,-83.3333333333333,4,1,0,60,0,0
133132.7,-84.7457627118644,4,1,0,60,0,0
133150,-86.9565217391304,4,1,0,60,0,0
133167.3,-88.495575221239,4,1,0,60,0,0
133184.6,-90.9090909090909,4,1,0,60,0,0
133201.9,-92.5925925925926,4,1,0,60,0,0
133219.2,-95.2380952380952,4,1,0,60,0,0
133236.5,-98.0392156862745,4,1,0,60,0,0
133253.8,-100,4,1,0,60,0,0
133271.1,-102.040816326531,4,1,0,60,0,0
133288.4,-105.263157894737,4,1,0,60,0,0
133305.7,-107.52688172043,4,1,0,60,0,0
133323,-111.111111111111,4,1,0,60,0,0
133340.3,-113.636363636364,4,1,0,60,0,0
133357.6,-117.647058823529,4,1,0,60,0,0
133374.9,-120.481927710843,4,1,0,60,0,0
133392.2,-125,4,1,0,60,0,0
133409.5,-128.205128205128,4,1,0,60,0,0
133426.8,-133.333333333333,4,1,0,60,0,0
133444.1,-136.986301369863,4,1,0,60,0,0
133461.4,-142.857142857143,4,1,0,60,0,0
133478.7,-147.058823529412,4,1,0,60,0,0
133496,-153.846153846154,4,1,0,60,0,0
133513.3,-158.730158730159,4,1,0,60,0,0
133530.6,-166.666666666667,4,1,0,60,0,0
133547.9,-172.413793103448,4,1,0,60,0,0
133565.2,-181.818181818182,4,1,0,60,0,0
133582.5,-188.679245283019,4,1,0,60,0,0
133599.8,-200,4,1,0,60,0,0
133617.1,-208.333333333333,4,1,0,60,0,0
133634.4,-222.222222222222,4,1,0,60,0,0
133651.7,-232.558139534884,4,1,0,60,0,0
133669,-10000,4,1,0,60,0,0
133880,-10,4,1,0,60,0,0
133900,-100,4,1,0,60,0,0

[HitObjects]
320,192,978,5,0,0:0:0:0:
448,192,978,1,0,0:0:0:0:
192,192,1093,1,0,0:0:0:0:
192,192,1324,1,0,0:0:0:0:
64,192,1439,1,0,0:0:0:0:
320,192,1439,1,0,0:0:0:0:
448,192,1439,1,0,0:0:0:0:
320,192,1670,1,0,0:0:0:0:
448,192,1670,1,0,0:0:0:0:
320,192,1901,1,0,0:0:0:0:
64,192,2016,1,0,0:0:0:0:
192,192,2016,1,0,0:0:0:0:
64,192,2362,1,0,0:0:0:0:
320,192,2362,1,0,0:0:0:0:
448,192,2362,1,0,0:0:0:0:
320,192,2593,1,0,0:0:0:0:
448,192,2593,1,0,0:0:0:0:
64,192,2824,1,0,0:0:0:0:
192,192,2824,1,0,0:0:0:0:
320,192,2939,1,0,0:0:0:0:
320,192,3170,1,0,0:0:0:0:
64,192,3285,1,0,0:0:0:0:
192,192,3285,1,0,0:0:0:0:
448,192,3285,1,0,0:0:0:0:
64,192,3516,1,0,0:0:0:0:
192,192,3516,1,0,0:0:0:0:
192,192,3747,1,0,0:0:0:0:
320,192,3862,1,0,0:0:0:0:
448,192,3862,1,0,0:0:0:0:
192,192,3978,1,0,0:0:0:0:
64,192,4208,1,0,0:0:0:0:
192,192,4208,1,0,0:0:0:0:
448,192,4208,1,0,0:0:0:0:
64,192,4439,1,0,0:0:0:0:
192,192,4439,1,0,0:0:0:0:
320,192,4670,1,0,0:0:0:0:
448,192,4670,1,0,0:0:0:0:
192,192,4785,1,0,0:0:0:0:
192,192,5016,1,0,0:0:0:0:
64,192,5131,1,0,0:0:0:0:
320,192,5131,1,0,0:0:0:0:
448,192,5131,1,0,0:0:0:0:
320,192,5362,1,0,0:0:0:0:
448,192,5362,1,0,0:0:0:0:
320,192,5593,1,0,0:0:0:0:
64,192,5708,1,0,0:0:0:0:
192,192,5708,1,0,0:0:0:0:
64,192,6055,1,0,0:0:0:0:
320,192,6055,1,0,0:0:0:0:
448,192,6055,1,0,0:0:0:0:
320,192,6285,1,0,0:0:0:0:
448,192,6285,1,0,0:0:0:0:
64,192,6516,1,0,0:0:0:0:
192,192,6516,1,0,0:0:0:0:
320,192,6631,1,0,0:0:0:0:
320,192,6862,1,0,0:0:0:0:
64,192,6978,1,0,0:0:0:0:
192,192,6978,1,0,0:0:0:0:
448,192,6978,1,0,0:0:0:0:
64,192,7208,1,0,0:0:0:0:
192,192,7208,1,0,0:0:0:0:
320,192,7439,1,0,0:0:0:0:
320,192,7555,1,0,0:0:0:0:
192,192,7670,1,0,0:0:0:0:
64,192,7901,1,0,0:0:0:0:
192,192,7901,1,0,0:0:0:0:
448,192,7901,1,0,0:0:0:0:
320,192,8016,1,0,0:0:0:0:
192,192,8131,1,0,0:0:0:0:
320,192,8247,1,0,0:0:0:0:
448,192,8247,1,0,0:0:0:0:
64,192,8362,1,0,0:0:0:0:
192,192,8362,1,0,0:0:0:0:
64,192,8478,1,0,0:0:0:0:
192,192,8478,1,0,0:0:0:0:
320,192,8593,1,0,0:0:0:0:
448,192,8593,1,0,0:0:0:0:
64,192,8824,1,0,0:0:0:0:
192,192,8824,1,0,0:0:0:0:
448,192,8824,1,0,0:0:0:0:
64,192,9055,1,0,0:0:0:0:
192,192,9055,1,0,0:0:0:0:
320,192,9285,1,0,0:0:0:0:
64,192,9401,1,0,0:0:0:0:
192,192,9401,1,0,0:0:0:0:
64,192,9747,1,0,0:0:0:0:
320,192,9747,1,0,0:0:0:0:
448,192,9747,1,0,0:0:0:0:
320,192,9978,1,0,0:0:0:0:
448,192,9978,1,0,0:0:0:0:
64,192,10208,1,0,0:0:0:0:
192,192,10208,1,0,0:0:0:0:
320,192,10324,1,0,0:0:0:0:
320,192,10555,1,0,0:0:0:0:
64,192,10670,1,0,0:0:0:0:
192,192,10670,1,0,0:0:0:0:
448,192,10670,1,0,0:0:0:0:
64,192,10901,1,0,0:0:0:0:
192,192,10901,1,0,0:0:0:0:
192,192,11131,1,0,0:0:0:0:
320,192,11247,1,0,0:0:0:0:
448,192,11247,1,0,0:0:0:0:
192,192,11362,1,0,0:0:0:0:
64,192,11593,1,0,0:0:0:0:
320,192,11593,1,0,0:0:0:0:
448,192,11593,1,0,0:0:0:0:
320,192,11824,1,0,0:0:0:0:
448,192,11824,1,0,0:0:0:0:
64,192,12055,1,0,0:0:0:0:
192,192,12055,1,0,0:0:0:0:
64,192,12170,1,0,0:0:0:0:
192,192,12170,1,0,0:0:0:0:
320,192,12285,1,0,0:0:0:0:
448,192,12285,1,0,0:0:0:0:
64,192,12516,1,0,0:0:0:0:
192,192,12516,1,0,0:0:0:0:
448,192,12516,1,0,0:0:0:0:
64,192,12747,1,0,0:0:0:0:
192,192,12747,1,0,0:0:0:0:
320,192,12978,1,0,0:0:0:0:
192,192,13093,1,0,0:0:0:0:
64,192,13208,1,0,0:0:0:0:
448,192,13208,1,0,0:0:0:0:
64,192,13439,1,0,0:0:0:0:
320,192,13439,1,0,0:0:0:0:
448,192,13439,1,0,0:0:0:0:
320,192,13670,1,0,0:0:0:0:
192,192,13670,1,0,0:0:0:0:
448,192,13901,1,0,0:0:0:0:
64,192,13901,1,0,0:0:0:0:
448,192,14016,1,0,0:0:0:0:
64,192,14131,1,0,0:0:0:0:
320,192,14131,1,0,0:0:0:0:
320,192,14247,1,0,0:0:0:0:
448,192,14362,1,0,0:0:0:0:
192,192,14362,1,0,0:0:0:0:
64,192,14362,1,0,0:0:0:0:
320,192,14478,1,0,0:0:0:0:
192,192,14593,1,0,0:0:0:0:
64,192,14708,1,0,0:0:0:0:
448,192,14708,1,0,0:0:0:0:
64,192,14824,1,0,0:0:0:0:
448,192,14824,1,0,0:0:0:0:
192,192,14939,1,0,0:0:0:0:
192,192,15055,1,0,0:0:0:0:
320,192,15055,1,0,0:0:0:0:
320,192,15170,1,0,0:0:0:0:
64,192,15285,1,0,0:0:0:0:
192,192,15285,1,0,0:0:0:0:
448,192,15285,1,0,0:0:0:0:
320,192,15401,1,0,0:0:0:0:
192,192,15516,1,0,0:0:0:0:
448,192,15516,1,0,0:0:0:0:
192,192,15631,1,0,0:0:0:0:
64,192,15747,1,0,0:0:0:0:
320,192,15747,1,0,0:0:0:0:
448,192,15747,1,0,0:0:0:0:
64,192,15862,1,0,0:0:0:0:
320,192,15862,1,0,0:0:0:0:
448,192,15862,1,0,0:0:0:0:
192,192,15978,1,0,0:0:0:0:
320,192,16093,1,0,0:0:0:0:
64,192,16208,1,0,0:0:0:0:
192,192,16208,1,0,0:0:0:0:
448,192,16208,1,0,0:0:0:0:
320,192,16439,1,0,0:0:0:0:
448,192,16439,1,0,0:0:0:0:
64,192,16670,1,0,0:0:0:0:
192,192,16670,1,0,0:0:0:0:
320,192,16785,1,0,0:0:0:0:
64,192,16901,1,0,0:0:0:0:
448,192,16901,1,0,0:0:0:0:
64,192,17131,1,0,0:0:0:0:
320,192,17131,1,0,0:0:0:0:
448,192,17131,1,0,0:0:0:0:
320,192,17362,1,0,0:0:0:0:
448,192,17362,1,0,0:0:0:0:
64,192,17593,1,0,0:0:0:0:
320,192,17593,1,0,0:0:0:0:
448,192,17708,1,0,0:0:0:0:
64,192,17824,1,0,0:0:0:0:
192,192,17824,1,0,0:0:0:0:
320,192,17939,1,0,0:0:0:0:
64,192,18055,1,0,0:0:0:0:
192,192,18055,1,0,0:0:0:0:
448,192,18055,1,0,0:0:0:0:
320,192,18285,1,0,0:0:0:0:
448,192,18285,1,0,0:0:0:0:
448,192,18516,128,0,18631:0:0:0:0:
192,192,18631,128,0,18747:0:0:0:0:
320,192,18747,128,0,18862:0:0:0:0:
64,192,18862,128,0,18978:0:0:0:0:
320,192,18978,128,0,19093:0:0:0:0:
192,192,19093,128,0,19208:0:0:0:0:
448,192,19208,1,0,0:0:0:0:
192,192,19324,128,0,19439:0:0:0:0:
64,192,19439,1,0,0:0:0:0:
320,192,19439,1,0,0:0:0:0:
448,192,19439,1,0,0:0:0:0:
64,192,19555,1,0,0:0:0:0:
320,192,19555,1,0,0:0:0:0:
448,192,19555,1,0,0:0:0:0:
192,192,19670,1,0,0:0:0:0:
320,192,19785,1,0,0:0:0:0:
64,192,19901,1,0,0:0:0:0:
448,192,19901,1,0,0:0:0:0:
192,192,19901,1,0,0:0:0:0:
320,192,20131,1,0,0:0:0:0:
448,192,20131,1,0,0:0:0:0:
320,192,20362,1,0,0:0:0:0:
64,192,20478,1,0,0:0:0:0:
192,192,20478,1,0,0:0:0:0:
320,192,20593,1,0,0:0:0:0:
448,192,20593,1,0,0:0:0:0:
64,192,20824,1,0,0:0:0:0:
320,192,20824,1,0,0:0:0:0:
448,192,20824,1,0,0:0:0:0:
192,192,21055,1,0,0:0:0:0:
448,192,21055,1,0,0:0:0:0:
64,192,21285,1,0,0:0:0:0:
320,192,21285,1,0,0:0:0:0:
192,192,21516,1,0,0:0:0:0:
448,192,21516,1,0,0:0:0:0:
320,192,21631,1,0,0:0:0:0:
64,192,21747,1,0,0:0:0:0:
192,192,21747,1,0,0:0:0:0:
448,192,21747,1,0,0:0:0:0:
192,192,21978,1,0,0:0:0:0:
320,192,22093,1,0,0:0:0:0:
448,192,22093,1,0,0:0:0:0:
64,192,22208,1,0,0:0:0:0:
192,192,22208,1,0,0:0:0:0:
448,192,22324,1,0,0:0:0:0:
64,192,22439,1,0,0:0:0:0:
320,192,22439,1,0,0:0:0:0:
64,192,22670,128,0,22901:0:0:0:0:
192,192,22670,128,0,22901:0:0:0:0:
448,192,22670,128,0,22901:0:0:0:0:
64,192,23131,1,0,0:0:0:0:
320,192,23131,1,0,0:0:0:0:
448,192,23131,1,0,0:0:0:0:
64,192,23247,1,0,0:0:0:0:
320,192,23247,1,0,0:0:0:0:
448,192,23247,1,0,0:0:0:0:
192,192,23362,1,0,0:0:0:0:
320,192,23478,1,0,0:0:0:0:
64,192,23593,1,0,0:0:0:0:
448,192,23593,1,0,0:0:0:0:
192,192,23593,1,0,0:0:0:0:
320,192,23824,1,0,0:0:0:0:
448,192,23824,1,0,0:0:0:0:
192,192,24055,1,0,0:0:0:0:
320,192,24170,1,0,0:0:0:0:
448,192,24170,1,0,0:0:0:0:
64,192,24285,1,0,0:0:0:0:
192,192,24285,1,0,0:0:0:0:
320,192,24401,1,0,0:0:0:0:
64,192,24516,1,0,0:0:0:0:
192,192,24516,1,0,0:0:0:0:
448,192,24516,1,0,0:0:0:0:
320,192,24747,1,0,0:0:0:0:
448,192,24747,1,0,0:0:0:0:
64,192,24978,1,0,0:0:0:0:
320,192,24978,1,0,0:0:0:0:
448,192,24978,1,0,0:0:0:0:
64,192,25208,1,0,0:0:0:0:
320,192,25208,1,0,0:0:0:0:
192,192,25324,1,0,0:0:0:0:
64,192,25439,1,0,0:0:0:0:
320,192,25439,1,0,0:0:0:0:
448,192,25439,1,0,0:0:0:0:
192,192,25670,1,0,0:0:0:0:
448,192,25670,1,0,0:0:0:0:
64,192,25901,128,0,26016:0:0:0:0:
320,192,26016,128,0,26131:0:0:0:0:
192,192,26131,128,0,26247:0:0:0:0:
448,192,26247,128,0,26362:0:0:0:0:
320,192,26362,128,0,26478:0:0:0:0:
192,192,26478,128,0,26593:0:0:0:0:
448,192,26593,1,0,0:0:0:0:
192,192,26708,128,0,26824:0:0:0:0:
64,192,26824,1,0,0:0:0:0:
320,192,26824,1,0,0:0:0:0:
448,192,26824,1,0,0:0:0:0:
64,192,26939,1,0,0:0:0:0:
320,192,26939,1,0,0:0:0:0:
448,192,26939,1,0,0:0:0:0:
192,192,27055,1,0,0:0:0:0:
320,192,27170,1,0,0:0:0:0:
64,192,27285,1,0,0:0:0:0:
192,192,27285,1,0,0:0:0:0:
448,192,27285,1,0,0:0:0:0:
64,192,27516,1,0,0:0:0:0:
192,192,27516,1,0,0:0:0:0:
64,192,27747,1,0,0:0:0:0:
320,192,27747,1,0,0:0:0:0:
448,192,27747,1,0,0:0:0:0:
192,192,27862,1,0,0:0:0:0:
320,192,27978,1,0,0:0:0:0:
448,192,27978,1,0,0:0:0:0:
192,192,28208,1,0,0:0:0:0:
320,192,28208,1,0,0:0:0:0:
448,192,28208,1,0,0:0:0:0:
192,192,28439,1,0,0:0:0:0:
448,192,28439,1,0,0:0:0:0:
320,192,28670,1,0,0:0:0:0:
192,192,28901,1,0,0:0:0:0:
448,192,29131,1,0,0:0:0:0:
320,192,29362,1,0,0:0:0:0:
64,192,29593,1,0,0:0:0:0:
192,192,29824,1,0,0:0:0:0:
320,192,30055,1,0,0:0:0:0:
448,192,30285,1,0,0:0:0:0:
192,192,30516,1,0,0:0:0:0:
64,192,30516,1,0,0:0:0:0:
448,192,30631,1,0,0:0:0:0:
64,192,30747,1,0,0:0:0:0:
320,192,30862,1,0,0:0:0:0:
64,192,30978,1,0,0:0:0:0:
448,192,31093,1,0,0:0:0:0:
64,192,31208,1,0,0:0:0:0:
320,192,31324,1,0,0:0:0:0:
192,192,31439,1,0,0:0:0:0:
448,192,31555,1,0,0:0:0:0:
192,192,31670,1,0,0:0:0:0:
320,192,31785,1,0,0:0:0:0:
192,192,31901,1,0,0:0:0:0:
448,192,32016,1,0,0:0:0:0:
192,192,32131,1,0,0:0:0:0:
448,192,32247,1,0,0:0:0:0:
320,192,32362,1,0,0:0:0:0:
64,192,32478,1,0,0:0:0:0:
320,192,32593,1,0,0:0:0:0:
192,192,32708,1,0,0:0:0:0:
320,192,32824,1,0,0:0:0:0:
64,192,32939,1,0,0:0:0:0:
320,192,33055,1,0,0:0:0:0:
192,192,33170,1,0,0:0:0:0:
448,192,33285,1,0,0:0:0:0:
64,192,33401,1,0,0:0:0:0:
448,192,33516,1,0,0:0:0:0:
192,192,33631,1,0,0:0:0:0:
448,192,33747,1,0,0:0:0:0:
64,192,33862,1,0,0:0:0:0:
448,192,33978,1,0,0:0:0:0:
192,192,34093,1,0,0:0:0:0:
320,192,34208,1,0,0:0:0:0:
448,192,34208,1,0,0:0:0:0:
64,192,34324,1,0,0:0:0:0:
320,192,34439,1,0,0:0:0:0:
192,192,34555,1,0,0:0:0:0:
64,192,34670,1,0,0:0:0:0:
448,192,34785,1,0,0:0:0:0:
64,192,34901,1,0,0:0:0:0:
320,192,35016,1,0,0:0:0:0:
192,192,35131,1,0,0:0:0:0:
448,192,35247,1,0,0:0:0:0:
192,192,35362,1,0,0:0:0:0:
320,192,35478,1,0,0:0:0:0:
64,192,35593,1,0,0:0:0:0:
192,192,35708,1,0,0:0:0:0:
64,192,35824,1,0,0:0:0:0:
320,192,35939,1,0,0:0:0:0:
192,192,36055,1,0,0:0:0:0:
448,192,36170,1,0,0:0:0:0:
192,192,36285,1,0,0:0:0:0:
320,192,36401,1,0,0:0:0:0:
448,192,36516,1,0,0:0:0:0:
64,192,36631,1,0,0:0:0:0:
448,192,36747,1,0,0:0:0:0:
192,192,36862,1,0,0:0:0:0:
320,192,36978,1,0,0:0:0:0:
64,192,37093,1,0,0:0:0:0:
320,192,37208,1,0,0:0:0:0:
192,192,37324,1,0,0:0:0:0:
448,192,37439,1,0,0:0:0:0:
320,192,37555,1,0,0:0:0:0:
448,192,37670,1,0,0:0:0:0:
192,192,37785,1,0,0:0:0:0:
64,192,37901,1,0,0:0:0:0:
448,192,37901,1,0,0:0:0:0:
320,192,38016,1,0,0:0:0:0:
64,192,38131,1,0,0:0:0:0:
448,192,38247,1,0,0:0:0:0:
192,192,38362,1,0,0:0:0:0:
320,192,38478,1,0,0:0:0:0:
192,192,38593,1,0,0:0:0:0:
64,192,38708,1,0,0:0:0:0:
448,192,38824,1,0,0:0:0:0:
320,192,38939,1,0,0:0:0:0:
448,192,39055,1,0,0:0:0:0:
192,192,39170,1,0,0:0:0:0:
320,192,39285,1,0,0:0:0:0:
64,192,39401,1,0,0:0:0:0:
320,192,39516,1,0,0:0:0:0:
192,192,39631,1,0,0:0:0:0:
448,192,39747,1,0,0:0:0:0:
192,192,39862,1,0,0:0:0:0:
448,192,39978,1,0,0:0:0:0:
64,192,40093,1,0,0:0:0:0:
320,192,40208,1,0,0:0:0:0:
192,192,40324,1,0,0:0:0:0:
320,192,40439,1,0,0:0:0:0:
448,192,40555,1,0,0:0:0:0:
64,192,40670,1,0,0:0:0:0:
192,192,40785,1,0,0:0:0:0:
64,192,40901,1,0,0:0:0:0:
320,192,41016,1,0,0:0:0:0:
192,192,41131,1,0,0:0:0:0:
448,192,41247,1,0,0:0:0:0:
192,192,41362,1,0,0:0:0:0:
320,192,41478,1,0,0:0:0:0:
64,192,41593,1,0,0:0:0:0:
192,192,41593,1,0,0:0:0:0:
448,192,41708,1,0,0:0:0:0:
64,192,41824,1,0,0:0:0:0:
320,192,41939,1,0,0:0:0:0:
448,192,42055,1,0,0:0:0:0:
192,192,42170,1,0,0:0:0:0:
448,192,42285,1,0,0:0:0:0:
320,192,42401,1,0,0:0:0:0:
192,192,42516,1,0,0:0:0:0:
64,192,42631,1,0,0:0:0:0:
192,192,42747,1,0,0:0:0:0:
448,192,42862,1,0,0:0:0:0:
320,192,42978,1,0,0:0:0:0:
192,192,43093,1,0,0:0:0:0:
320,192,43208,1,0,0:0:0:0:
64,192,43324,1,0,0:0:0:0:
448,192,43439,1,0,0:0:0:0:
64,192,43555,1,0,0:0:0:0:
448,192,43670,1,0,0:0:0:0:
192,192,43785,1,0,0:0:0:0:
320,192,43901,1,0,0:0:0:0:
448,192,43901,1,0,0:0:0:0:
64,192,44131,1,0,0:0:0:0:
320,192,44131,1,0,0:0:0:0:
64,192,44362,1,0,0:0:0:0:
192,192,44362,1,0,0:0:0:0:
192,192,44593,1,0,0:0:0:0:
448,192,44593,1,0,0:0:0:0:
320,192,44824,1,0,0:0:0:0:
448,192,44824,1,0,0:0:0:0:
64,192,45055,1,0,0:0:0:0:
320,192,45055,1,0,0:0:0:0:
64,192,45285,1,0,0:0:0:0:
192,192,45285,1,0,0:0:0:0:
448,192,45285,1,0,0:0:0:0:
448,192,45516,1,0,0:0:0:0:
64,192,45747,1,0,0:0:0:0:
320,192,45747,1,0,0:0:0:0:
64,192,45978,1,0,0:0:0:0:
192,192,46208,1,0,0:0:0:0:
320,192,46208,1,0,0:0:0:0:
320,192,46439,1,0,0:0:0:0:
192,192,46670,1,0,0:0:0:0:
448,192,46670,1,0,0:0:0:0:
192,192,46901,1,0,0:0:0:0:
320,192,47131,1,0,0:0:0:0:
448,192,47131,1,0,0:0:0:0:
448,192,47362,1,0,0:0:0:0:
64,192,47593,1,0,0:0:0:0:
192,192,47593,1,0,0:0:0:0:
64,192,47824,1,0,0:0:0:0:
448,192,48055,1,0,0:0:0:0:
320,192,48055,1,0,0:0:0:0:
320,192,48285,1,0,0:0:0:0:
192,192,48516,1,0,0:0:0:0:
448,192,48516,1,0,0:0:0:0:
192,192,48747,1,0,0:0:0:0:
192,192,48862,1,0,0:0:0:0:
64,192,48978,1,0,0:0:0:0:
320,192,48978,1,0,0:0:0:0:
448,192,48978,1,0,0:0:0:0:
64,192,49208,1,0,0:0:0:0:
320,192,49439,1,0,0:0:0:0:
448,192,49439,1,0,0:0:0:0:
320,192,49670,1,0,0:0:0:0:
192,192,49901,1,0,0:0:0:0:
448,192,49901,1,0,0:0:0:0:
192,192,50131,1,0,0:0:0:0:
64,192,50362,1,0,0:0:0:0:
448,192,50362,1,0,0:0:0:0:
448,192,50593,1,0,0:0:0:0:
64,192,50824,1,0,0:0:0:0:
320,192,50824,1,0,0:0:0:0:
64,192,51055,1,0,0:0:0:0:
192,192,51285,1,0,0:0:0:0:
448,192,51285,1,0,0:0:0:0:
448,192,51516,1,0,0:0:0:0:
192,192,51747,1,0,0:0:0:0:
320,192,51747,1,0,0:0:0:0:
192,192,51978,1,0,0:0:0:0:
64,192,52208,1,0,0:0:0:0:
320,192,52208,1,0,0:0:0:0:
320,192,52439,1,0,0:0:0:0:
192,192,52516,1,0,0:0:0:0:
64,192,52593,1,0,0:0:0:0:
320,192,52670,1,0,0:0:0:0:
320,192,52785,1,0,0:0:0:0:
64,192,52901,1,0,0:0:0:0:
64,192,53016,1,0,0:0:0:0:
320,192,53131,1,0,0:0:0:0:
320,192,53247,1,0,0:0:0:0:
192,192,53362,1,0,0:0:0:0:
192,192,53478,1,0,0:0:0:0:
448,192,53593,1,0,0:0:0:0:
448,192,53708,1,0,0:0:0:0:
64,192,53824,1,0,0:0:0:0:
64,192,53939,1,0,0:0:0:0:
320,192,54055,1,0,0:0:0:0:
320,192,54170,1,0,0:0:0:0:
192,192,54285,1,0,0:0:0:0:
192,192,54401,1,0,0:0:0:0:
448,192,54516,1,0,0:0:0:0:
448,192,54631,1,0,0:0:0:0:
64,192,54747,1,0,0:0:0:0:
64,192,54862,1,0,0:0:0:0:
320,192,54978,1,0,0:0:0:0:
320,192,55093,1,0,0:0:0:0:
192,192,55208,1,0,0:0:0:0:
192,192,55324,1,0,0:0:0:0:
448,192,55439,1,0,0:0:0:0:
448,192,55555,1,0,0:0:0:0:
192,192,55670,1,0,0:0:0:0:
192,192,55785,1,0,0:0:0:0:
320,192,55901,1,0,0:0:0:0:
320,192,56016,1,0,0:0:0:0:
64,192,56131,1,0,0:0:0:0:
64,192,56247,1,0,0:0:0:0:
320,192,56362,1,0,0:0:0:0:
448,192,56362,1,0,0:0:0:0:
448,192,56478,1,0,0:0:0:0:
64,192,56593,1,0,0:0:0:0:
192,192,56593,1,0,0:0:0:0:
192,192,56708,1,0,0:0:0:0:
320,192,56824,1,0,0:0:0:0:
448,192,56824,1,0,0:0:0:0:
320,192,56939,1,0,0:0:0:0:
64,192,57055,1,0,0:0:0:0:
192,192,57055,1,0,0:0:0:0:
64,192,57170,1,0,0:0:0:0:
320,192,57285,1,0,0:0:0:0:
448,192,57285,1,0,0:0:0:0:
320,192,57401,1,0,0:0:0:0:
64,192,57516,1,0,0:0:0:0:
192,192,57516,1,0,0:0:0:0:
192,192,57631,1,0,0:0:0:0:
320,192,57747,1,0,0:0:0:0:
448,192,57747,1,0,0:0:0:0:
448,192,57862,1,0,0:0:0:0:
64,192,57978,1,0,0:0:0:0:
192,192,57978,1,0,0:0:0:0:
192,192,58093,1,0,0:0:0:0:
320,192,58208,1,0,0:0:0:0:
448,192,58439,1,0,0:0:0:0:
192,192,58670,1,0,0:0:0:0:
320,192,58901,1,0,0:0:0:0:
64,192,59131,1,0,0:0:0:0:
192,192,59362,1,0,0:0:0:0:
320,192,59593,1,0,0:0:0:0:
64,192,59824,1,0,0:0:0:0:
320,192,60055,128,0,60285:0:0:0:0:
448,192,60055,128,0,60516:0:0:0:0:
64,192,60516,128,0,60978:0:0:0:0:
320,192,60516,128,0,60747:0:0:0:0:
192,192,60978,128,0,61439:0:0:0:0:
320,192,60978,128,0,61208:0:0:0:0:
64,192,61439,128,0,61593:0:0:0:0:
448,192,61439,128,0,61593:0:0:0:0:
320,192,61593,128,0,61901:0:0:0:0:
192,192,61901,128,0,62131:0:0:0:0:
448,192,61901,128,0,62362:0:0:0:0:
192,192,62362,128,0,62593:0:0:0:0:
320,192,62362,128,0,62824:0:0:0:0:
64,192,62824,128,0,63285:0:0:0:0:
192,192,62824,128,0,63055:0:0:0:0:
448,192,63285,1,0,0:0:0:0:
320,192,63362,1,0,0:0:0:0:
192,192,63439,1,0,0:0:0:0:
320,192,63516,1,0,0:0:0:0:
192,192,63593,1,0,0:0:0:0:
64,192,63670,1,0,0:0:0:0:
320,192,63747,128,0,63978:0:0:0:0:
448,192,63747,128,0,64208:0:0:0:0:
64,192,64208,128,0,64670:0:0:0:0:
320,192,64208,128,0,64439:0:0:0:0:
192,192,64670,128,0,65131:0:0:0:0:
320,192,64670,128,0,64901:0:0:0:0:
320,192,65131,128,0,65285:0:0:0:0:
448,192,65131,128,0,65285:0:0:0:0:
64,192,65285,128,0,65593:0:0:0:0:
192,192,65593,128,0,65824:0:0:0:0:
448,192,65593,128,0,66055:0:0:0:0:
64,192,66055,128,0,66516:0:0:0:0:
192,192,66055,128,0,66285:0:0:0:0:
320,192,66516,1,0,0:0:0:0:
448,192,66516,1,0,0:0:0:0:
192,192,66593,1,0,0:0:0:0:
448,192,66670,1,0,0:0:0:0:
64,192,66747,1,0,0:0:0:0:
192,192,66747,1,0,0:0:0:0:
320,192,66824,1,0,0:0:0:0:
192,192,66901,1,0,0:0:0:0:
64,192,66978,128,0,67439:0:0:0:0:
448,192,66978,128,0,67208:0:0:0:0:
192,192,67208,128,0,67439:0:0:0:0:
320,192,67439,128,0,67670:0:0:0:0:
448,192,67439,128,0,67901:0:0:0:0:
192,192,67670,128,0,67901:0:0:0:0:
64,192,67901,128,0,68131:0:0:0:0:
320,192,67901,128,0,68362:0:0:0:0:
64,192,68362,128,0,68593:0:0:0:0:
448,192,68362,128,0,68824:0:0:0:0:
64,192,68824,128,0,68978:0:0:0:0:
320,192,68824,128,0,68978:0:0:0:0:
192,192,68978,128,0,69285:0:0:0:0:
64,192,69285,128,0,69747:0:0:0:0:
448,192,69285,128,0,69516:0:0:0:0:
192,192,69747,128,0,70208:0:0:0:0:
448,192,69747,128,0,69978:0:0:0:0:
320,192,70208,128,0,70670:0:0:0:0:
448,192,70208,128,0,70439:0:0:0:0:
64,192,70670,1,0,0:0:0:0:
192,192,70747,1,0,0:0:0:0:
320,192,70824,1,0,0:0:0:0:
192,192,70901,1,0,0:0:0:0:
320,192,70978,1,0,0:0:0:0:
448,192,71055,1,0,0:0:0:0:
64,192,71131,128,0,72055:0:0:0:0:
192,192,71131,128,0,71593:0:0:0:0:
448,192,71593,128,0,72055:0:0:0:0:
192,192,72055,1,0,0:0:0:0:
320,192,72055,1,0,0:0:0:0:
64,192,72131,1,0,0:0:0:0:
320,192,72208,1,0,0:0:0:0:
192,192,72285,1,0,0:0:0:0:
448,192,72362,1,0,0:0:0:0:
64,192,72439,1,0,0:0:0:0:
192,192,72516,1,0,0:0:0:0:
320,192,72593,1,0,0:0:0:0:
64,192,72670,1,0,0:0:0:0:
448,192,72747,1,0,0:0:0:0:
320,192,72824,1,0,0:0:0:0:
192,192,72901,1,0,0:0:0:0:
320,192,72978,1,0,0:0:0:0:
448,192,72978,1,0,0:0:0:0:
64,192,73055,1,0,0:0:0:0:
192,192,73131,1,0,0:0:0:0:
320,192,73208,1,0,0:0:0:0:
64,192,73285,1,0,0:0:0:0:
320,192,73362,1,0,0:0:0:0:
448,192,73439,1,0,0:0:0:0:
192,192,73516,1,0,0:0:0:0:
64,192,73593,1,0,0:0:0:0:
320,192,73670,1,0,0:0:0:0:
192,192,73747,1,0,0:0:0:0:
64,192,73824,1,0,0:0:0:0:
320,192,73901,1,0,0:0:0:0:
448,192,73901,1,0,0:0:0:0:
192,192,73978,1,0,0:0:0:0:
448,192,74055,1,0,0:0:0:0:
320,192,74131,1,0,0:0:0:0:
64,192,74208,1,0,0:0:0:0:
192,192,74285,1,0,0:0:0:0:
320,192,74362,1,0,0:0:0:0:
448,192,74439,1,0,0:0:0:0:
192,192,74516,1,0,0:0:0:0:
64,192,74593,1,0,0:0:0:0:
320,192,74670,1,0,0:0:0:0:
192,192,74747,1,0,0:0:0:0:
64,192,74824,5,0,0:0:0:0:
448,192,74824,1,0,0:0:0:0:
64,192,75055,1,0,0:0:0:0:
448,192,75055,1,0,0:0:0:0:
320,192,75285,1,0,0:0:0:0:
320,192,75439,1,0,0:0:0:0:
320,192,75593,1,0,0:0:0:0:
64,192,75747,1,0,0:0:0:0:
192,192,75747,1,0,0:0:0:0:
448,192,75747,1,0,0:0:0:0:
448,192,75978,1,0,0:0:0:0:
64,192,76209,1,0,0:0:0:0:
320,192,76209,1,0,0:0:0:0:
192,192,76439,1,0,0:0:0:0:
320,192,76670,1,0,0:0:0:0:
448,192,76670,1,0,0:0:0:0:
320,192,76901,1,0,0:0:0:0:
448,192,76901,1,0,0:0:0:0:
192,192,77132,1,0,0:0:0:0:
192,192,77286,1,0,0:0:0:0:
192,192,77439,1,0,0:0:0:0:
64,192,77593,1,0,0:0:0:0:
320,192,77593,1,0,0:0:0:0:
448,192,77593,1,0,0:0:0:0:
448,192,77824,1,0,0:0:0:0:
64,192,78055,1,0,0:0:0:0:
192,192,78132,1,0,0:0:0:0:
320,192,78209,1,0,0:0:0:0:
192,192,78286,1,0,0:0:0:0:
320,192,78363,1,0,0:0:0:0:
448,192,78439,1,0,0:0:0:0:
64,192,78516,1,0,0:0:0:0:
192,192,78516,1,0,0:0:0:0:
64,192,78747,1,0,0:0:0:0:
192,192,78747,1,0,0:0:0:0:
448,192,78978,1,0,0:0:0:0:
448,192,79132,1,0,0:0:0:0:
448,192,79286,1,0,0:0:0:0:
64,192,79439,1,0,0:0:0:0:
192,192,79439,1,0,0:0:0:0:
320,192,79439,1,0,0:0:0:0:
192,192,79670,1,0,0:0:0:0:
64,192,79901,1,0,0:0:0:0:
448,192,79901,1,0,0:0:0:0:
320,192,80132,1,0,0:0:0:0:
192,192,80363,1,0,0:0:0:0:
448,192,80363,1,0,0:0:0:0:
192,192,80593,1,0,0:0:0:0:
448,192,80593,1,0,0:0:0:0:
320,192,80824,1,0,0:0:0:0:
320,192,80978,1,0,0:0:0:0:
320,192,81132,1,0,0:0:0:0:
64,192,81286,1,0,0:0:0:0:
192,192,81286,1,0,0:0:0:0:
320,192,81363,1,0,0:0:0:0:
192,192,81439,1,0,0:0:0:0:
320,192,81516,1,0,0:0:0:0:
192,192,81593,1,0,0:0:0:0:
320,192,81670,1,0,0:0:0:0:
64,192,81747,128,0,81978:0:0:0:0:
448,192,81747,128,0,82209:0:0:0:0:
192,192,81978,128,0,82209:0:0:0:0:
320,192,82209,1,0,0:0:0:0:
320,192,82363,1,0,0:0:0:0:
320,192,82516,1,0,0:0:0:0:
192,192,82670,1,0,0:0:0:0:
192,192,82824,1,0,0:0:0:0:
192,192,82978,1,0,0:0:0:0:
64,192,83132,1,0,0:0:0:0:
320,192,83132,1,0,0:0:0:0:
448,192,83132,1,0,0:0:0:0:
64,192,83363,1,0,0:0:0:0:
192,192,83593,1,0,0:0:0:0:
448,192,83593,1,0,0:0:0:0:
320,192,83824,1,0,0:0:0:0:
64,192,84055,1,0,0:0:0:0:
448,192,84055,1,0,0:0:0:0:
64,192,84286,1,0,0:0:0:0:
448,192,84286,1,0,0:0:0:0:
320,192,84516,1,0,0:0:0:0:
320,192,84670,1,0,0:0:0:0:
320,192,84824,1,0,0:0:0:0:
64,192,84978,1,0,0:0:0:0:
192,192,84978,1,0,0:0:0:0:
448,192,84978,1,0,0:0:0:0:
192,192,85209,1,0,0:0:0:0:
448,192,85439,1,0,0:0:0:0:
320,192,85516,1,0,0:0:0:0:
192,192,85593,1,0,0:0:0:0:
320,192,85670,1,0,0:0:0:0:
192,192,85747,1,0,0:0:0:0:
64,192,85824,1,0,0:0:0:0:
320,192,85901,128,0,86363:0:0:0:0:
448,192,85901,128,0,86824:0:0:0:0:
64,192,86363,128,0,86824:0:0:0:0:
192,192,86824,1,0,0:0:0:0:
320,192,86824,1,0,0:0:0:0:
448,192,86901,1,0,0:0:0:0:
64,192,86978,1,0,0:0:0:0:
192,192,87055,1,0,0:0:0:0:
320,192,87132,1,0,0:0:0:0:
64,192,87209,1,0,0:0:0:0:
448,192,87286,1,0,0:0:0:0:
192,192,87363,1,0,0:0:0:0:
320,192,87439,1,0,0:0:0:0:
448,192,87516,1,0,0:0:0:0:
192,192,87593,1,0,0:0:0:0:
64,192,87670,1,0,0:0:0:0:
320,192,87747,1,0,0:0:0:0:
448,192,87747,1,0,0:0:0:0:
192,192,87824,1,0,0:0:0:0:
64,192,87901,1,0,0:0:0:0:
320,192,87978,1,0,0:0:0:0:
448,192,88055,1,0,0:0:0:0:
192,192,88132,1,0,0:0:0:0:
320,192,88209,1,0,0:0:0:0:
448,192,88286,1,0,0:0:0:0:
192,192,88363,1,0,0:0:0:0:
64,192,88439,1,0,0:0:0:0:
320,192,88516,1,0,0:0:0:0:
448,192,88593,1,0,0:0:0:0:
64,192,88670,1,0,0:0:0:0:
192,192,88670,1,0,0:0:0:0:
320,192,88747,1,0,0:0:0:0:
64,192,88824,1,0,0:0:0:0:
320,192,88901,1,0,0:0:0:0:
192,192,88978,1,0,0:0:0:0:
448,192,89055,1,0,0:0:0:0:
64,192,89132,1,0,0:0:0:0:
320,192,89209,1,0,0:0:0:0:
192,192,89286,1,0,0:0:0:0:
448,192,89363,1,0,0:0:0:0:
192,192,89439,1,0,0:0:0:0:
320,192,89516,1,0,0:0:0:0:
64,192,89593,1,0,0:0:0:0:
192,192,89593,1,0,0:0:0:0:
448,192,89593,1,0,0:0:0:0:
448,192,89823,1,0,0:0:0:0:
320,192,90054,1,0,0:0:0:0:
64,192,90054,1,0,0:0:0:0:
64,192,90285,1,0,0:0:0:0:
192,192,90516,1,0,0:0:0:0:
320,192,90516,1,0,0:0:0:0:
320,192,90746,1,0,0:0:0:0:
192,192,90977,1,0,0:0:0:0:
448,192,90977,1,0,0:0:0:0:
192,192,91208,1,0,0:0:0:0:
320,192,91439,1,0,0:0:0:0:
448,192,91439,1,0,0:0:0:0:
448,192,91669,1,0,0:0:0:0:
192,192,91900,1,0,0:0:0:0:
64,192,91900,1,0,0:0:0:0:
64,192,92131,1,0,0:0:0:0:
448,192,92362,1,0,0:0:0:0:
320,192,92362,1,0,0:0:0:0:
320,192,92593,1,0,0:0:0:0:
192,192,92823,1,0,0:0:0:0:
448,192,92823,1,0,0:0:0:0:
192,192,93054,1,0,0:0:0:0:
192,192,93169,1,0,0:0:0:0:
64,192,93285,1,0,0:0:0:0:
320,192,93285,1,0,0:0:0:0:
448,192,93285,1,0,0:0:0:0:
64,192,93516,1,0,0:0:0:0:
320,192,93746,1,0,0:0:0:0:
448,192,93746,1,0,0:0:0:0:
320,192,93977,1,0,0:0:0:0:
192,192,94208,1,0,0:0:0:0:
448,192,94208,1,0,0:0:0:0:
192,192,94439,1,0,0:0:0:0:
64,192,94669,1,0,0:0:0:0:
448,192,94669,1,0,0:0:0:0:
448,192,94900,1,0,0:0:0:0:
64,192,95131,1,0,0:0:0:0:
320,192,95131,1,0,0:0:0:0:
64,192,95362,1,0,0:0:0:0:
192,192,95593,1,0,0:0:0:0:
448,192,95593,1,0,0:0:0:0:
448,192,95823,1,0,0:0:0:0:
192,192,96054,1,0,0:0:0:0:
320,192,96054,1,0,0:0:0:0:
192,192,96285,1,0,0:0:0:0:
64,192,96516,1,0,0:0:0:0:
320,192,96516,1,0,0:0:0:0:
320,192,96746,1,0,0:0:0:0:
192,192,96823,1,0,0:0:0:0:
64,192,96900,1,0,0:0:0:0:
320,192,96977,1,0,0:0:0:0:
320,192,97093,1,0,0:0:0:0:
64,192,97208,1,0,0:0:0:0:
64,192,97323,1,0,0:0:0:0:
320,192,97439,1,0,0:0:0:0:
320,192,97554,1,0,0:0:0:0:
192,192,97669,1,0,0:0:0:0:
192,192,97785,1,0,0:0:0:0:
448,192,97900,1,0,0:0:0:0:
448,192,98016,1,0,0:0:0:0:
64,192,98131,1,0,0:0:0:0:
64,192,98246,1,0,0:0:0:0:
320,192,98362,1,0,0:0:0:0:
320,192,98477,1,0,0:0:0:0:
192,192,98593,1,0,0:0:0:0:
192,192,98708,1,0,0:0:0:0:
448,192,98823,1,0,0:0:0:0:
448,192,98939,1,0,0:0:0:0:
64,192,99054,1,0,0:0:0:0:
64,192,99169,1,0,0:0:0:0:
320,192,99285,1,0,0:0:0:0:
320,192,99400,1,0,0:0:0:0:
192,192,99516,1,0,0:0:0:0:
192,192,99631,1,0,0:0:0:0:
448,192,99746,1,0,0:0:0:0:
448,192,99862,1,0,0:0:0:0:
192,192,99977,1,0,0:0:0:0:
192,192,100093,1,0,0:0:0:0:
320,192,100208,1,0,0:0:0:0:
320,192,100323,1,0,0:0:0:0:
64,192,100439,1,0,0:0:0:0:
64,192,100554,1,0,0:0:0:0:
320,192,100669,1,0,0:0:0:0:
448,192,100669,1,0,0:0:0:0:
448,192,100785,1,0,0:0:0:0:
64,192,100900,1,0,0:0:0:0:
192,192,100900,1,0,0:0:0:0:
192,192,101016,1,0,0:0:0:0:
320,192,101131,1,0,0:0:0:0:
448,192,101131,1,0,0:0:0:0:
320,192,101246,1,0,0:0:0:0:
64,192,101362,1,0,0:0:0:0:
192,192,101362,1,0,0:0:0:0:
64,192,101477,1,0,0:0:0:0:
320,192,101593,1,0,0:0:0:0:
448,192,101593,1,0,0:0:0:0:
320,192,101708,1,0,0:0:0:0:
64,192,101823,1,0,0:0:0:0:
192,192,101823,1,0,0:0:0:0:
192,192,101939,1,0,0:0:0:0:
320,192,102054,1,0,0:0:0:0:
448,192,102054,1,0,0:0:0:0:
448,192,102169,1,0,0:0:0:0:
64,192,102285,1,0,0:0:0:0:
192,192,102285,1,0,0:0:0:0:
192,192,102400,1,0,0:0:0:0:
320,192,102516,1,0,0:0:0:0:
448,192,102746,1,0,0:0:0:0:
192,192,102977,1,0,0:0:0:0:
320,192,103208,1,0,0:0:0:0:
64,192,103439,1,0,0:0:0:0:
192,192,103669,1,0,0:0:0:0:
320,192,103903,1,0,0:0:0:0:
64,192,103905,1,0,0:0:0:0:
448,192,103907,1,0,0:0:0:0:
192,192,103909,1,0,0:0:0:0:
64,192,104369,128,0,104830:0:0:0:0:
192,192,104369,128,0,104599:0:0:0:0:
448,192,104369,128,0,104830:0:0:0:0:
320,192,105285,1,0,0:0:0:0:
448,192,105285,1,0,0:0:0:0:
192,192,105401,1,0,0:0:0:0:
64,192,105516,1,0,0:0:0:0:
320,192,105631,1,0,0:0:0:0:
192,192,105747,1,0,0:0:0:0:
448,192,105862,1,0,0:0:0:0:
192,192,105978,1,0,0:0:0:0:
320,192,106093,1,0,0:0:0:0:
64,192,106208,1,0,0:0:0:0:
448,192,106324,1,0,0:0:0:0:
192,192,106439,1,0,0:0:0:0:
320,192,106554,1,0,0:0:0:0:
64,192,106670,1,0,0:0:0:0:
448,192,106670,1,0,0:0:0:0:
192,192,106785,1,0,0:0:0:0:
320,192,106901,1,0,0:0:0:0:
64,192,107016,1,0,0:0:0:0:
192,192,107131,1,0,0:0:0:0:
448,192,107131,1,0,0:0:0:0:
320,192,107247,1,0,0:0:0:0:
64,192,107362,1,0,0:0:0:0:
320,192,107478,1,0,0:0:0:0:
192,192,107593,1,0,0:0:0:0:
448,192,107708,1,0,0:0:0:0:
320,192,107824,1,0,0:0:0:0:
192,192,107939,1,0,0:0:0:0:
320,192,108054,1,0,0:0:0:0:
448,192,108054,1,0,0:0:0:0:
64,192,108170,1,0,0:0:0:0:
192,192,108285,1,0,0:0:0:0:
448,192,108401,1,0,0:0:0:0:
320,192,108516,1,0,0:0:0:0:
192,192,108631,1,0,0:0:0:0:
448,192,108747,1,0,0:0:0:0:
64,192,108862,1,0,0:0:0:0:
320,192,108978,1,0,0:0:0:0:
448,192,108978,128,0,109093:0:0:0:0:
64,192,109093,128,0,109208:0:0:0:0:
320,192,109208,1,0,0:0:0:0:
192,192,109324,1,0,0:0:0:0:
448,192,109439,1,0,0:0:0:0:
192,192,109554,1,0,0:0:0:0:
320,192,109670,1,0,0:0:0:0:
64,192,109785,1,0,0:0:0:0:
192,192,109901,1,0,0:0:0:0:
320,192,110016,1,0,0:0:0:0:
64,192,110131,1,0,0:0:0:0:
448,192,110247,1,0,0:0:0:0:
64,192,110362,1,0,0:0:0:0:
192,192,110362,1,0,0:0:0:0:
448,192,110478,1,0,0:0:0:0:
320,192,110593,1,0,0:0:0:0:
192,192,110708,1,0,0:0:0:0:
64,192,110823,1,0,0:0:0:0:
448,192,110823,1,0,0:0:0:0:
64,192,111053,1,0,0:0:0:0:
448,192,111053,1,0,0:0:0:0:
64,192,111284,1,0,0:0:0:0:
192,192,111284,1,0,0:0:0:0:
320,192,111361,1,0,0:0:0:0:
64,192,111438,1,0,0:0:0:0:
320,192,111515,1,0,0:0:0:0:
448,192,111515,1,0,0:0:0:0:
192,192,111592,1,0,0:0:0:0:
448,192,111669,1,0,0:0:0:0:
64,192,111746,128,0,111978:0:0:0:0:
320,192,111746,128,0,112207:0:0:0:0:
192,192,111976,128,0,112207:0:0:0:0:
64,192,112207,128,0,112438:0:0:0:0:
448,192,112207,128,0,112670:0:0:0:0:
320,192,112438,128,0,112670:0:0:0:0:
64,192,112670,1,0,0:0:0:0:
192,192,112670,1,0,0:0:0:0:
448,192,112785,1,0,0:0:0:0:
192,192,112894,1,0,0:0:0:0:
320,192,113016,1,0,0:0:0:0:
64,192,113131,1,0,0:0:0:0:
320,192,113247,1,0,0:0:0:0:
192,192,113362,1,0,0:0:0:0:
64,192,113478,1,0,0:0:0:0:
320,192,113593,1,0,0:0:0:0:
448,192,113708,1,0,0:0:0:0:
192,192,113824,1,0,0:0:0:0:
320,192,113939,1,0,0:0:0:0:
64,192,114054,1,0,0:0:0:0:
448,192,114054,1,0,0:0:0:0:
192,192,114170,1,0,0:0:0:0:
320,192,114285,1,0,0:0:0:0:
64,192,114401,1,0,0:0:0:0:
320,192,114516,1,0,0:0:0:0:
448,192,114516,1,0,0:0:0:0:
192,192,114631,1,0,0:0:0:0:
448,192,114747,1,0,0:0:0:0:
320,192,114862,1,0,0:0:0:0:
64,192,114978,1,0,0:0:0:0:
320,192,115093,1,0,0:0:0:0:
192,192,115208,1,0,0:0:0:0:
64,192,115324,1,0,0:0:0:0:
320,192,115439,1,0,0:0:0:0:
448,192,115439,1,0,0:0:0:0:
192,192,115554,128,0,115670:0:0:0:0:
320,192,115670,128,0,115785:0:0:0:0:
448,192,115785,128,0,115901:0:0:0:0:
64,192,115901,128,0,116016:0:0:0:0:
320,192,116016,128,0,116131:0:0:0:0:
192,192,116131,128,0,116247:0:0:0:0:
448,192,116247,128,0,116362:0:0:0:0:
64,192,116362,1,0,0:0:0:0:
320,192,116362,1,0,0:0:0:0:
192,192,116478,128,0,116593:0:0:0:0:
320,192,116593,128,0,116708:0:0:0:0:
64,192,116708,128,0,116824:0:0:0:0:
320,192,116824,128,0,116939:0:0:0:0:
192,192,116939,128,0,117054:0:0:0:0:
64,192,117054,128,0,117170:0:0:0:0:
448,192,117170,128,0,117285:0:0:0:0:
192,192,117285,128,0,117401:0:0:0:0:
320,192,117401,128,0,117516:0:0:0:0:
448,192,117516,128,0,117631:0:0:0:0:
64,192,117631,128,0,117747:0:0:0:0:
192,192,117747,1,0,0:0:0:0:
448,192,117747,1,0,0:0:0:0:
320,192,117862,128,0,117978:0:0:0:0:
192,192,117978,128,0,118093:0:0:0:0:
64,192,118093,128,0,118207:0:0:0:0:
320,192,118207,1,0,0:0:0:0:
448,192,118207,1,0,0:0:0:0:
64,192,118439,1,0,0:0:0:0:
192,192,118439,1,0,0:0:0:0:
320,192,118668,1,0,0:0:0:0:
64,192,118670,1,0,0:0:0:0:
448,192,118672,1,0,0:0:0:0:
192,192,118674,1,0,0:0:0:0:
64,192,119131,128,0,120054:0:0:0:0:
192,192,119131,128,0,120054:0:0:0:0:
448,192,119131,128,0,120054:0:0:0:0:
320,192,120054,1,0,0:0:0:0:
192,192,120170,1,0,0:0:0:0:
448,192,120285,1,0,0:0:0:0:
64,192,120401,1,0,0:0:0:0:
320,192,120516,1,0,0:0:0:0:
192,192,120631,1,0,0:0:0:0:
64,192,120747,1,0,0:0:0:0:
320,192,120862,1,0,0:0:0:0:
192,192,120978,1,0,0:0:0:0:
448,192,121093,1,0,0:0:0:0:
192,192,121208,1,0,0:0:0:0:
320,192,121324,1,0,0:0:0:0:
64,192,121439,1,0,0:0:0:0:
192,192,121439,1,0,0:0:0:0:
448,192,121554,1,0,0:0:0:0:
192,192,121670,1,0,0:0:0:0:
320,192,121785,1,0,0:0:0:0:
64,192,121901,1,0,0:0:0:0:
448,192,121901,1,0,0:0:0:0:
192,192,122016,1,0,0:0:0:0:
320,192,122131,1,0,0:0:0:0:
64,192,122247,1,0,0:0:0:0:
192,192,122362,1,0,0:0:0:0:
448,192,122478,1,0,0:0:0:0:
320,192,122593,1,0,0:0:0:0:
192,192,122708,1,0,0:0:0:0:
320,192,122824,1,0,0:0:0:0:
448,192,122824,1,0,0:0:0:0:
64,192,122939,1,0,0:0:0:0:
320,192,123054,1,0,0:0:0:0:
192,192,123170,1,0,0:0:0:0:
64,192,123285,1,0,0:0:0:0:
320,192,123401,1,0,0:0:0:0:
192,192,123516,1,0,0:0:0:0:
448,192,123631,1,0,0:0:0:0:
64,192,123747,128,0,123862:0:0:0:0:
192,192,123747,1,0,0:0:0:0:
448,192,123862,128,0,123978:0:0:0:0:
192,192,123978,1,0,0:0:0:0:
320,192,124093,1,0,0:0:0:0:
64,192,124208,1,0,0:0:0:0:
320,192,124324,1,0,0:0:0:0:
192,192,124439,128,0,124554:0:0:0:0:
448,192,124554,128,0,124670:0:0:0:0:
320,192,124670,128,0,124785:0:0:0:0:
192,192,124785,128,0,124901:0:0:0:0:
448,192,124901,128,0,125016:0:0:0:0:
64,192,125016,128,0,125131:0:0:0:0:
320,192,125131,1,0,0:0:0:0:
448,192,125131,1,0,0:0:0:0:
192,192,125247,128,0,125362:0:0:0:0:
64,192,125362,128,0,125478:0:0:0:0:
320,192,125478,128,0,125593:0:0:0:0:
64,192,125593,1,0,0:0:0:0:
448,192,125593,1,0,0:0:0:0:
64,192,125824,1,0,0:0:0:0:
320,192,125824,1,0,0:0:0:0:
192,192,126055,1,0,0:0:0:0:
448,192,126055,1,0,0:0:0:0:
64,192,126132,1,0,0:0:0:0:
320,192,126209,1,0,0:0:0:0:
64,192,126286,1,0,0:0:0:0:
192,192,126286,1,0,0:0:0:0:
448,192,126363,1,0,0:0:0:0:
320,192,126440,1,0,0:0:0:0:
64,192,126517,128,0,126978:0:0:0:0:
448,192,126517,128,0,126747:0:0:0:0:
320,192,126747,128,0,126978:0:0:0:0:
192,192,126978,128,0,127439:0:0:0:0:
448,192,126978,128,0,127209:0:0:0:0:
64,192,127209,128,0,127439:0:0:0:0:
320,192,127439,1,0,0:0:0:0:
448,192,127554,1,0,0:0:0:0:
192,192,127670,1,0,0:0:0:0:
64,192,127785,1,0,0:0:0:0:
320,192,127901,1,0,0:0:0:0:
192,192,128016,1,0,0:0:0:0:
64,192,128131,1,0,0:0:0:0:
448,192,128247,1,0,0:0:0:0:
192,192,128362,1,0,0:0:0:0:
320,192,128478,1,0,0:0:0:0:
448,192,128593,1,0,0:0:0:0:
192,192,128708,1,0,0:0:0:0:
320,192,128824,1,0,0:0:0:0:
448,192,128824,1,0,0:0:0:0:
64,192,128939,1,0,0:0:0:0:
320,192,129054,1,0,0:0:0:0:
192,192,129170,1,0,0:0:0:0:
64,192,129285,1,0,0:0:0:0:
448,192,129285,1,0,0:0:0:0:
320,192,129401,1,0,0:0:0:0:
192,192,129516,1,0,0:0:0:0:
448,192,129631,1,0,0:0:0:0:
64,192,129747,1,0,0:0:0:0:
320,192,129862,1,0,0:0:0:0:
192,192,129978,1,0,0:0:0:0:
64,192,130093,1,0,0:0:0:0:
320,192,130208,1,0,0:0:0:0:
448,192,130208,1,0,0:0:0:0:
64,192,130324,1,0,0:0:0:0:
320,192,130439,128,0,130554:0:0:0:0:
192,192,130554,128,0,130670:0:0:0:0:
448,192,130670,128,0,130785:0:0:0:0:
64,192,130785,128,0,130901:0:0:0:0:
320,192,130901,128,0,131016:0:0:0:0:
192,192,131016,128,0,131131:0:0:0:0:
64,192,131131,1,0,0:0:0:0:
448,192,131131,1,0,0:0:0:0:
320,192,131247,128,0,131362:0:0:0:0:
192,192,131362,128,0,131478:0:0:0:0:
448,192,131478,128,0,131593:0:0:0:0:
64,192,131593,128,0,131708:0:0:0:0:
192,192,131708,128,0,131824:0:0:0:0:
320,192,131824,128,0,131939:0:0:0:0:
64,192,131939,128,0,132054:0:0:0:0:
320,192,132054,128,0,132170:0:0:0:0:
192,192,132170,128,0,132285:0:0:0:0:
448,192,132285,128,0,132401:0:0:0:0:
320,192,132401,128,0,132516:0:0:0:0:
64,192,132516,1,0,0:0:0:0:
192,192,132516,1,0,0:0:0:0:
448,192,132631,128,0,132747:0:0:0:0:
192,192,132747,128,0,132862:0:0:0:0:
320,192,132862,128,0,132977:0:0:0:0:
64,192,132977,1,0,0:0:0:0:
448,192,132977,1,0,0:0:0:0:
192,192,133207,1,0,0:0:0:0:
448,192,133207,1,0,0:0:0:0:
192,192,133438,1,0,0:0:0:0:
320,192,133438,1,0,0:0:0:0:
64,192,133669,1,0,0:0:0:0:
320,192,133669,1,0,0:0:0:0:
64,192,133900,1,0,0:0:0:0:
192,192,133900,1,0,0:0:0:0:
448,192,133900,1,0,0:0:0:0:
320,192,133900,1,0,0:0:0:0:
